<?xml version="1.0" encoding="UTF-8" standalone="no"?>
<!-- Creator: CorelDRAW 2021 (64-Bit) -->

<svg
   xml:space="preserve"
   width="209.947mm"
   height="106.815mm"
   version="1.0"
   style="shape-rendering:geometricPrecision; text-rendering:geometricPrecision; image-rendering:optimizeQuality; fill-rule:evenodd; clip-rule:evenodd"
   viewBox="0 0 20989.36 10678.8"
   id="svg270"
   sodipodi:docname="anglophone_studies__2-fach-m.a._.svg"
   inkscape:version="1.3-dev (77bc73e, 2022-05-18)"
   xmlns:inkscape="http://www.inkscape.org/namespaces/inkscape"
   xmlns:sodipodi="http://sodipodi.sourceforge.net/DTD/sodipodi-0.dtd"
   xmlns="http://www.w3.org/2000/svg"
   xmlns:svg="http://www.w3.org/2000/svg"><sodipodi:namedview
   id="namedview270"
   pagecolor="#ffffff"
   bordercolor="#000000"
   borderopacity="0.25"
   inkscape:showpageshadow="2"
   inkscape:pageopacity="0.0"
   inkscape:pagecheckerboard="0"
   inkscape:deskcolor="#d1d1d1"
   inkscape:document-units="mm"
   showgrid="false"
   inkscape:zoom="0.58457768"
   inkscape:cx="397.72302"
   inkscape:cy="201.85512"
   inkscape:window-width="1440"
   inkscape:window-height="900"
   inkscape:window-x="0"
   inkscape:window-y="0"
   inkscape:window-maximized="0"
   inkscape:current-layer="Ebene_x0020_1" />
 <defs
   id="defs82">
  <font
   id="FontID1"
   horiz-adv-x="556"
   font-variant="normal"
   style="fill-rule:nonzero"
   font-style="normal"
   font-weight="700">
	<font-face
   font-family="Officina Sans OS ITC TT"
   id="font-face1">
		<font-face-src>
			<font-face-name
   name="Officina Sans OS ITC TT Fett" />
		</font-face-src>
	</font-face>
   <missing-glyph
   id="missing-glyph1"><path
     d="M0 0z"
     id="path1" /></missing-glyph>
   <glyph
   unicode="("
   horiz-adv-x="443"
   d="M405.52 -214.65c0,-5.52 -2.5,-10 -7.7,-13.18l-51.82 -31.68c-3.17,-2.31 -6.99,-3.5 -11.16,-3.5 -11.16,0 -42.01,38.35 -92.83,115.18 -83.34,125.99 -125,256.66 -125,392.18 0,76 11.16,146.64 33.48,211.83 22.19,65 59.52,135 111.5,209.81 39.03,56.66 63.36,85.01 72.86,85.01 5.84,0 21.16,-8.02 45.82,-24.02 16.67,-10.65 24.85,-18.66 24.85,-23.83 0,-4.49 -2.5,-10.49 -7.7,-17.99 -43,-61.5 -76.32,-120.35 -99.98,-176.33 -33.16,-78.66 -49.83,-167 -49.83,-264.49 0,-81.51 11.67,-156.68 35.18,-225.69 23.31,-69.01 61.66,-140.68 114.64,-215.33 5.19,-7.82 7.7,-13.82 7.7,-17.99z"
   id="glyph1" />
   <glyph
   unicode=")"
   horiz-adv-x="443"
   d="M329 244.35c0,-76.19 -11.16,-146.83 -33.67,-212.03 -22.51,-65 -59.52,-135.16 -111.34,-210.33 -39.35,-56.66 -63.84,-85.01 -73.18,-85.01 -6.48,0 -21.84,8.18 -45.98,24.34 -16.51,11.16 -24.85,19.18 -24.85,24.02 0,4.49 2.69,10.49 7.86,17.99 41.14,55.67 74.49,114.32 100.34,175.82 33.16,79.69 49.83,168.19 49.83,265.19 0,108.99 -21.36,207.82 -64.01,296.65 -26.52,54.99 -55.67,103.83 -87.67,146.51 -4.17,5.48 -6.35,10.84 -6.35,15.65 0,4.17 2.69,8.5 7.86,12.67l53.17 32.16c3.33,2.02 6.48,3.01 9.81,3.01 11.35,0 42.52,-38.16 93.19,-114.67 83.31,-125.99 125,-256.66 125,-391.98z"
   id="glyph2" />
   <glyph
   unicode="-"
   horiz-adv-x="370"
   d="M330.99 216c0,-8.85 -1.15,-14.33 -3.5,-16.67 -2.15,-2.15 -7.98,-3.33 -17.51,-3.33l-249.99 0c-9.49,0 -15.33,1.19 -17.51,3.69 -2.31,2.5 -3.5,7.82 -3.5,16.32l0 79.01c0,9.14 1.19,14.65 3.5,16.84 2.18,2.15 8.02,3.14 17.51,3.14l249.99 0c11.67,0 18.34,-2.98 20.01,-8.82 0.67,-2.18 0.99,-6 0.99,-11.16l0 -79.01z"
   id="glyph3" />
   <glyph
   unicode="1"
   horiz-adv-x="537"
   d="M460 21c0,-9.33 -1.15,-15.33 -3.33,-17.51 -2.34,-2.34 -8.18,-3.5 -17.67,-3.5l-292.99 0c-9.01,0 -14.85,1.15 -17.35,3.5 -2.31,2.18 -3.66,8.18 -3.66,17.51l0 50.99c0,12.03 3.17,18.66 9.33,20.01 2.5,0.67 6.51,0.99 11.67,0.99l95.01 0 0 348.02 -80.01 -44.51c-5.16,-3.01 -8.85,-4.33 -11.16,-4.33 -4.17,0 -8.69,4.17 -13.69,12.67l-26.33 45.31c-2.5,4.52 -3.82,8.85 -3.82,12.67 0,5.52 3.82,10.84 11.32,16.19l160.01 115.99 69.65 0c11.67,0 18.34,-2.98 20.01,-8.82 0.67,-2.5 0.99,-6.35 0.99,-11.19l0 -481.99 71.16 0c11.67,0 18.34,-2.98 19.85,-8.82 0.67,-2.5 0.99,-6.67 0.99,-12.19l0 -50.99z"
   id="glyph4" />
   <glyph
   unicode="2"
   horiz-adv-x="537"
   d="M471 435.34c0,-47.01 -13.34,-87 -39.99,-120.19 -12.35,-14.98 -24.66,-27.16 -37,-36.65 -12.35,-9.49 -40.02,-27.16 -82.99,-53.17 -40.69,-24.82 -67.18,-44.35 -79.69,-58.65 -12.67,-14.33 -19.66,-32.52 -21.32,-54.67l233.99 0c11.99,0 18.66,-3.01 20.01,-8.85 0.67,-2.5 0.99,-6.67 0.99,-12.15l0 -70c0,-11.67 -3.01,-18.34 -8.82,-20.01 -2.69,-0.67 -6.67,-0.99 -12.19,-0.99l-359.98 0c-9.36,0 -14.17,4.68 -14.17,14.17l0 7.82c0,62.85 9.17,111.18 27.32,145.01 25.49,47.84 75.32,95.17 149.85,142.15 44.99,28.35 71.99,47.68 81,58.01 14.65,17 22,37.33 22,61.18 0,49.83 -27.99,74.65 -84.01,74.65 -41.49,0 -74.33,-28.67 -98,-86 -4.17,-10.17 -9.33,-15.17 -15.17,-15.17 -1.99,0 -5.48,0.99 -10.68,3.01l-63.97 24.34c-8.18,2.98 -12.19,7.82 -12.19,14.65 0,11.51 5.52,27.99 16.67,49.67 11,21.65 23.15,40.15 36.49,55.51 37.84,43.32 91.33,65 160.49,65 57.69,0 103.83,-16.35 138.85,-48.84 34.98,-32.52 52.49,-75.84 52.49,-129.84z"
   id="glyph5" />
   <glyph
   unicode="3"
   horiz-adv-x="537"
   d="M465 117.17c0,-62.5 -23.67,-113.68 -70.84,-153.34 -42.33,-35.18 -94.98,-52.81 -158.15,-52.81 -57.69,0 -111.18,11 -160.69,32.64 -19.5,8.85 -29.31,16.16 -29.31,22 0,2.02 0.64,5.52 1.99,10.36l20.01 71.83c1.67,6.16 5.32,9.33 11.16,9.33 2.34,0 5.48,-0.99 9.81,-3.01 51.02,-24.82 96.52,-37.17 136.19,-37.17 73.82,0 110.82,35.66 110.82,107.01 0,66.67 -42.01,99.98 -125.99,99.98l-29.66 0c-12.19,0 -18.86,3.01 -20.01,8.85 -0.67,2.5 -0.99,6.67 -0.99,12.15l0 66.03c0,11.64 2.82,18.31 8.66,19.98 2.66,0.67 6.83,0.99 12.35,0.99l31.65 0c33.35,0 57.69,5.68 73.34,17.19 23.18,17.16 34.66,42.84 34.66,76.67 0,25.14 -7.5,45.31 -22.48,60.48 -15.01,15.17 -34.86,22.67 -59.52,22.67 -32.32,0 -62.18,-17 -90.01,-50.99 -5.48,-6.51 -9.81,-9.68 -13.15,-9.68 -1.83,0 -4.84,1.19 -8.66,3.85l-55.35 49.83c-3.17,2.98 -4.84,6.32 -4.84,10.33 0,7.18 7.02,18.34 21,33.67 41.01,45.34 93.83,68.01 158.19,68.01 58.97,0 106.49,-16.35 142.66,-49.19 36.14,-32.64 54.16,-75.49 54.16,-128.65 0,-68.69 -31.52,-118.33 -94.66,-149.01 78.5,-25.33 117.65,-81.99 117.65,-169.99z"
   id="glyph6" />
   <glyph
   unicode="4"
   horiz-adv-x="537"
   d="M500.34 64.01c0,-11.67 -3.17,-18.34 -9.33,-20.01 -2.66,-0.67 -6.51,-0.99 -11.83,-0.99l-57.17 0 0 -129c0,-9.49 -1.15,-15.33 -3.33,-17.51 -2.34,-2.31 -8.18,-3.5 -17.67,-3.5l-82.99 0c-11.67,0 -18.34,3.17 -20.01,9.33 -0.67,2.5 -0.99,6.51 -0.99,11.67l0 129 -244.99 0c-9.52,0 -15.36,0.99 -17.67,3.17 -2.18,2.15 -3.33,7.66 -3.33,16.84l0 104.99 249 416.84c5.16,8.82 10,13.18 14.17,13.18 2.66,0 6.99,-1.35 13.15,-3.85l60.16 -26.49c9.68,-4.17 14.53,-8.34 14.53,-12.67 0,-3.17 -1.86,-8.34 -5.84,-15.17l-232.84 -395.83 155.65 0 13.02 161.17c0.67,8.82 2.15,14.33 4.65,16.64 2.5,2.18 7.86,3.33 16.35,3.33l67.98 0c11.99,0 18.66,-2.98 20.01,-9.17 0.67,-2.66 0.99,-6.64 0.99,-11.83l0 -163.16 57.17 0c9.49,0 15.33,-1.31 17.67,-3.82 2.34,-2.69 3.5,-9.36 3.5,-20.01l0 -53.17z"
   id="glyph7" />
   <glyph
   unicode="A"
   horiz-adv-x="556"
   d="M551.84 11.16c0,-7.5 -6.51,-11.16 -19.5,-11.16l-109.35 0c-8.5,0 -13.82,0.83 -16.16,2.5 -2.34,1.51 -4.49,6.51 -6.83,14.49l-43 163.99 -168.99 0 -42.84 -163.99c-2.34,-7.98 -4.49,-12.99 -6.32,-14.49 -2.02,-1.67 -7.18,-2.5 -15.68,-2.5l-99.18 0c-13.31,0 -19.98,3.66 -19.98,11.16 0,2.02 0.99,6.19 2.98,12.83l197.18 644.86c2.34,8.14 4.49,13.15 6.67,14.65 1.99,1.67 7.15,2.5 15.33,2.5l103.99 0c7.86,0 12.83,-0.83 14.85,-2.5 2.15,-1.51 4.49,-6.51 7.15,-14.65l196.86 -644.86c1.83,-6.64 2.82,-10.81 2.82,-12.83zm-220.68 262.85l-37.17 171.33c-6.16,28.48 -14.49,73.66 -24.82,135.64 -7.5,-47.33 -16.16,-92.48 -25.85,-135.64l-40.15 -171.33 127.98 0z"
   id="glyph8" />
   <glyph
   unicode="F"
   horiz-adv-x="444"
   d="M460 674.84c0,0.48 -0.67,-3.69 -1.99,-12.86l-20.01 -67.82c-3.17,-11.51 -10.49,-17.16 -22,-17.16l-194 0 0 -164.02 167.16 0c11.67,0 18.34,-3.14 20.01,-9.33 0.67,-2.5 0.99,-6.48 0.99,-11.64l0 -67.02c0,-11.99 -3.01,-18.66 -9.33,-20.01 -2.5,-0.64 -6.51,-0.99 -11.67,-0.99l-167.16 0 0 -282.99c0,-11.67 -3.17,-18.34 -9.33,-20.01 -2.5,-0.67 -6.51,-0.99 -11.67,-0.99l-94.98 0c-9.52,0 -15.36,1.15 -17.67,3.33 -2.18,2.34 -3.33,8.18 -3.33,17.67l0 644c0,9.49 1.15,15.33 3.5,17.67 2.15,2.18 7.98,3.33 17.51,3.33l333.97 0c13.34,0 20.01,-3.66 20.01,-11.16z"
   id="glyph9" />
   <glyph
   unicode="M"
   horiz-adv-x="704"
   d="M636.33 13.18c0,-8.85 -6.99,-13.18 -21,-13.18l-90.33 0c-8.34,0 -13.98,1.15 -16.48,3.33 -2.69,2.34 -4.17,7.82 -4.52,16.67l-6.83 387.14c0,35.18 0.35,71.86 0.99,110.02 -14.49,-65.16 -27,-113.52 -37,-145.17l-63.81 -205c-2.34,-7.5 -4.49,-11.99 -6.83,-13.66 -2.34,-1.67 -7.66,-2.5 -16,-2.5l-61.02 0c-8.14,0 -13.15,0.99 -15.33,2.66 -2.15,1.83 -4.33,6.67 -6.48,14.49l-56.18 194.84c-11,38.99 -23.15,90.49 -36.49,154.34l0 -157.35 -8.02 -339.81c0,-8.85 -1.31,-14.33 -3.82,-16.67 -2.66,-2.18 -8.34,-3.33 -17.19,-3.33l-81 0c-13.31,0 -19.98,4.84 -19.98,14.49l0 5.52 29.34 645.98c0.64,13.34 7.66,20.01 20.97,20.01l98.67 0c11.35,0 18.86,-5.32 22.35,-16.16l79.65 -252.85c6.83,-20.84 16,-59.32 27.35,-115.15 12.67,47.81 23.99,86.48 33.64,116.15l85.01 251.85c2.66,7.5 5,12.15 7.02,13.66 2.15,1.67 7.15,2.5 14.98,2.5l94.18 0c8.5,0 13.98,-1.15 16.67,-3.33 2.5,-2.34 3.98,-7.82 4.33,-16.67l33.16 -652.81z"
   id="glyph10" />
   <glyph
   unicode="S"
   horiz-adv-x="481"
   d="M452.01 194c0,-61.82 -20.17,-112.01 -60.35,-150.33 -40.15,-38.51 -92.67,-57.69 -157.83,-57.69 -40.34,0 -85.17,7.18 -134.65,21.52 -49.51,14.33 -74.17,27.16 -74.17,38.51 0,1.99 0.64,5.64 1.99,11.16l33.16 85.81c2.34,6.03 5.16,8.85 8.85,8.85 2.15,0 5.32,-0.99 9.17,-2.82 59.64,-32.68 110.66,-49 152.99,-49 59.84,0 89.82,27.64 89.82,82.99 0,24.98 -6.99,45.34 -20.97,60.99 -13.34,14.69 -51.34,37.68 -113.84,68.85 -59.84,29.98 -100.85,58.65 -123.01,86.16 -22.16,27.48 -33.16,63.33 -33.16,107.65 0,59.2 19.82,106.33 59.32,141.19 39.51,34.82 92.83,52.17 159.82,52.17 39.35,0 81,-7.18 125,-21.68 43.84,-14.49 65.83,-28.19 65.83,-41.17 0,-1.35 -0.99,-4.17 -2.82,-8.34l-36.17 -75.65c-2.34,-4.84 -5.32,-7.34 -8.82,-7.34 -2.34,0 -15.33,6.16 -39.19,18.15 -34.15,17.35 -67.5,26.01 -100.14,26.01 -28.03,0 -50.18,-6.51 -66.35,-19.5 -16.32,-12.99 -24.5,-30.82 -24.5,-53.17 0,-25.17 12.99,-46.18 38.99,-63.01 9.49,-6.32 44.51,-24.66 105.02,-55.32 51.5,-25.69 88.66,-54.67 111.5,-86.84 22.99,-32.16 34.5,-71.67 34.5,-118.17z"
   id="glyph11" />
   <glyph
   unicode="a"
   horiz-adv-x="481"
   d="M439.83 27.99c0,-4.65 -2.66,-7.82 -7.82,-9.81l-78.18 -31.17c-2.98,-2.02 -6.99,-3.01 -12.15,-3.01 -9.17,0 -19.18,19.66 -29.82,59 -37.2,-38 -79.69,-57.01 -128.01,-57.01 -45.82,0 -82.35,13.69 -109.35,41.01 -27,27.32 -40.5,64.17 -40.5,110.34 0,87.48 49.67,141 149.01,160.49 26.17,5.16 63.49,8.34 112.01,9.33l0 30.66c0,28.67 -4.68,48.36 -14.17,59 -9.49,10.84 -26.68,16.16 -51.85,16.16 -29.98,0 -67.31,-8.66 -111.98,-25.81 -4.17,-2.18 -8.02,-3.33 -11.19,-3.33 -4.17,0 -7.47,3.33 -9.81,10.17l-21 60c-1.67,3.5 -2.5,7.15 -2.5,10.68 0,10.81 18.66,21.16 55.83,31.17 37,10.17 75.68,15.17 115.66,15.17 80.52,0 132.34,-25.69 155.84,-77.18 9.49,-20.49 14.17,-48 14.17,-82.83l0 -204.01c0,-40.34 7.66,-76.32 22.83,-107.84 1.99,-4.33 2.98,-7.98 2.98,-11.16zm-144.81 85.68l0 110.5c-50.02,0 -86,-6.19 -107.52,-18.34 -21.65,-12.35 -32.48,-32.84 -32.48,-61.82 0,-19.69 6.16,-36.01 18.5,-49.19 12.31,-13.15 27.48,-19.82 45.31,-19.82 26.68,0 52.17,12.83 76.19,38.67z"
   id="glyph12" />
   <glyph
   unicode="c"
   horiz-adv-x="407"
   d="M405.52 454c0,-4.01 -0.83,-7.66 -2.85,-11.16l-34.66 -64.01c-2.66,-4.49 -5.68,-6.83 -9.33,-6.83 -2.82,0 -6.16,1.31 -9.65,4.01 -31.01,22.64 -59.2,33.99 -85.01,33.99 -65.99,0 -98.99,-56.02 -98.99,-167.84 0,-105.5 33.32,-158.15 99.98,-158.15 26.68,0 54,9.33 81.99,27.83 4.84,3.5 8.5,5.32 10.68,5.32 2.98,0 5.84,-2.34 8.34,-7.34l23.99 -60.99c1.83,-4.84 2.85,-8.66 2.85,-11.67 0,-12.67 -15.68,-24.82 -47.17,-36.65 -31.36,-11.67 -64.01,-17.51 -97.84,-17.51 -68.01,0 -120.86,22.16 -158.51,66.67 -37.52,44.32 -56.34,106.65 -56.34,187.17 0,84.82 20.68,151.84 61.82,200.64 41.17,49.03 97.51,73.53 169.18,73.53 30.5,0 61.82,-6.51 93.67,-19.34 32,-12.86 47.84,-25.33 47.84,-37.68z"
   id="glyph13" />
   <glyph
   unicode="d"
   horiz-adv-x="518"
   d="M465.67 30.85c0,-3.53 -3.01,-6.51 -8.85,-8.69l-82.99 -33.16c-5.16,-1.99 -8.66,-3.01 -10.17,-3.01 -11.16,0 -20.17,17.03 -27,51.18 -43.84,-36.17 -90.65,-54.16 -140,-54.16 -51.82,0 -91.84,22.16 -120.15,66.67 -28.35,44.32 -42.52,107.01 -42.52,188.01 0,95.33 19.5,166.49 58.68,213.31 33.83,40.02 76.48,60.03 127.66,60.03 32.16,0 65.16,-9.36 98.67,-28.19l0 203.17c0,10 5,16 15.17,17.99l102 20.01c6.51,0 9.84,-5.68 9.84,-17l0 -583.84c0,-30.34 5.8,-58.84 17.64,-85.84 0.67,-1.67 1.35,-3.82 2.02,-6.48zm-146.67 85.33l0 275.84c-23.83,11.99 -47.84,17.99 -71.83,17.99 -31.68,0 -54,-12.35 -66.83,-37.17 -12.86,-24.66 -19.34,-67.34 -19.34,-127.85 0,-57.82 6.16,-99.66 18.34,-125.48 12.15,-25.69 31.97,-38.51 59.48,-38.51 31.33,0 58.01,11.67 80.17,35.18z"
   id="glyph14" />
   <glyph
   unicode="e"
   horiz-adv-x="481"
   d="M449.99 237.84c0,-8.66 -1.31,-15.01 -3.82,-19.02 -2.66,-3.82 -8.69,-5.84 -18.02,-5.84l-268.14 0c1.99,-83.98 38.83,-125.99 110.5,-125.99 37.17,0 74.97,10.33 113.32,31.17 5.16,2.66 9.49,3.85 12.99,3.85 5,0 8.69,-3.01 11.35,-9.17l24.66 -59.52c1.99,-5 2.98,-8.66 2.98,-11.32 0,-8.66 -13.66,-19.02 -40.98,-30.69 -43.67,-18.82 -89.66,-28.31 -138.18,-28.31 -63.49,0 -113.16,16.48 -148.98,49.32 -49.83,45.5 -74.68,115.86 -74.68,210.84 0,80.33 20.01,145.01 60,194.16 40.18,49.19 92.99,73.69 158.83,73.69 132.18,0 198.17,-91.01 198.17,-273.18zm-132.98 68.17c-1.03,41.49 -7.02,70.84 -18.18,87.99 -11,17.32 -29.34,26.01 -54.67,26.01 -29.66,0 -51.31,-12.51 -64.65,-37.68 -8.85,-16.32 -15.01,-41.85 -18.5,-76.32l156 0z"
   id="glyph15" />
   <glyph
   unicode="g"
   horiz-adv-x="500"
   d="M464.68 474.01c0,-2.66 -2.02,-8.69 -5.84,-18.18 -14.49,-34.66 -21.84,-72.5 -21.84,-113.16l0 -147.99c0,-54.67 0.99,-108.83 2.98,-162.51 1.35,-36.17 2.02,-57.17 2.02,-63.01 0,-57.3 -16.16,-101.33 -48.68,-131.99 -32.32,-30.82 -78.82,-46.18 -139.49,-46.18 -42.33,0 -86.84,6.35 -133.33,18.86 -46.69,12.47 -69.84,24.66 -69.84,36.33 0,2.31 0.67,5.48 1.83,9.81l21.52 68.85c1.99,6.83 5.64,10.17 10.84,10.17 2.98,0 5.8,-0.83 8.82,-2.82 54.32,-24.85 103.99,-37.17 148.66,-37.17 27.67,0 47.33,6.32 59,18.98 11.83,12.67 17.67,33.99 17.67,64.01 0,14.33 -1.67,36.01 -4.84,65 -35.34,-24.66 -73.98,-37 -116.34,-37 -50.47,0 -90.49,21.84 -119.83,65.67 -29.31,43.67 -44,102.84 -44,177.33 0,80.33 16.51,144.17 49.35,191.34 32.84,47.17 77.31,70.68 133.33,70.68 40.66,0 78.98,-15.36 115.15,-46.18 13.34,32.84 25.17,49.16 35.18,49.16 4.01,0 7.15,-0.67 9.84,-1.99l78.98 -28.35c5.84,-2.82 8.85,-6.16 8.85,-9.65zm-150.68 -332.85l0 236.01c-25.65,19.18 -49.32,28.83 -70.84,28.83 -54.83,0 -82.15,-50.67 -82.15,-152 0,-98 24.66,-146.99 73.82,-146.99 31.01,0 57.34,11.32 79.17,34.15z"
   id="glyph16" />
   <glyph
   unicode="h"
   horiz-adv-x="537"
   d="M471.99 17c0,-11.32 -5.64,-17 -17.16,-17l-93.15 0c-11.19,0 -16.67,5.68 -16.67,17.16l0 308.67c0,30.34 -4.17,52.01 -12.67,64.84 -8.5,12.83 -22.67,19.34 -42.52,19.34 -27.32,0 -55.83,-13.66 -85.81,-41.17l0 -351.68c0,-11.48 -5.68,-17.16 -17.19,-17.16l-92.64 0c-11.51,0 -17.19,5.68 -17.19,17.16l0 668.85c0,10 4.84,16 14.69,17.99l93.31 19.02c1.83,0.67 4.84,0.99 8.85,0.99 6.83,0 10.17,-5.68 10.17,-17l0 -253.84c40.66,38.51 86.48,57.85 137.66,57.85 51.5,0 88.15,-18.02 110.34,-54.19 13.31,-21.84 19.98,-56.15 19.98,-103l0 -336.83z"
   id="glyph17" />
   <glyph
   unicode="i"
   horiz-adv-x="295"
   d="M236.01 641.01c0,-22.51 -7.86,-41.53 -23.5,-57.34 -15.68,-15.84 -34.82,-23.67 -57.69,-23.67 -22.64,0 -41.65,7.82 -57.3,23.67 -15.68,15.81 -23.5,35.15 -23.5,58.33 0,21.84 7.98,40.5 23.99,56.34 16,15.81 35.18,23.67 57.66,23.67 22.35,0 41.17,-8.02 56.85,-23.86 15.65,-16 23.5,-34.98 23.5,-57.14zm-14.01 -624.02c0,-11.32 -5.68,-17 -17.16,-17l-93.19 0c-11.16,0 -16.64,5.68 -16.64,17.16l0 383.84 -76 0c-11.35,0 -17.03,5.68 -17.03,17l0 59c0,11.35 5.68,17 17.03,17l185.99 0c11.32,0 17,-5.64 17,-17l0 -460z"
   id="glyph18" />
   <glyph
   unicode="l"
   horiz-adv-x="277"
   d="M289.18 11.32c0,-6.83 -11,-13.31 -32.84,-19.3 -21.68,-6.03 -44.51,-9.01 -68.33,-9.01 -59.52,0 -97.51,24.15 -113.68,72.34 -6.16,17.16 -9.33,57.66 -9.33,121.5l0 508.16c0,10.65 5,17 15.17,18.98l89.82 18.02c6.86,1.31 11,1.99 12.19,1.99 6.51,0 9.84,-5.68 9.84,-17.16l0 -520.86c0,-39.15 0.64,-61.15 1.99,-65.99 3.5,-13.34 11.99,-19.98 25.33,-19.98 9.17,0 20.01,1.99 32.68,6 1.99,0.64 4.33,0.99 6.83,0.99 4.65,0 7.31,-2.02 8.34,-6l20.97 -85.84c0.67,-1.35 1.03,-2.5 1.03,-3.85z"
   id="glyph19" />
   <glyph
   unicode="m"
   horiz-adv-x="777"
   d="M714.99 17.02c0,-11.33 -5.64,-17.02 -17.14,-17.02l-92.69 0c-11.5,0 -17.14,5.69 -17.14,17.02l0 316c0,51.31 -15.01,76.96 -45.02,76.96 -24.67,0 -53.32,-14.96 -85.98,-44.81l0 -348.16c0,-11.33 -5.69,-17.02 -17.19,-17.02l-90.64 0c-11.5,0 -17.19,5.69 -17.19,17.19l0 307.67c0,28.13 -1.67,46.99 -4.83,56.82 -6.16,18.81 -20.01,28.3 -41.17,28.3 -24.97,0 -53.66,-14.32 -85.98,-42.97l0 -349.82c0,-11.5 -5.69,-17.19 -17.19,-17.19l-91.15 0c-11.16,0 -16.67,5.69 -16.67,17.02l0 335.8c0,41 -5.99,77 -18,108 -2.01,3.85 -2.99,7.7 -2.99,11.2 0,5.47 3.68,9.49 10.82,11.63l81.19 27.36c6.5,1.33 9.83,2.01 9.83,2.01 11.67,0 22.49,-24.03 32.15,-72 50.66,46.65 100.35,69.99 149.34,69.99 51.48,0 87.82,-23.34 108.98,-69.99 51.69,46.65 103.17,69.99 154.69,69.99 46.65,0 78.67,-16.85 95.81,-50.32 12.19,-23 18.17,-61.35 18.17,-114.67l0 -329z"
   id="glyph20" />
   <glyph
   unicode="n"
   horiz-adv-x="537"
   d="M473.02 17c0,-11.32 -5.68,-17 -17.19,-17l-93.15 0c-11.16,0 -16.67,5.68 -16.67,17.16l0 308.67c0,56.18 -19.02,84.18 -57.17,84.18 -26.01,0 -54.99,-13.66 -86.84,-41.17l0 -351.68c0,-11.48 -5.64,-17.16 -17.16,-17.16l-93.15 0c-11.19,0 -16.67,5.68 -16.67,17.16l0 335.83c0,42.84 -6.83,79.17 -20.68,108.83 -2.15,4.17 -3.33,7.66 -3.33,10.17 0,4.01 2.85,6.83 8.34,8.85l88.66 33.16c3.69,1.35 7.02,1.99 10.36,1.99 12.31,0 24.15,-22.99 35.66,-69.17 46.5,42.84 96.33,64.2 149.66,64.2 86.16,0 129.36,-52.69 129.36,-158.19l0 -335.83z"
   id="glyph21" />
   <glyph
   unicode="o"
   horiz-adv-x="500"
   d="M468.01 248c0,-81.67 -19.34,-146.35 -58.17,-193.84 -38.83,-47.49 -91.68,-71.16 -158.86,-71.16 -68.49,0 -121.82,23.34 -160.33,69.84 -38.48,46.5 -57.66,111.14 -57.66,194.16 0,81 19.18,144.65 57.66,190.83 40.69,48.84 95.53,73.18 164.18,73.18 65.83,0 117.85,-23.7 156,-70.84 38.16,-47.17 57.17,-111.18 57.17,-192.18zm-135 -1.99c0,58.97 -6.51,100.98 -19.53,126.15 -12.99,25.17 -34.47,37.84 -64.49,37.84 -28.67,0 -49.32,-12.83 -61.98,-38.51 -12.67,-25.81 -19.02,-67.15 -19.02,-124.48 0,-57.85 6.51,-99.5 19.34,-125 12.83,-25.33 33.67,-38 62.66,-38 29.34,0 50.51,12.67 63.49,38 13.02,25.49 19.53,66.83 19.53,124z"
   id="glyph22" />
   <glyph
   unicode="p"
   horiz-adv-x="518"
   d="M486 254.83c0,-181.18 -60.99,-271.83 -182.84,-271.83 -36.17,0 -70.16,8.66 -102.16,25.81l0 -180.82c0,-10 -5,-16 -15.17,-17.99l-93.31 -20.01 -9.68 -0.99c-5.84,0 -8.82,5.32 -8.82,16.16l0 549.66c0,32.52 -6.51,65.51 -19.69,99.02 -1.48,3.33 -2.31,5.84 -2.31,7.82 0,3.33 3.5,6.35 10.33,9.33l86.84 36.49c4.81,2.34 7.98,3.53 9.33,3.53 9.33,0 18.66,-17.35 27.83,-52.01 38.32,34.66 80.65,52.01 126.82,52.01 115.18,0 172.84,-85.36 172.84,-256.18zm-127.02 -4.01c0,106.17 -26.65,159.18 -80.17,159.18 -25.14,0 -51.15,-11.99 -77.83,-36.17l0 -275.84c23.5,-12.67 46.85,-18.98 70,-18.98 32.52,0 55.35,12.67 68.49,38 13.02,25.49 19.5,70 19.5,133.81z"
   id="glyph23" />
   <glyph
   unicode="r"
   horiz-adv-x="351"
   d="M365.18 488.5c0,-1.83 -0.67,-5.52 -2.34,-10.68l-30.85 -80.84c-2.31,-5.8 -4.81,-8.82 -7.82,-8.82 -0.99,0 -3.33,0.67 -7.34,1.99 -14.98,5.16 -28.31,7.86 -39.99,7.86 -21.48,0 -46.82,-16 -75.84,-47.84l0 -333.01c0,-11.48 -5.68,-17.16 -17.16,-17.16l-93.19 0c-11.16,0 -16.64,5.68 -16.64,17l0 303.67c0,47.84 -10,94.18 -30.01,139.17 -1.31,3.82 -1.99,6.99 -1.99,9.17 0,4.33 3.33,7.5 9.81,9.81l81 28.67c5.84,2.34 10,3.53 12.19,3.53 13.34,0 26.01,-26.01 38.16,-77.86 7.82,9.33 19.02,22.35 33.67,38.83 26.01,26.01 56.5,39.03 91.33,39.03 14.69,0 27.83,-2.34 39.51,-6.86 11.67,-4.49 17.51,-9.65 17.51,-15.65z"
   id="glyph24" />
   <glyph
   unicode="s"
   horiz-adv-x="425"
   d="M393.01 145.01c0,-45.5 -15.33,-84.18 -45.86,-116.18 -29.5,-30.5 -70.48,-45.82 -122.66,-45.82 -58.84,0 -115.34,13.98 -169.5,42.01 -14.65,7.5 -22,13.82 -22,18.98 0,2.66 0.99,6.67 3.01,12.19l22.83 60.99c2.66,6.51 6,9.81 9.81,9.81 2.34,0 5.36,-0.99 9.33,-2.98 52.85,-28.67 98.03,-43 135.83,-43 38.83,0 58.17,17.16 58.17,51.66 0,14.33 -4.81,25.49 -14.33,33.35 -9.65,7.66 -30.5,17.67 -62.66,29.66 -52.49,20.17 -87,38.32 -103.99,54.16 -26.68,25.49 -40.02,58.17 -40.02,98.16 0,47.84 16.67,87 50.02,117.33 33.32,30.53 76,45.7 127.98,45.7 31.52,0 64.84,-5.36 100.02,-16.19 34.98,-10.65 52.65,-20.65 52.65,-30.14 0,-2.5 -0.99,-6.19 -2.98,-10.68l-24.69 -57.01c-2.66,-5.8 -6,-8.82 -10.17,-8.82 -1.31,0 -3.98,0.67 -7.82,1.99 -38.48,17.19 -71.99,25.85 -100.5,25.85 -42.33,0 -63.49,-17 -63.49,-50.83 0,-13.66 4.17,-24.18 12.31,-31.33 8.18,-7.34 25.85,-16.35 53.01,-26.68 60,-23.5 98.35,-43.51 115.02,-60 27.16,-26.84 40.66,-60.83 40.66,-102.16z"
   id="glyph25" />
   <glyph
   unicode="t"
   horiz-adv-x="370"
   d="M366.01 22c0,-8.18 -10.36,-15.33 -31.17,-22 -35.18,-11.32 -68.85,-17 -101.17,-17 -59.16,0 -99.5,21.48 -120.99,64.49 -9.17,18.86 -13.69,49.83 -13.69,92.67l0 260.83 -69.33 0c-11.16,0 -16.67,5.68 -16.67,17l0 59c0,11.35 5.52,17 16.67,17l69.33 0 0 126.18c0,10.49 5.36,16.48 16.16,18.15l91.84 12.67 8.85 0c6.83,0 10.17,-5.32 10.17,-16.16l0 -140.84 113.68 0c11.32,0 17.16,-3.33 17.16,-10.17 0,-3.98 -0.35,-6.83 -0.99,-8.82l-13.18 -58.84c-1.99,-10.17 -7.82,-15.17 -17.67,-15.17l-98.99 0 0 -243c0,-22.83 1.15,-37.49 3.5,-44 4.49,-13.34 15.68,-20.01 33.51,-20.01 15.65,0 37.65,5.68 65.99,16.84 3.17,1.35 6.16,2.02 8.66,2.02 4.68,0 8.02,-3.33 10.33,-9.84l15.68 -69.65c1.51,-6.03 2.34,-9.68 2.34,-11.35z"
   id="glyph26" />
   <glyph
   unicode="u"
   horiz-adv-x="537"
   d="M485.01 15.33c0,-4.01 -3.33,-6.67 -9.84,-8.34l-83.98 -18.98c-5.84,-1.35 -9.68,-2.02 -11.19,-2.02 -11.48,0 -21.32,18.34 -29.82,55.03 -40.66,-38.67 -86.84,-58.01 -138.18,-58.01 -50.15,0 -87.67,14.33 -112.81,43 -16.35,18.5 -26.52,42.65 -30.69,72.34 -2.34,13.98 -3.5,40.66 -3.5,79.97l0 293.19c0,9.65 5,15.49 15.17,17.48l92.83 20.01c1.35,0.67 4.01,0.99 8.34,0.99 7.15,0 10.68,-5.16 10.68,-15.65l0 -310.18c0,-37.49 3.14,-61.82 9.33,-73.34 9.33,-17.83 26.65,-26.81 51.66,-26.81 26.65,0 54.32,11.99 82.99,36.14l0 351.19c0,9.81 5,15.65 15.17,17.64l92.83 20.01 10.17 0.99c5.84,0 8.85,-5.16 8.85,-15.65l0 -368.16c0,-42.68 6.32,-76.67 18.98,-102 2.02,-3.01 3.01,-6 3.01,-8.85z"
   id="glyph27" />
  </font>
  <font
   id="FontID0"
   horiz-adv-x="537"
   font-variant="normal"
   style="fill-rule:nonzero"
   font-style="normal"
   font-weight="400">
	<font-face
   font-family="Officina Sans OS ITC TT"
   id="font-face27">
		<font-face-src>
			<font-face-name
   name="Officina Sans OS ITC TT" />
		</font-face-src>
	</font-face>
   <missing-glyph
   id="missing-glyph27"><path
     d="M0 0z"
     id="path27" /></missing-glyph>
   <glyph
   unicode="("
   horiz-adv-x="370"
   d="M316.82 -202.18c0,-3.82 -5.64,-9.49 -16.8,-16.84 -11.19,-7.31 -20.01,-11 -26.2,-11 -9.65,0 -32.64,27 -68.82,81 -81.99,122.85 -123.01,255.51 -123.01,398.01 0,153.66 48.32,296.68 145.01,429.18 24.5,33.16 39.99,49.83 46.82,49.83 3.69,0 7.7,-1.35 12.35,-3.85l23.83 -15.17c4.68,-2.98 6.83,-5.84 6.83,-8.82 0,-3.85 -2.82,-10 -8.82,-18.02 -96.01,-127.98 -144.01,-272.31 -144.01,-433.16 0,-159.82 48,-304.15 144.01,-433.16 6,-8.02 8.82,-14.17 8.82,-18.02z"
   id="glyph28" />
   <glyph
   unicode=")"
   horiz-adv-x="370"
   d="M288.99 249c0,-153.34 -48.32,-296.33 -145.17,-429.15 -24.31,-33.19 -39.99,-49.86 -46.82,-49.86 -3.5,0 -7.66,1.35 -12.15,3.85l-24.02 14.17c-4.49,3.66 -6.83,6.83 -6.83,9.81 0,3.85 3.01,10 8.82,18.02 96.17,129 144.17,273.34 144.17,433.16 0,159.82 -48,304.18 -144.17,433.16 -5.8,7.86 -8.82,13.85 -8.82,18.02 0,2.98 7.66,9.33 22.99,18.98 9.33,5.84 16.16,8.85 20.01,8.85 9.17,0 32,-27 68.85,-81 82.15,-120.51 123.14,-253.17 123.14,-398.01z"
   id="glyph29" />
   <glyph
   unicode="*"
   horiz-adv-x="500"
   d="M415.01 542.99c0,-4.33 -3.69,-7.15 -11.16,-8.82l-113.84 -26.33 77.15 -87.99c3.33,-3.85 5,-6.86 5,-8.85 0,-3.5 -2.82,-7.34 -8.34,-11.16l-34.66 -25.01c-5,-3.17 -7.98,-4.84 -9.33,-4.84 -3.17,0 -6.51,2.69 -9.84,7.86l-60 100.14 -60 -100.14c-3.33,-5.16 -6.51,-7.86 -9.84,-7.86 -2.15,0 -5.64,1.67 -10.17,4.84l-35.15 26.01c-5.36,3.85 -7.86,6.99 -7.86,9.17 0,1.99 2.02,5.32 5.84,9.84l76.19 87.99 -112.84 26.33c-8.18,1.67 -12.15,4.49 -12.15,8.82 0,1.19 0.64,3.85 1.99,7.86l14.17 42.01c2.15,7.47 5.16,11.16 8.66,11.16 0.32,0 3.17,-0.99 8.34,-3.01l108 -45.82 -11.35 121.5c0,6.16 4.84,9.33 14.17,9.33l44 0c8.85,0 13.18,-2.66 13.18,-7.82l0 -6.35 -10.17 -116.66 111.34 46.82c2.5,1.35 4.17,2.02 4.84,2.02 3.5,0 6.48,-3.69 8.82,-11.16l14.49 -46.53c0.35,-1.31 0.51,-2.31 0.51,-3.33z"
   id="glyph30" />
   <glyph
   unicode=","
   horiz-adv-x="295"
   d="M233 107.17c0,-1.67 -1.31,-4.84 -4.01,-9.84l-115.15 -212.47c-3.33,-5.84 -6.51,-8.85 -9.84,-8.85 -0.99,0 -2.66,0.32 -4.81,0.99l-3.01 0.99 -22 8.34c-7.5,2.5 -11.16,5.52 -11.16,8.69 0,0.64 0.64,3.33 1.99,7.82l58.01 200.48c1.99,7.18 6.99,10.68 15.17,10.68l81.16 0c9.01,0 13.66,-2.34 13.66,-6.83z"
   id="glyph31" />
   <glyph
   unicode="."
   horiz-adv-x="295"
   d="M219.18 57.17c0,-19.5 -7.02,-36.17 -20.84,-50.18 -13.82,-13.98 -30.34,-21 -49.51,-21 -19.82,0 -36.65,6.86 -50.31,20.52 -13.66,13.66 -20.52,30.5 -20.52,50.67 0,19.5 7.02,36.17 21,49.67 14.01,13.5 31.01,20.14 50.86,20.14 18.47,0 34.66,-6.83 48.48,-20.65 13.82,-13.82 20.84,-30.17 20.84,-49.16z"
   id="glyph32" />
   <glyph
   unicode="0"
   horiz-adv-x="500"
   d="M457.01 292.16c0,-204.17 -69.17,-306.17 -207.5,-306.17 -57.69,0 -102.84,19.69 -135.51,59 -45.98,56.02 -69.01,134.36 -69.01,234.86 0,96.65 18.86,171.81 56.5,225.65 37.68,53.68 90.33,80.49 157.83,80.49 63.68,0 112.52,-25.33 146.51,-75.81 34.15,-50.67 51.18,-123.36 51.18,-218.02zm-82.03 -2.34c0,150.17 -40.5,225.17 -121.5,225.17 -39.99,0 -71,-20.17 -93.15,-60.32 -22.16,-40.18 -33.35,-96.33 -33.35,-168.67 0,-76.83 12.03,-136.16 36.01,-178.16 19.5,-33.83 48.68,-50.83 87.51,-50.83 44.83,0 76.32,19.3 94.82,58.14 19.85,42.01 29.66,100.18 29.66,174.67z"
   id="glyph33" />
   <glyph
   unicode="1"
   horiz-adv-x="500"
   d="M424.82 14.17c0,-9.49 -4.49,-14.17 -13.66,-14.17l-264.17 0c-9.49,0 -14.17,4.68 -14.17,14.17l0 37.65c0,9.52 4.68,14.17 14.17,14.17l102 0 0 426.17 -111.82 -67.34c-4.52,-2.66 -8.02,-3.98 -10.2,-3.98 -2.98,0 -5.32,2.5 -6.83,7.31l-13.15 24.02c-2.02,3.5 -3.01,6.51 -3.01,8.82 0,3.17 2.34,6.67 6.83,10.17l150.33 109.83 49.67 0c9.52,0 14.17,-4.65 14.17,-14.14l0 -500.85 86.16 0c9.01,0 13.66,-4.65 13.66,-14.17l0 -37.65z"
   id="glyph34" />
   <glyph
   unicode="2"
   horiz-adv-x="500"
   d="M431.01 14.17c0,-9.49 -4.68,-14.17 -14.17,-14.17l-335.67 0c-6.16,0 -9.65,1.51 -10.65,4.33 -1.03,2.02 -1.51,5.32 -1.51,9.84 0,65 13.34,119.67 40.15,163.51 26.84,44 70.84,83.31 132.02,118.17 45.82,26.33 74.49,46.66 85.81,60.99 14.69,18.5 22.03,41.17 22.03,67.82 0,28.35 -8.53,50.51 -25.69,66.35 -17,16 -40.5,23.99 -70.48,23.99 -28.19,0 -51.02,-7.31 -68.53,-22.16 -17.32,-14.85 -32.32,-39.83 -44.99,-74.84 -2.66,-6.48 -6.16,-9.81 -10.33,-9.81 -2.02,0 -5.16,0.64 -9.68,1.99l-40.98 11.67c-5.52,2.34 -8.34,5.68 -8.34,10.33 0,7.5 4.33,20.49 13.18,38.99 8.82,18.66 17.83,34.02 27,46.02 35.5,45.82 84.5,68.82 147.15,68.82 53.84,0 96.17,-13.98 127.18,-41.98 30.98,-28.03 46.5,-66.35 46.5,-114.83 0,-47.17 -14.69,-86.36 -44,-117.33 -12.86,-13.02 -24.5,-23.02 -35.34,-30.17 -9.17,-6.19 -39.67,-24.18 -91.52,-53.84 -68.82,-39.67 -106.49,-91.33 -113,-154.82l269.68 0c9.49,0 14.17,-4.68 14.17,-14.17l0 -44.67z"
   id="glyph35" />
   <glyph
   unicode="3"
   horiz-adv-x="500"
   d="M433.99 109.83c0,-57.17 -19.66,-103.48 -58.81,-138.82 -39.19,-35.34 -90.68,-53.01 -154.69,-53.01 -34.31,0 -70.16,5 -108,15.17 -37.65,10 -56.5,19.66 -56.5,28.83 0,1.51 1.03,4.65 3.01,9.17l20.01 44.99c1.67,3.85 3.82,5.84 6.83,5.84 2.5,0 10.17,-2.98 22.99,-8.82 33.83,-16.19 70.51,-24.18 109.83,-24.18 88.82,0 133.33,41.33 133.33,124 0,81.99 -48.68,123.01 -146,123.01l-34.34 0c-8.98,0 -13.66,4.65 -13.66,13.98l0 40.02c0,9.33 4.68,13.98 13.85,13.98l33.16 0c39.35,0 70.84,10.84 93.99,32.52 23.34,21.65 35.02,50.67 35.02,87.16 0,29.34 -8.85,52.85 -26.33,70.16 -17.67,17.51 -41.33,26.17 -70.84,26.17 -36.52,0 -70.16,-17 -100.69,-50.83 -7.82,-8.66 -14.14,-13.18 -19.14,-13.18 -2.18,0 -5,1.35 -8.18,4.01l-32.84 27.83c-3.5,2.34 -5.32,5 -5.32,8.34 0,10 16.16,27 48.32,50.83 34.82,26.01 75,38.99 120.67,38.99 50.67,0 92,-14.81 123.68,-44.48 31.81,-29.5 47.65,-68.17 47.65,-115.66 0,-70.68 -34.34,-119.67 -103,-147.03 27.83,-8.5 49.32,-18.66 64.49,-30.66 41.01,-32.68 61.5,-78.66 61.5,-138.34z"
   id="glyph36" />
   <glyph
   unicode="5"
   horiz-adv-x="500"
   d="M433.99 150.84c0,-72.02 -21.16,-128.68 -63.33,-170.34 -42.33,-41.65 -99.66,-62.5 -172.01,-62.5 -36.14,0 -66.99,3.5 -92.48,10.33 -25.49,6.83 -38.16,15.01 -38.16,24.85l0 6.83 10.33 39.99c1.15,5.16 4.49,7.82 9.65,7.82 2.02,0 5.68,-0.67 11.19,-1.99 29.98,-11.16 64.65,-16.84 103.99,-16.84 99.15,0 148.82,53.01 148.82,159.18 0,39.99 -9.17,71.16 -27.32,93.31 -18.18,22.35 -43.67,33.51 -76.67,33.51 -41.49,0 -80.33,-18.34 -116.02,-54.83 -3.98,-4.17 -6.83,-6.35 -8.82,-6.35l-9.33 1.03 -34.66 12.15c-7.5,2.66 -11.16,5.68 -11.16,8.82l0 7.34 32.16 319.67c0.64,8.82 5.32,13.18 13.66,13.18l260.32 0c9.52,0 14.17,-4.68 14.17,-14.17l0 -41.69c0,-9.49 -4.65,-14.14 -14.17,-14.14l-208.98 0 -22 -202.85c38.83,28.51 78.98,42.84 120.47,42.84 50.51,0 91.68,-17.99 123.17,-54.16 31.52,-36.17 47.17,-83.18 47.17,-141z"
   id="glyph37" />
   <glyph
   unicode="6"
   horiz-adv-x="500"
   d="M443 224.18c0,-70 -17.99,-127.18 -53.84,-171.52 -35.98,-44.48 -82.51,-66.67 -139.65,-66.67 -67.85,0 -118.68,30.85 -152.35,92.35 -25.49,46.18 -38.16,106.65 -38.16,181.66 0,119.99 25.01,215.68 75,286.52 49.99,71 117.17,106.49 201.83,106.49 23.15,0 43,-2.18 59.32,-6.35 16.51,-4.33 24.69,-9.49 24.69,-15.65 0,-2.66 -0.35,-4.68 -1.03,-5.84l-10.65 -42.17c-1.35,-4.49 -3.85,-6.83 -7.34,-6.83l-6.83 0.83c-20.17,6.67 -40.5,10 -60.99,10 -54.19,0 -98.03,-23.18 -131.86,-69.52 -27.99,-38 -46.14,-86.16 -54.32,-144.49 38,43.32 80.49,65 127.5,65 51.34,0 92.35,-19.5 122.85,-58.49 30.5,-39.19 45.82,-90.84 45.82,-155.33zm-81.99 -1.19c0,97.35 -37.17,146 -111.5,146 -34.34,0 -61.02,-12.51 -80.01,-37.65 -19.02,-25.01 -28.51,-60.51 -28.51,-106.33 0,-112.01 36.49,-168 109.51,-168 73.66,0 110.5,55.32 110.5,165.98z"
   id="glyph38" />
   <glyph
   unicode="7"
   horiz-adv-x="500"
   d="M426.68 538.85l-230.85 -605.68c-2.34,-6.67 -5.68,-10.17 -9.84,-10.17 -0.64,0 -1.99,0 -3.82,0l-2.02 0 -54.16 8.34c-8.14,0.99 -12.31,3.5 -12.31,7.82 0,1.99 1.15,5 3.5,9.33l215.84 555.49 -257.85 0c-9.49,0 -14.17,4.68 -14.17,14.17l0 43.67c0,9.49 4.68,14.17 14.17,14.17l337.82 0c9.17,0 13.69,-4.68 13.69,-14.17l0 -22.99z"
   id="glyph39" />
   <glyph
   unicode="8"
   horiz-adv-x="500"
   d="M460 167.16c0,-44.32 -14.33,-82.99 -43,-116.18 -37.65,-43.32 -93.15,-65 -166.01,-65 -64.17,0 -115.31,16.35 -153.66,48.84 -38.16,32.52 -57.34,76 -57.34,130.35 0,53.49 19.02,97 57.17,130.83 18.82,17.32 48.52,33.83 88.82,49.32 -78.66,30.69 -117.97,80.33 -117.97,149.01 0,42.33 15.33,78.66 45.82,108.83 33.83,33.16 79.81,49.83 138.18,49.83 52.97,0 95.98,-13.85 129.16,-41.69 33.16,-27.83 49.83,-63.97 49.83,-108.16 0,-67.82 -37.68,-119.67 -113.16,-155.81 94.82,-38.19 142.15,-98.19 142.15,-180.18zm-104.99 328.01c0,28.31 -9.68,51.15 -29.02,68.17 -19.5,17.16 -44.99,25.65 -76.99,25.65 -30.5,0 -55.15,-8.5 -74.01,-25.33 -18.66,-17 -27.99,-39.15 -27.99,-66.51 0,-46.66 35.34,-86.32 106.01,-119.16 67.98,27.67 102,66.67 102,117.17zm22.99 -332.85c0,63.68 -43.32,112.01 -130,144.85 -84.01,-34.5 -125.99,-82.83 -125.99,-144.85 0,-33.32 11.83,-60 35.66,-80.17 23.83,-20.17 55.15,-30.14 94.34,-30.14 37.65,0 68.14,10.17 91.33,30.5 23.15,20.33 34.66,46.82 34.66,79.81z"
   id="glyph40" />
   <glyph
   unicode=":"
   horiz-adv-x="295"
   d="M219.18 402.82c0,-19.5 -6.83,-35.98 -20.52,-49.48 -13.66,-13.5 -30.34,-20.33 -49.83,-20.33 -19.82,0 -36.65,6.83 -50.31,20.49 -13.66,13.66 -20.52,30.34 -20.52,50.34 0,19.5 7.02,35.98 21,49.64 14.01,13.69 31.01,20.52 50.86,20.52 18.47,0 34.66,-7.02 48.48,-21 13.82,-14.01 20.84,-30.69 20.84,-50.18zm0 -345.65c0,-19.5 -7.02,-36.17 -20.84,-50.18 -13.82,-13.98 -30.34,-21 -49.51,-21 -19.82,0 -36.65,6.86 -50.31,20.52 -13.66,13.66 -20.52,30.5 -20.52,50.67 0,19.5 7.02,36.17 21,49.67 14.01,13.5 31.01,20.14 50.86,20.14 18.47,0 34.66,-6.83 48.48,-20.65 13.82,-13.82 20.84,-30.17 20.84,-49.16z"
   id="glyph41" />
   <glyph
   unicode="A"
   horiz-adv-x="537"
   d="M517.17 7.82c0,-5.16 -4.84,-7.82 -14.17,-7.82l-64.01 0c-6.83,0 -11.83,3.66 -15.17,11.16l-54.67 194.84 -203.14 0 -56.18 -194.84c-1.83,-7.5 -6.83,-11.16 -14.65,-11.16l-60 0c-9.52,0 -14.17,2.34 -14.17,6.83 0,1.67 0.67,4.68 1.99,9.33l201.19 658.68c2.15,7.5 7.15,11.16 14.65,11.16l60 0c7.82,0 12.83,-3.66 15.17,-11.16l201.15 -658.68c1.35,-4.65 2.02,-7.34 2.02,-8.34zm-167 267.18l-60.16 220.17c-8.69,31.49 -16.35,63.49 -22.83,95.65 -4.68,-23.5 -12.35,-54.99 -23.02,-94.66l-60.16 -221.16 166.17 0z"
   id="glyph42" />
   <glyph
   unicode="B"
   horiz-adv-x="556"
   d="M500.02 189c0,-42.01 -10.36,-78.82 -30.85,-110.34 -20.49,-31.65 -48.68,-53.49 -84.5,-65.48 -25.01,-8.85 -68.33,-13.18 -129.84,-13.18l-145.17 0c-9.17,0 -13.66,4.68 -13.66,14.17l0 657.66c0,9.49 4.49,14.17 13.66,14.17l163.16 0c62.85,0 108.16,-9.01 136.19,-26.84 42.65,-27.67 64.01,-73.5 64.01,-137.15 0,-77.18 -32.68,-131.51 -98.19,-163.19 32.68,-8.98 56.5,-20.65 71.83,-34.66 35.5,-32.84 53.36,-77.99 53.36,-135.16zm-116.02 324.32c0,38.67 -8.5,66.19 -25.65,82.35 -17.19,16.16 -46.34,24.34 -87.35,24.34l-92.99 0 0 -238 71.99 0c38.99,0 67.5,6 85.01,18.15 32.68,22.67 49,60.35 49,113.16zm27 -321.82c0,51.34 -18.98,87.32 -57.17,108.32 -19.14,10.84 -46.5,16.16 -81.99,16.16l-93.83 0 0 -249.99 97.68 0c40.98,0 71.83,8.02 92.32,24.02 28.67,22.48 43,56.31 43,101.49z"
   id="glyph43" />
   <glyph
   unicode="C"
   horiz-adv-x="462"
   d="M441.17 64.01c0,-6.83 -9.33,-17.35 -27.83,-31.68 -39.67,-30.82 -84.85,-46.34 -135.35,-46.34 -73.5,0 -129.49,31.01 -168.16,93.19 -38.48,62.15 -57.82,152.51 -57.82,270.84 0,116.82 18.98,205.16 57.14,265 36.17,56.66 90.17,85.01 162,85.01 55.67,0 105.34,-18.69 149.01,-56.02 10.68,-9.17 16.16,-15.84 16.16,-20.01 0,-2.66 -0.67,-5.32 -1.99,-7.82l-29.34 -38c-1.35,-2.66 -4.01,-4.01 -7.82,-4.01 -2.02,0 -13.34,8.02 -34.18,24.02 -29.98,23.15 -60.32,34.82 -91.01,34.82 -45.66,0 -78.82,-21.84 -99.66,-65.51 -20.81,-43.64 -31.33,-113.16 -31.33,-208.66 0,-203.82 47.17,-305.82 141.35,-305.82 34.47,0 71.83,17.67 111.82,53.01 4.68,3.82 8.18,5.84 10.84,5.84 2.66,0 5.32,-2.34 8.34,-6.86l24.82 -33.16c2.02,-1.99 3.01,-4.49 3.01,-7.82z"
   id="glyph44" />
   <glyph
   unicode="D"
   horiz-adv-x="556"
   d="M503 355.01c0,-236.68 -93.35,-355.01 -280.01,-355.01l-113.32 0c-9.17,0 -13.66,4.68 -13.66,14.17l0 657.66c0,9.49 4.49,14.17 13.66,14.17l104.15 0c79.69,0 139.17,-13.34 178.35,-39.99 73.82,-50.86 110.82,-147.86 110.82,-291.01zm-87.99 0c0,129.32 -28.35,209.49 -85.01,239.99 -25.17,13.34 -62.18,20.01 -110.98,20.01l-41.01 0 0 -544.01 50.83 0c38.99,0 68.49,4.33 88.5,13.02 19.85,8.5 37.68,24.5 53.68,47.97 29.31,43.19 44,117.52 44,223.02z"
   id="glyph45" />
   <glyph
   unicode="E"
   horiz-adv-x="462"
   d="M432 679.17c0,-2.34 -0.67,-5.36 -1.99,-9.33l-15.17 -44c-2.69,-7.18 -7.7,-10.84 -15.17,-10.84l-221.68 0 0 -226.01 195.83 0c9.49,0 14.17,-4.68 14.17,-14.01l0 -38.48c0,-9.01 -4.68,-13.5 -14.17,-13.5l-195.83 0 0 -252.01 238.83 0c9.49,0 14.17,-4.49 14.17,-13.66l0 -43.16c0,-9.49 -4.68,-14.17 -14.17,-14.17l-307.17 0c-9.17,0 -13.66,4.68 -13.66,14.17l0 657.66c0,9.49 4.49,14.17 13.66,14.17l308.16 0c9.33,0 14.17,-2.34 14.17,-6.83z"
   id="glyph46" />
   <glyph
   unicode="F"
   horiz-adv-x="425"
   d="M432 679.17c0,-2.34 -0.32,-4.17 -0.99,-5.36l-0.99 -3.98 -15.17 -44c-2.69,-7.18 -7.7,-10.84 -15.17,-10.84l-221.68 0 0 -233 195.83 0c9.49,0 14.17,-4.52 14.17,-13.5l0 -38.51c0,-9.33 -4.68,-14.01 -14.17,-14.01l-195.83 0 0 -301.81c0,-9.49 -4.68,-14.17 -14.17,-14.17l-54.16 0c-9.17,0 -13.66,4.68 -13.66,14.17l0 657.66c0,9.49 4.49,14.17 13.66,14.17l308.16 0c9.33,0 14.17,-2.34 14.17,-6.83z"
   id="glyph47" />
   <glyph
   unicode="I"
   horiz-adv-x="333"
   d="M310.18 14.33c0,-9.49 -4.84,-14.33 -14.17,-14.33l-258.84 0c-9.49,0 -14.17,4.84 -14.17,14.33l0 37.33c0,9.49 4.68,14.33 14.17,14.33l87.83 0 0 554.02 -87.83 0c-9.49,0 -14.17,4.65 -14.17,13.82l0 37.84c0,9.49 4.68,14.33 14.17,14.33l258.84 0c9.33,0 14.17,-4.84 14.17,-14.33l0 -37.84c0,-9.17 -4.84,-13.82 -14.17,-13.82l-89.02 0 0 -554.02 89.02 0c9.33,0 14.17,-4.84 14.17,-14.33l0 -37.33z"
   id="glyph48" />
   <glyph
   unicode="L"
   horiz-adv-x="444"
   d="M444.67 64.17c0,-0.67 -0.67,-3.66 -1.99,-8.82l-16.19 -44.03c-2.5,-7.47 -7.31,-11.32 -14.49,-11.32l-302.32 0c-9.17,0 -13.66,4.68 -13.66,14.17l0 657.66c0,9.49 4.49,14.17 13.66,14.17l54.16 0c9.49,0 14.17,-4.68 14.17,-14.17l0 -600.83 253.01 0c9.17,0 13.66,-2.34 13.66,-6.83z"
   id="glyph49" />
   <glyph
   unicode="M"
   horiz-adv-x="666"
   d="M593.01 9.84c0,-6.51 -4.17,-9.84 -12.67,-9.84l-58.17 0c-9.17,0 -13.85,4.33 -14.17,13.18l-15.01 512.65c0,-5.84 0.99,11.35 2.85,51.34l0.99 20.01c-4.52,-31.17 -11.51,-60.67 -21,-88.34l-117.17 -338.02c-2.66,-7.15 -7.5,-10.65 -14.65,-10.65l-29.34 0c-7.5,0 -12.51,3.5 -15.01,10.65l-112.84 338.02c-8.82,26.33 -15.17,55.83 -18.98,88.34l0 -19.02 1.83 -38.16 0 -19.02 -14.65 -507.81c0,-8.85 -4.33,-13.18 -12.86,-13.18l-54.32 0c-6.32,0 -10.17,0.83 -11.67,2.5 -1.51,1.51 -2.15,4.01 -2.15,7.34l0 4.33 37.65 658.65c0.67,8.85 5.36,13.18 14.17,13.18l59.16 0c7.5,0 12.51,-3.66 15.01,-11.16l117.85 -344.85c6.83,-19.82 11.64,-40.5 14.14,-61.98 1.35,11.48 5.68,32.16 13.18,61.98l118.84 344.85c2.66,7.5 7.66,11.16 15.17,11.16l62.98 0c8.18,0 12.51,-4.33 13.18,-13.18l37.68 -662.98z"
   id="glyph50" />
   <glyph
   unicode="P"
   horiz-adv-x="481"
   d="M465.99 502c0,-91.84 -33.16,-155.17 -99.66,-190 -28.51,-14.69 -67.15,-22 -116.5,-22l-71.83 0 0 -275.84c0,-9.49 -4.68,-14.17 -14.17,-14.17l-54.16 0c-9.17,0 -13.66,4.68 -13.66,14.17l0 657.66c0,9.49 4.49,14.17 13.66,14.17l153.5 0c59.68,0 102.32,-7.66 128.01,-22.99 49.83,-29.85 74.81,-83.66 74.81,-161.01zm-83.98 -0.99c0,57.5 -18.66,93.47 -55.83,107.65 -13.69,5.52 -37.2,8.34 -70.35,8.34l-77.83 0 0 -254.99 65.99 0c43.67,0 75,7.66 94.02,22.99 29.31,23.67 44,62.34 44,116.02z"
   id="glyph51" />
   <glyph
   unicode="R"
   horiz-adv-x="518"
   d="M504.67 8.5c0,-2.82 -3.85,-5.16 -11.67,-6.83l-60.99 -11.67 -5.52 0c-4.49,0 -7.98,2.66 -10.65,7.82l-162.16 313.2 -75.68 0 0 -296.84c0,-9.49 -4.68,-14.17 -14.17,-14.17l-54.16 0c-9.17,0 -13.66,4.68 -13.66,14.17l0 657.66c0,9.49 4.49,14.17 13.66,14.17l153.5 0c56.98,0 98.99,-6.99 125.99,-21 49.83,-26.01 74.84,-76 74.84,-150.01 0,-102.16 -43.35,-168 -130.16,-197.34l166.97 -297.8c2.5,-5 3.85,-8.69 3.85,-11.35zm-124.68 499.66c0,59 -21.48,94.66 -64.49,107.01 -11.51,3.17 -30.66,4.84 -57.85,4.84l-79.65 0 0 -246.02 76.83 0c36.17,0 63.49,7.66 82.15,22.83 28.67,23.34 43,60.51 43,111.34z"
   id="glyph52" />
   <glyph
   unicode="S"
   horiz-adv-x="481"
   d="M438.99 182.33c0,-58.65 -19.34,-106.01 -58.17,-142.15 -38.67,-36.17 -89.34,-54.19 -151.84,-54.19 -37.49,0 -78.31,7.02 -122.49,21 -44.32,14.01 -66.51,27 -66.51,39.03 0,1.99 0.67,4.65 2.02,8.31l18.98 47.68c1.35,3.33 3.5,5 6.83,5 3.01,0 8.69,-2.34 17.19,-6.83 50.99,-28.19 99.31,-42.17 145.01,-42.17 36.65,0 66.31,10.33 88.47,30.98 22.35,20.68 33.51,48 33.51,81.83 0,30.53 -8.5,56.02 -25.33,76.19 -17,20.17 -50.15,44.32 -99.66,72.66 -65.32,37.84 -107.33,67.15 -125.99,88.31 -26.68,30.34 -40.02,67.34 -40.02,110.85 0,53.17 18.34,96.49 54.99,130.32 36.52,33.83 83.85,50.86 141.86,50.86 33.48,0 69.65,-6.35 108.48,-19.18 38.99,-12.83 58.49,-24.5 58.49,-35.02 0,-1.83 -0.64,-4.49 -1.99,-7.66l-17.99 -45.31c-1.67,-4.01 -4.33,-5.84 -7.86,-5.84 -1.31,0 -15.65,6.64 -43,19.98 -30.3,14.69 -62.66,22 -97.16,22 -34.5,0 -61.5,-8.66 -80.81,-26.17 -19.34,-17.32 -29.02,-41.65 -29.02,-72.98 0,-35.66 13.34,-64.01 40.02,-84.85 7.15,-5.64 47.14,-30.5 120.15,-74.81 48.16,-28.51 81,-55.35 98.67,-80.01 22.16,-30.66 33.16,-66.51 33.16,-107.84z"
   id="glyph53" />
   <glyph
   unicode="T"
   horiz-adv-x="407"
   d="M422 679.17c0,-3.01 -0.32,-5 -0.99,-6.35l-0.99 -2.98 -15.17 -43c-2.34,-7.18 -7.18,-10.84 -14.69,-10.84l-144.14 0 0 -601.83c0,-9.49 -4.68,-14.17 -14.17,-14.17l-53.68 0c-9.49,0 -14.17,4.68 -14.17,14.17l0 601.83 -145.81 0c-9.52,0 -14.17,4.49 -14.17,13.66l0 42.17c0,9.49 4.65,14.17 14.17,14.17l390.16 0c9.01,0 13.66,-2.34 13.66,-6.83z"
   id="glyph54" />
   <glyph
   unicode="U"
   horiz-adv-x="591"
   d="M508 184.16c0,-61.5 -16.67,-108.48 -49.83,-141 -38.99,-38.16 -95.33,-57.17 -168.99,-57.17 -136.83,0 -205.16,66.03 -205.16,198.17l0 487.67c0,9.49 4.65,14.17 14.14,14.17l53.68 0c9.49,0 14.17,-4.68 14.17,-14.17l0 -485.01c0,-48.48 9.65,-82.99 28.99,-103.32 19.34,-20.33 52.01,-30.5 97.84,-30.5 90.84,0 136.16,44.67 136.16,133.81l0 485.01c0,9.49 4.52,14.17 13.69,14.17l51.66 0c9.17,0 13.66,-4.68 13.66,-14.17l0 -487.67z"
   id="glyph55" />
   <glyph
   unicode="V"
   horiz-adv-x="481"
   d="M467.66 673.02l-0.99 -8.85 -176.85 -652.85c-1.83,-7.47 -6.99,-11.32 -14.98,-11.32l-69.84 0c-8.18,0 -13.34,3.66 -15.17,11.16l-173.83 652.17c-1.35,4.84 -1.99,7.34 -1.99,7.66 0,3.33 3.82,6.51 11.64,9.33l59.2 13.66c1.31,0.67 2.82,1.03 4.81,1.03 3.69,0 6.35,-3.85 8.34,-11.67l127.02 -529.52c2.82,-12.67 6.48,-31.17 10.65,-55.67l4.33 -22.99c6.35,35.85 11.19,61.5 14.69,76.83l131.31 532.18c1.67,7.15 4.68,10.84 8.85,10.84 4.01,0 6.51,-0.35 7.82,-1.03l54.16 -12.67c7.18,-1.99 10.84,-4.81 10.84,-8.31z"
   id="glyph56" />
   <glyph
   unicode="W"
   horiz-adv-x="685"
   d="M663.15 672c0,-1 -0.31,-2.35 -1,-3.85l0 -4 -138.14 -651.99c-1.69,-8.16 -6.7,-12.16 -15.16,-12.16l-66.03 0c-8,0 -12.66,4 -13.66,12.16l-86.31 552.83 -104.01 -552.83c-1.35,-8.16 -6.16,-12.16 -14.66,-12.16l-61.03 0c-8.5,0 -13.47,4 -15.16,12.16l-124.98 653.84c-0.69,3.66 -1,6.16 -1,7.85 0,4 4,6.66 12.16,8.31l51.83 9.85c3.5,0.65 6.35,1 8.35,1 3.81,0 6.46,-3.85 7.66,-11.7l86 -494.31c4.16,-24.01 7.16,-65.68 8.81,-125.02 2,28.67 6,69.34 12.16,122.02l97.2 489.84c1.65,8.16 6.5,12.16 14.66,12.16l53.18 0c8.81,0 13.81,-4 15.16,-12.16l82 -493.69c4,-23.82 7.5,-64.49 10.81,-121.98 0.69,27.67 3.69,68.3 9.35,121.98l91.66 501.15c1.35,7.85 4.35,11.7 8.85,11.7 1.65,0 4,-0.35 7.31,-1l51.83 -10.7c8,-1.96 12.16,-5.16 12.16,-9.31z"
   id="glyph57" />
   <glyph
   unicode="a"
   horiz-adv-x="462"
   d="M405.68 24.66c0,-1.99 -1.35,-3.5 -3.85,-4.81l-43 -26.84c-2.66,-2.02 -5.16,-3.01 -7.82,-3.01 -12.67,0 -25.33,21 -38.16,63.01 -42.84,-42.01 -90.68,-63.01 -143.02,-63.01 -40.34,0 -72.5,12.35 -96.17,36.84 -23.83,24.66 -35.66,58.01 -35.66,99.98 0,113 87.99,171.01 264.01,173.99l0 33.19c0,32 -7.18,54.83 -21.32,68.49 -14.17,13.66 -37.68,20.49 -70.68,20.49 -33.16,0 -73.02,-9.65 -119.16,-28.99 -2.69,-1.15 -5,-1.83 -6.83,-1.83 -3.69,0 -6.03,1.48 -6.86,4.81l-15.17 40.02 -0.99 7.66c0,5 8.85,11.32 26.84,18.98 41.33,18.18 85.84,27.35 133.33,27.35 103.83,0 155.84,-46.66 155.84,-140.16l0 -189c0,-55.35 8.82,-99.02 26.65,-131.35 1.35,-2.15 2.02,-4.17 2.02,-5.84zm-103.67 85.17l0 129c-124.68,-0.99 -187.01,-36.33 -187.01,-106.01 0,-23.47 6.83,-42.49 20.52,-57.34 13.66,-14.81 31.33,-22.32 52.65,-22.32 33.32,0 71.16,19.02 113.84,56.66z"
   id="glyph58" />
   <glyph
   unicode="b"
   horiz-adv-x="500"
   d="M449.99 271.99c0,-190.67 -60.83,-286 -182.65,-286 -46.34,0 -89.02,16.35 -128.17,49.19 -11.99,-30.17 -22.83,-45.18 -32.32,-45.18 -2.02,0 -4.52,0.99 -7.86,3.01l-43 26.84c-1.99,1.83 -2.98,3.5 -2.98,4.81 0.32,2.66 1.31,5 2.98,7.34 18.66,24.5 28.03,59.48 28.03,104.99l0 561.17c0,6.83 3.66,11 11.16,12.67l51.66 12.19c0.67,0.67 3.01,0.99 6.83,0.99 4.17,0 6.35,-3.66 6.35,-11.16l0 -268.01c47.33,32.84 91.81,49.16 133.33,49.16 104.47,0 156.65,-73.98 156.65,-222zm-81.99 -10.65c0,110.5 -29.82,165.66 -89.34,165.66 -32.48,0 -72.15,-16.32 -118.65,-48.84l0 -285.49c29.66,-25.85 64.33,-38.67 103.99,-38.67 69.33,0 103.99,69.17 103.99,207.34z"
   id="glyph59" />
   <glyph
   unicode="c"
   horiz-adv-x="408"
   d="M398.17 430.17l-0.99 -6.35 -22 -38.99c-2.5,-4.68 -5.19,-6.83 -7.86,-6.83 -2.82,0 -5.64,1.15 -8.14,3.82 -40.69,30.17 -75,45.18 -103,45.18 -80.84,0 -121.18,-61.98 -121.18,-185.83 0,-124.84 37.17,-187.17 111.34,-187.17 22.16,0 43,4.49 62.5,13.66 11.32,5.68 29.82,17.35 55.15,35.34 3.01,1.99 5.36,3.01 7.34,3.01 2.66,0 4.84,-2.02 6.83,-5.84l15.17 -38.19c1.67,-4.14 2.5,-7.47 2.82,-10.17 0,-4.49 -5.32,-10.65 -16,-18.47 -42.65,-31.52 -89.31,-47.36 -139.65,-47.36 -59.68,0 -106.17,21.52 -139.49,64.36 -33.35,43 -50.02,102.49 -50.02,178.64 0,82.03 18.18,146.67 54.51,194 36.17,47.33 85.84,71 148.66,71 44.19,0 85.01,-12.99 122.01,-38.99 14.65,-10.49 22,-18.66 22,-24.82z"
   id="glyph60" />
   <glyph
   unicode="d"
   horiz-adv-x="500"
   d="M448.48 23.67c0,-1.99 -1.83,-3.82 -5.32,-5.84l-44.99 -24.82c-2.02,-2.02 -4.52,-3.01 -7.82,-3.01 -12.03,0 -23.02,20.01 -33.19,59.84 -56.66,-42.49 -106.33,-63.84 -148.98,-63.84 -49.19,0 -87.51,23.02 -115.34,68.85 -27.83,45.82 -41.85,109.35 -41.85,190.35 0,76.64 16,137.31 48.2,181.98 31.97,44.51 75.65,66.83 130.99,66.83 34.5,0 71.16,-10.65 109.83,-32l0 236.17c0,6.19 3.33,10.36 10.17,12.67l51.66 12.19c1.35,0.67 3.5,0.99 6.35,0.99 4.49,0 6.83,-3.66 6.83,-11.16l0 -554.85c0,-52.17 8.34,-91.49 25.17,-118.17 5.48,-8.5 8.31,-13.82 8.31,-16.16zm-108.48 87.99l0 283.5c-37,21.16 -70.84,31.84 -101.49,31.84 -37.36,0 -64.17,-14.01 -80.68,-41.85 -16.51,-27.83 -24.82,-73.14 -24.82,-136.16 0,-69.01 7.15,-118.84 21.65,-149.33 14.33,-30.5 38.19,-45.66 71.19,-45.66 34.98,0 72.98,19.18 114.16,57.66z"
   id="glyph61" />
   <glyph
   unicode="e"
   horiz-adv-x="462"
   d="M432 241.01c0,-12.03 -3.66,-18.02 -11.16,-18.02l-287.83 0c5.16,-112.65 49.32,-168.99 132.31,-168.99 35.5,0 74.01,11.99 115.66,35.82 3.69,2.02 7.02,3.01 10.36,3.01 2.31,0 4.49,-1.67 6.83,-5l17.99 -38.99c1.35,-2.82 2.02,-5.16 2.02,-6.83 0,-7.34 -12.03,-16.67 -36.17,-27.67 -39.67,-18.82 -80.68,-28.35 -123.01,-28.35 -63.49,0 -114,22.83 -151.68,68.53 -37.49,45.82 -56.34,107.17 -56.34,184.32 0,77.99 17.86,140 53.52,186.18 35.82,45.98 83.82,68.98 144.17,68.98 83.66,0 139.81,-39.99 168.16,-120.15 10.17,-28.35 15.17,-72.5 15.17,-132.82zm-81.99 44c-2.34,98.67 -38,147.99 -107.33,147.99 -68.85,0 -105.34,-49.32 -109.67,-147.99l217 0z"
   id="glyph62" />
   <glyph
   unicode="f"
   horiz-adv-x="295"
   d="M341.67 688.82c0,-0.67 -0.67,-2.5 -1.99,-5.84l-16.51 -40.98c-1.35,-3.85 -3.85,-5.84 -7.34,-5.84 -2.66,0 -5.84,0.99 -9.81,2.98 -28.86,13.85 -54.51,20.84 -77.02,20.84 -24.98,0 -42.17,-9.84 -51.15,-29.34 -5.84,-11.64 -8.85,-36.17 -8.85,-73.66l0 -76.99 143.85 0c7.5,0 11.32,-2.34 11.32,-6.83 0,-2.66 -0.32,-4.68 -0.99,-6.35l-13.18 -39.99c-1.99,-5.84 -6.32,-8.85 -13.15,-8.85l-127.85 0 0 -405.84c0,-6.16 -0.99,-9.65 -2.98,-10.65 -1.83,-0.99 -4.52,-1.51 -7.86,-1.51l-53.33 0c-5,0 -7.98,0.83 -9.17,2.66 -1.15,1.83 -1.67,5 -1.67,9.49l0 405.84 -66.31 0c-5.84,0 -9.17,1.03 -10.17,3.01 -0.99,1.83 -1.51,4.65 -1.51,8.18l0 38.64c0,6.19 1.35,9.84 3.85,11.19 1.31,0.64 3.98,0.99 7.82,0.99l66.31 0 0 77.99c0,54.16 8.69,92.67 25.85,115.66 25.17,33.51 62.5,50.34 112.01,50.34 23.31,0 47.49,-4.01 72.5,-11.99 24.82,-7.86 37.33,-15.68 37.33,-23.18z"
   id="glyph63" />
   <glyph
   unicode="g"
   horiz-adv-x="500"
   d="M447.01 461.82c0,-2.15 -2.02,-6.48 -5.84,-12.67 -16.84,-26.33 -25.17,-60 -25.17,-100.98l0 -154.34c0,-47.17 1.67,-104.18 5,-171.01 1.31,-26.68 1.99,-45.66 1.99,-56.98 0,-117.85 -59.16,-176.85 -177.65,-176.85 -53.68,0 -103.67,12.35 -149.85,37.17 -12.15,6.16 -18.15,11.67 -18.15,16.51 0,0.99 0.64,3.5 1.99,7.31l17.99 40.18c1.03,3.82 3.01,5.84 5.84,5.84 2.34,0 5,-0.99 7.86,-3.01 47.14,-25.33 90.81,-38 131.15,-38 43.67,0 73.82,12.19 90.65,36.33 10.17,14.01 15.17,38.35 15.17,73.02 0,6.99 -0.32,24.15 -0.99,51.5l-0.99 51.98c-44.51,-36.49 -90.84,-54.83 -139.01,-54.83 -47.65,0 -85.49,19.85 -113.32,59.52 -27.83,39.83 -41.65,93.83 -41.65,162.16 0,82.99 16.48,146.99 49.32,192.02 32.84,44.83 79.49,67.31 140.16,67.31 40.66,0 80.84,-13.98 120.51,-41.81 12.15,30.5 21.48,45.82 28.35,45.82 2.98,0 5.48,-0.67 7.82,-1.99l45.98 -28.35c1.86,-0.83 2.85,-2.82 2.85,-5.84zm-106.01 -331.99l0 269.84c-37,18.82 -67.98,28.31 -93.35,28.31 -75.81,0 -113.64,-58.01 -113.64,-174.15 0,-60.83 6.99,-104.83 20.81,-132.02 14.01,-27.16 36.68,-40.82 68.17,-40.82 33.67,0 73.02,16.32 118.01,48.84z"
   id="glyph64" />
   <glyph
   unicode="h"
   horiz-adv-x="518"
   d="M436.01 12.15c0,-6.16 -1.03,-9.65 -3.01,-10.65 -1.83,-0.99 -4.65,-1.51 -8.18,-1.51l-52.65 0c-4.84,0 -7.98,0.83 -9.17,2.66 -1.31,1.83 -1.99,5 -1.99,9.49l0 332.18c0,31.17 -5,52.85 -14.85,65.16 -10,12.35 -27.99,18.5 -54.16,18.5 -36.84,0 -80.84,-21 -131.99,-62.82l0 -353.02c0,-6.16 -1.35,-9.81 -3.85,-11.16 -1.35,-0.67 -3.82,-0.99 -7.34,-0.99l-52.65 0c-4.84,0 -8.02,0.83 -9.17,2.66 -1.31,1.83 -1.99,5 -1.99,9.49l0 686c0,6.19 3.33,10.36 10.17,12.67l51.66 12.19c0.67,0.67 3.01,0.99 6.83,0.99 4.17,0 6.35,-3.66 6.35,-11.16l0 -284.69c48.48,43.84 100.14,65.83 154.82,65.83 53.49,0 89.5,-19.5 108.51,-58.49 8.5,-17.99 12.67,-48.84 12.67,-92.83l0 -330.51z"
   id="glyph65" />
   <glyph
   unicode="i"
   horiz-adv-x="258"
   d="M190.99 658.17c0,-16.84 -5.84,-31.33 -17.48,-43.32 -11.83,-11.83 -26.01,-17.86 -42.52,-17.86 -17,0 -31.33,5.84 -43.16,17.67 -11.83,11.67 -17.83,26.36 -17.83,43.51 0,16.67 6,30.82 17.99,42.49 12.19,11.51 26.68,17.35 44,17.35 16.19,0 30.17,-5.84 41.69,-17.67 11.48,-11.67 17.32,-25.85 17.32,-42.17zm-14.98 -646.02c0,-6.16 -0.83,-9.65 -2.69,-10.65 -1.83,-0.99 -4.49,-1.51 -8.14,-1.51l-53.33 0c-5,0 -8.02,0.83 -9.17,2.66 -1.19,1.83 -1.67,5 -1.67,9.49l0 405.84 -79.85 0c-5.84,0 -9.33,1.03 -10.49,3.01 -1.19,1.83 -1.67,4.65 -1.67,8.18l0 38.64c0,6.19 1.31,9.84 3.82,11.19 1.67,0.64 4.52,0.99 8.34,0.99l144.17 0c4.84,0 7.82,-0.83 9.01,-2.66 1.15,-1.86 1.67,-5 1.67,-9.52l0 -455.67z"
   id="glyph66" />
   <glyph
   unicode="k"
   horiz-adv-x="443"
   d="M429.18 36.01c0,-2.02 -1.67,-4.84 -5.36,-8.34l-40.98 -30.85c-3.33,-2.5 -5.84,-3.82 -7.86,-3.82 -1.31,0 -3.33,1.31 -5.84,3.82l-209.14 250.18 0 -234.86c0,-6.16 -1.35,-9.81 -3.85,-11.16 -1.35,-0.67 -3.82,-0.99 -7.34,-0.99l-52.65 0c-4.84,0 -8.02,0.83 -9.17,2.66 -1.31,1.83 -1.99,5 -1.99,9.49l0 686c0,6.19 3.33,10.36 10.17,12.67l51.66 12.19 6.83 0.99c4.17,0 6.35,-3.66 6.35,-11.16l0 -453.01 200.83 225.85c3.5,4.14 6.99,6.32 10.33,6.32 2.5,0 5.48,-1.51 8.66,-4.33l38.16 -25.01c3.33,-3.14 4.84,-6.16 4.84,-8.66 0,-2.66 -1.51,-5.84 -4.84,-9.33l-170.82 -185.99 178.68 -214.85c2.31,-1.99 3.33,-4.68 3.33,-7.82z"
   id="glyph67" />
   <glyph
   unicode="l"
   horiz-adv-x="258"
   d="M272.82 14.01c0,-5.19 -9.49,-10.52 -28.67,-16 -19.34,-5.36 -38,-8.02 -56.15,-8.02 -58.01,0 -92,23.34 -102.16,69.84 -3.17,15.33 -4.84,56.34 -4.84,123.01l0 516.34c0,6.83 3.66,10.65 10.84,11.64l51.5 12.19c0.48,0.67 2.82,0.99 6.83,0.99 3.82,0 5.84,-3.66 5.84,-11.16l0 -530.51c0,-51.82 0.83,-82.51 2.5,-92.32 3.17,-25.33 16.84,-38 40.82,-38 14.01,0 29.02,3.98 44.83,11.99 3.85,1.31 6.51,1.99 7.86,1.99 2.15,0 4.49,-2.34 6.83,-6.99l12.15 -37.17c1.19,-4.17 1.83,-6.83 1.83,-7.82z"
   id="glyph68" />
   <glyph
   unicode="m"
   horiz-adv-x="722"
   d="M641.01 12.15c0,-6.16 -1.03,-9.65 -3.17,-10.65 -2.18,-0.99 -5.16,-1.51 -9.01,-1.51l-50.67 0c-6.16,0 -9.84,1.35 -11.16,3.85 -0.67,1.67 -0.99,4.49 -0.99,8.31l0 342.86c0,48.65 -21.36,72.98 -64.01,72.98 -28.35,0 -62.34,-13.34 -102,-39.99l0 -375.85c0,-6.16 -0.99,-9.65 -3.01,-10.65 -1.83,-0.99 -4.49,-1.51 -7.82,-1.51l-52.33 0c-5,0 -7.98,0.83 -9.17,2.66 -1.15,1.83 -1.67,5 -1.67,9.49l0 341.83c0,49.35 -21.32,74.01 -64.01,74.01 -29.82,0 -63.14,-14.33 -99.98,-42.84l0 -373c0,-6.16 -0.99,-9.65 -3.17,-10.65 -2.15,-0.99 -5.16,-1.51 -8.98,-1.51l-50.67 0c-6.19,0 -9.68,1.35 -10.68,3.85 -0.99,1.67 -1.51,4.49 -1.51,8.31l0 358.86c0,27.99 -6,55.99 -17.99,83.82 -0.67,0.67 -0.99,2.34 -0.99,5 0,2.82 1.67,4.84 4.81,5.84l40.02 22.83c3.66,2.34 6.67,3.5 9.33,3.5 10.17,0 19.66,-18.98 28.83,-57.01 50.34,39.35 97.16,59 140,59 46.5,0 78.15,-19.66 94.66,-59 55.35,39.35 103.99,59 146,59 43.67,0 74.01,-14.65 91.33,-44 11.99,-20.49 18.02,-52.81 18.02,-97l0 -340.84z"
   id="glyph69" />
   <glyph
   unicode="n"
   horiz-adv-x="518"
   d="M437 12.15c0,-6.16 -0.99,-9.65 -3.01,-10.65 -1.83,-0.99 -4.65,-1.51 -8.14,-1.51l-52.69 0c-4.84,0 -7.98,0.83 -9.17,2.66 -1.31,1.83 -1.99,5 -1.99,9.49l0 333.01c0,55.15 -22,82.83 -65.99,82.83 -42.33,0 -86.36,-21 -132.02,-62.82l0 -353.02c0,-6.16 -0.99,-9.65 -2.98,-10.65 -1.83,-0.99 -4.68,-1.51 -8.18,-1.51l-52.65 0c-4.84,0 -8.02,0.83 -9.17,2.66 -1.35,1.83 -2.02,5 -2.02,9.49l0 342.66c0,36.52 -6.32,68.53 -18.98,96.17 -0.99,2.69 -1.67,4.52 -1.99,5.84 0,3.01 1.67,4.84 4.81,5.84l45.5 25.85c3.17,2.34 5.84,3.5 7.66,3.5 12.86,0 23.02,-22 30.85,-66.15 56.66,45.5 110.34,68.14 161.01,68.14 49.48,0 83.5,-16.16 102.16,-48.32 11.32,-19.18 17,-52.65 17,-100.5l0 -333.01z"
   id="glyph70" />
   <glyph
   unicode="o"
   horiz-adv-x="500"
   d="M449.99 243.16c0,-81 -18.15,-144.17 -54.32,-189.32 -36.17,-45.18 -86.52,-67.85 -151,-67.85 -61.34,0 -108.83,22.19 -142.83,66.35 -33.83,44.35 -50.86,106.17 -50.86,185.51 0,81 18.18,143.98 54.35,188.84 36.17,44.83 86.48,67.31 151,67.31 60.67,0 108.16,-22.16 142.31,-66.67 34.18,-44.32 51.34,-105.82 51.34,-184.16zm-81.99 0.99c0,124.51 -39.51,186.85 -118.49,186.85 -77.67,0 -116.5,-61.02 -116.5,-183 0,-68.85 10.33,-120.67 30.98,-155.17 17.51,-29.18 46.69,-43.84 87.51,-43.84 39.15,0 67.34,14.01 84.5,42.01 21.32,34.5 32,85.49 32,153.15z"
   id="glyph71" />
   <glyph
   unicode="p"
   horiz-adv-x="500"
   d="M449.99 249.99c0,-81.99 -14.81,-146.48 -44.48,-193.49 -29.85,-47.01 -70.35,-70.51 -122.01,-70.51 -37.49,0 -76.99,14.69 -118.49,43.84l0 -213.98c0,-7.18 -3.01,-11.35 -9.17,-12.67l-52.69 -14.17c-2.34,-0.67 -4.17,-0.99 -5.84,-0.99 -4.81,0 -7.31,3.5 -7.31,10.65l0 543.02c0,43.67 -6.67,76 -20.17,97.16 -6.51,10.84 -9.84,17.16 -9.84,19.18 0,2.15 0.99,3.82 3.01,4.81l43 30.17c1.99,2.02 4.49,3.01 7.82,3.01 10.84,0 23.15,-20.01 37.17,-60 50.51,38.64 98.67,57.98 144.33,57.98 58.17,0 98.51,-23.15 121.34,-69.33 22.16,-44.16 33.32,-102.49 33.32,-174.67zm-81.99 -1.99c0,57.17 -5,99.5 -15.17,127.18 -12.35,34.47 -36.33,51.82 -72.15,51.82 -29.69,0 -68.17,-16.32 -115.66,-48.84l0 -282.15c41.65,-27.99 77.99,-42.01 108.8,-42.01 34.18,0 58.36,14.85 72.7,44.51 14.33,29.66 21.48,79.49 21.48,149.49z"
   id="glyph72" />
   <glyph
   unicode="r"
   horiz-adv-x="333"
   d="M333.17 477.99c0,-1.67 -0.67,-3.98 -2.02,-6.83l-23.99 -56.15c-0.99,-1.83 -2.66,-2.85 -5.32,-2.85 -0.35,0 -5.84,1.67 -16.67,4.84 -6.83,1.35 -12.51,2.02 -17,2.02 -22.16,0 -55.19,-25.36 -99.18,-76.19l0 -330.67c0,-6.16 -0.99,-9.65 -2.98,-10.65 -1.83,-0.99 -4.52,-1.51 -7.86,-1.51l-53.33 0c-5,0 -7.98,0.83 -9.17,2.66 -1.15,1.83 -1.67,5 -1.67,9.49l0 299.86c0,34.66 -0.83,57.5 -2.31,68.33 -3.01,22.67 -10.17,44.48 -21.84,65.32 -2.5,4.84 -3.85,8.34 -3.85,10.33 0,3.85 1.67,6.83 4.84,8.69l42.01 26.33c3.33,1.99 6,2.98 8.34,2.98 5.8,0 12.83,-8.66 20.81,-25.97 7.86,-17.51 13.66,-36.33 17.35,-56.85 31.17,35.02 54.32,57.69 69.49,67.66 15.17,10.17 33.35,15.17 54.51,15.17 11.32,0 22.48,-1.83 33.32,-5.32 11,-3.66 16.51,-7.15 16.51,-10.68z"
   id="glyph73" />
   <glyph
   unicode="s"
   horiz-adv-x="389"
   d="M349.01 128.01c0,-42.33 -14.69,-76.51 -44.03,-102.68 -29.15,-26.17 -67.66,-39.35 -115.15,-39.35 -54.32,0 -103.67,13.02 -147.99,39.03 -3.85,2.31 -5.84,5.32 -5.84,9.33 0,0.83 0.32,2.15 0.99,3.82l18.98 43.84c1.03,2.66 3.01,4.01 5.84,4.01 1.35,0 4.01,-0.67 7.86,-1.99 45.66,-22.67 86.32,-34.02 122.14,-34.02 24.18,0 43.51,6.67 58.17,20.01 14.69,13.34 22,30.82 22,52.17 0,31.01 -21.32,56.34 -64.01,76.16 -55.83,25.65 -93.15,46.18 -111.66,61.5 -30.82,25.33 -46.34,56.98 -46.34,95.17 0,40.66 14.17,73.98 42.68,99.98 28.51,26.01 65,38.99 109.51,38.99 25.97,0 54,-4.81 83.82,-14.65 29.98,-9.65 44.99,-18.82 44.99,-27.32 0,-1.86 -0.67,-4.36 -1.99,-7.18l-17.99 -36.65c-2.5,-4.17 -5.68,-6.35 -9.17,-6.35 0,0 -2.66,0.67 -7.86,2.02 -36.33,17.48 -67.31,26.17 -93.15,26.17 -50.51,0 -75.84,-22.51 -75.84,-67.34 0,-20.17 6.67,-36.49 20.01,-48.84 8.98,-8.34 43.84,-27.51 104.31,-57.01 37,-17.99 62.85,-36.33 77.51,-55.48 14.85,-19.02 22.19,-43.51 22.19,-73.34z"
   id="glyph74" />
   <glyph
   unicode="t"
   horiz-adv-x="333"
   d="M342.99 29.66c0,-7.82 -15.17,-16.32 -45.66,-25.65 -30.5,-9.33 -58.49,-14.01 -84.34,-14.01 -62.5,0 -100.98,24.34 -115.66,72.82 -4.17,13.69 -6.32,38 -6.32,73.34l0 281.83 -70.84 0c-8.18,0 -12.19,3.69 -12.19,11.19l0 38.64c0,6.19 1.35,9.84 3.85,11.19 1.67,0.64 4.49,0.99 8.34,0.99l70.84 0 0 137.15c0,6.83 3.33,11.19 10.17,12.67l51.66 14.17c3.66,1.35 5.68,2.02 6.35,2.02 4.49,0 6.83,-4.01 6.83,-12.19l0 -153.82 150.17 0c6.16,0 9.17,-2.34 9.17,-6.83 0,-1.67 -0.35,-3.69 -1.03,-6.35l-11.16 -38.48c-1.99,-6.86 -6.67,-10.36 -14.17,-10.36l-132.98 0 0 -281.16c0,-31.84 3.33,-52.17 9.81,-60.83 10.36,-13.34 27.19,-20.01 50.34,-20.01 20.84,0 50.83,8.02 89.82,24.18 3.33,1.15 5.84,1.83 7.5,1.83 3.5,0 5.84,-1.99 6.83,-5.84l10.68 -41.17c1.35,-2.82 1.99,-4.65 1.99,-5.32z"
   id="glyph75" />
   <glyph
   unicode="u"
   horiz-adv-x="500"
   d="M450.99 22.99c-0.64,-0.83 -2.15,-2.5 -4.49,-4.81l-44.83 -29.18c-3.01,-1.99 -5.32,-3.01 -6.83,-3.01 -10.84,0 -22.51,20.01 -35.18,59.84 -51.82,-39.83 -101.81,-59.84 -150.01,-59.84 -91.17,0 -136.64,44.67 -136.64,134.17l0 344.52c0,6.83 3.3,11.32 9.81,13.15l52.01 14.17c2.5,0.67 4.65,0.99 6.32,0.99 4.52,0 6.83,-3.66 6.83,-11.16l0 -312.17c0,-43.84 5.19,-74.17 15.68,-90.84 10.33,-16.48 29.18,-24.82 56.5,-24.82 43.48,0 85.49,17 125.83,50.83l0 359.85c0,7.15 3.17,11.48 9.65,13.15l52.85 14.17c2.18,0.67 4.17,0.99 5.68,0.99 4.49,0 6.83,-3.66 6.83,-11.16l0 -349.01c0,-43.16 9.01,-77.47 27,-102.81 1.99,-2.69 2.98,-5 2.98,-7.02z"
   id="glyph76" />
   <glyph
   unicode="v"
   horiz-adv-x="425"
   d="M422.99 466.67c0,-1.35 -0.67,-3.66 -1.99,-6.83l-182.17 -458.01c-2.18,-5.84 -6.51,-8.82 -12.67,-8.82l-38.16 0c-6.51,0 -10.84,2.98 -13.18,8.82l-168.83 460.83c-1.31,2.66 -1.99,4.68 -1.99,6.35 0,3.82 3.5,6.48 10.33,7.82l59 13.18 2.98 0c3.17,0 5.84,-3.17 7.7,-9.33l106.97 -326.86c2.02,-4.33 4.33,-11.32 7.34,-21l11.67 -41.98c5.32,20.49 11.67,40.98 19.18,61.82l119.16 328.17c1.83,6.16 4.49,9.17 7.66,9.17 1.31,0 3.33,-0.35 6,-1.03l52.17 -14.14c5.84,-1.51 8.82,-4.33 8.82,-8.18z"
   id="glyph77" />
   <glyph
   unicode="w"
   horiz-adv-x="610"
   d="M600.16 469.49c0,-1.31 -0.32,-2.82 -0.99,-4.49l-0.99 -2.82 -132.34 -459.36c-1.83,-6.48 -5.84,-9.81 -11.67,-9.81l-38.99 0c-6.16,0 -10.33,3.33 -12.35,9.81l-78.5 303.35c-3.33,11.67 -6,26.01 -8.34,43l-1.99 14.65 -2.82 21c-3.33,-30.01 -8.34,-55.83 -15.17,-77.67l-93.83 -305.34c-1.86,-5.84 -6.35,-8.82 -13.18,-8.82l-37 0c-6.16,0 -10.17,3.33 -11.83,9.81l-115.15 458.84c-0.67,2.66 -1.03,4.49 -1.03,5.84 0,4.68 3.17,7.34 9.36,8.34l50.67 12.67c2.66,0.99 4.65,1.51 6,1.51 3.82,0 6.67,-3.33 8.14,-10.17l70.84 -347.03c0.67,-2.66 3.01,-15.49 6.83,-38.64 1.03,6 5.36,24.15 13.18,54.83l95.33 324.16c1.51,5.84 5.48,8.82 11.67,8.82l39.99 0c6.51,0 10.68,-2.98 12.19,-8.82l88.99 -376.01 2.82 13.66 4.84 25.53 85.01 343.82c1.67,5.84 4.49,8.82 8.34,8.82 1.67,0 3.5,-0.32 5.84,-0.99l45.98 -10.65c6.83,-1.67 10.17,-4.33 10.17,-7.86z"
   id="glyph78" />
   <glyph
   unicode="x"
   horiz-adv-x="444"
   d="M429.18 17.35c0,-2.69 -3.17,-5 -9.33,-7.34l-52.85 -19.5c-3.5,-1.67 -6,-2.5 -7.18,-2.5 -2.31,0 -5,2.5 -7.82,7.31l-102.16 155.68c-3.82,5.84 -6.83,10.49 -8.66,14.01l-10.33 16.16 -5.84 9.81c-6.51,-11.83 -14.53,-24.5 -24.02,-38.32l-110.34 -158.35c-1.83,-4.17 -4.49,-6.32 -7.82,-6.32l-6.83 1.51 -52.17 22c-5.16,2.31 -7.82,4.81 -7.82,7.82 0,1.83 1.35,4.17 3.85,6.83l164.15 218.5 -146 210.17c-1.99,1.99 -3.01,4.17 -3.01,6.83 0,4.17 2.69,7.34 7.86,9.33l52.33 19.02c0.67,0.64 2.5,0.99 5.84,0.99 3.14,0 6.16,-2.18 8.82,-6.35l86.84 -134.65c4.84,-7.5 10.84,-16.84 17.99,-28.19 1.03,-1.67 4.84,-7.5 11.35,-17.67 4.84,8.53 14.81,24.18 29.82,47.17l91.17 133.33c2.66,4.17 6,6.35 9.84,6.35 0.67,0 2.66,-0.83 5.84,-2.5l49.32 -20.01c5.16,-1.99 7.86,-4.17 7.86,-6.83 0,-3.33 -1.35,-6.16 -4.01,-8.82l-147.83 -198.52 156.65 -229.15c3.01,-4.01 4.52,-6.51 4.52,-7.82z"
   id="glyph79" />
   <glyph
   unicode="y"
   horiz-adv-x="425"
   d="M421.68 460.16c0,-1.67 -0.35,-3.5 -0.83,-5.84l-113.84 -392.66c-26.33,-90.17 -48.32,-153.98 -65.99,-191.66 -26.01,-54.67 -66.35,-81.99 -121.02,-81.99 -24.15,0 -51.15,6 -81,18.15 -29.98,12.03 -44.99,22.83 -44.99,32.68 0.32,3.33 0.99,5.32 1.99,6.35l20.01 39.67c0.99,3.5 3.17,5.32 6.83,5.32 2.34,-0.35 4.49,-1.35 6.83,-3.01 34.82,-24.15 64.33,-36.17 88.34,-36.17 32.16,0 57.82,28.67 76.67,86l21 63.01 -40.02 0c-5.84,0 -9.81,3.01 -11.67,8.82l-157.32 444.51c-1.35,2.66 -1.99,4.84 -1.99,6.83 0,3.33 3.14,5.84 9.33,7.86l53.65 18.98 8.34 0.99c2.34,0 4.49,-2.98 6.83,-8.82l128.01 -378c5.16,-15.01 11.83,-39.19 20.01,-72.34 3.14,15.33 8.98,38.67 17,70.16l98.16 381.18c2.66,5.16 5.84,7.82 9.84,7.82 0.32,0 1.99,-0.32 4.81,-0.99l52.33 -18.5c5.84,-2.34 8.69,-5 8.69,-8.34z"
   id="glyph80" />
   <glyph
   unicode="z"
   horiz-adv-x="407"
   d="M389.83 59.99c0,-2.31 -0.5,-5 -1.85,-8.31l-19.16 -42.67c-1.81,-6 -6.31,-9 -13.16,-9l-311.99 0c-7.85,0 -11.66,4 -11.66,12.16l0 39.67 253 365.17 -221.33 0c-7.2,0 -10.7,3.66 -10.7,11.16l0 41.17c0,7.16 3.5,10.66 10.7,10.66l304.33 0c4.81,0 7.81,-0.81 8.97,-2.5 1.19,-1.5 1.69,-4.31 1.69,-8.16l0 -42.48 -249 -360.86 249 0c4.81,0 8,-0.31 9.31,-1.15 1.35,-0.85 1.85,-2.5 1.85,-4.85z"
   id="glyph81" />
   <glyph
   unicode="ä"
   horiz-adv-x="462"
   d="M373.99 629.82c0,-14.33 -5.32,-26.65 -16,-36.97 -10.49,-10.52 -23.31,-15.68 -38.32,-15.68 -14.33,0 -26.68,5.16 -37,15.68 -10.49,10.33 -15.68,22.99 -15.68,38 0,14.65 5.19,27.16 15.68,37.49 10.33,10.49 22.99,15.68 38,15.68 14.65,0 27.16,-5.36 37.68,-15.84 10.33,-10.68 15.65,-23.34 15.65,-38.35zm-197.34 0c0,-14.33 -5.16,-26.65 -15.65,-36.97 -10.33,-10.52 -22.67,-15.68 -37,-15.68 -15.01,0 -27.83,5.16 -38.32,15.68 -10.68,10.33 -16,22.99 -16,38 0,14.65 5.32,27.16 16,37.49 10.49,10.49 23.31,15.68 38.32,15.68 14.65,0 27,-5.36 37.33,-15.84 10.17,-10.68 15.33,-23.34 15.33,-38.35zm229.02 -605.16c0,-1.99 -1.35,-3.5 -3.85,-4.81l-43 -26.84c-2.66,-2.02 -5.16,-3.01 -7.82,-3.01 -12.67,0 -25.33,21 -38.16,63.01 -42.84,-42.01 -90.68,-63.01 -143.02,-63.01 -40.34,0 -72.5,12.35 -96.17,36.84 -23.83,24.66 -35.66,58.01 -35.66,99.98 0,113 87.99,171.01 264.01,173.99l0 33.19c0,32 -7.18,54.83 -21.32,68.49 -14.17,13.66 -37.68,20.49 -70.68,20.49 -33.16,0 -73.02,-9.65 -119.16,-28.99 -2.69,-1.15 -5,-1.83 -6.83,-1.83 -3.69,0 -6.03,1.48 -6.86,4.81l-15.17 40.02 -0.99 7.66c0,5 8.85,11.32 26.84,18.98 41.33,18.18 85.84,27.35 133.33,27.35 103.83,0 155.84,-46.66 155.84,-140.16l0 -189c0,-55.35 8.82,-99.02 26.65,-131.35 1.35,-2.15 2.02,-4.17 2.02,-5.84zm-103.67 85.17l0 129c-124.68,-0.99 -187.01,-36.33 -187.01,-106.01 0,-23.47 6.83,-42.49 20.52,-57.34 13.66,-14.81 31.33,-22.32 52.65,-22.32 33.32,0 71.16,19.02 113.84,56.66z"
   id="glyph82" />
  </font>
</defs>
</svg>
