<?xml version="1.0" encoding="UTF-8" standalone="no"?>
<!-- Creator: CorelDRAW 2021 (64-Bit) -->

<svg
   xml:space="preserve"
   width="209.982mm"
   height="177.616mm"
   version="1.0"
   style="shape-rendering:geometricPrecision; text-rendering:geometricPrecision; image-rendering:optimizeQuality; fill-rule:evenodd; clip-rule:evenodd"
   viewBox="0 0 20996.54 17760.21"
   id="svg319"
   sodipodi:docname="bauingenieurwesen__b.sc._.svg"
   inkscape:version="1.3-dev (77bc73e, 2022-05-18)"
   xmlns:inkscape="http://www.inkscape.org/namespaces/inkscape"
   xmlns:sodipodi="http://sodipodi.sourceforge.net/DTD/sodipodi-0.dtd"
   xmlns="http://www.w3.org/2000/svg"
   xmlns:svg="http://www.w3.org/2000/svg"><sodipodi:namedview
   id="namedview319"
   pagecolor="#ffffff"
   bordercolor="#000000"
   borderopacity="0.25"
   inkscape:showpageshadow="2"
   inkscape:pageopacity="0.0"
   inkscape:pagecheckerboard="0"
   inkscape:deskcolor="#d1d1d1"
   inkscape:document-units="mm"
   showgrid="false"
   inkscape:zoom="0.35155429"
   inkscape:cx="396.80926"
   inkscape:cy="335.65228"
   inkscape:window-width="1440"
   inkscape:window-height="900"
   inkscape:window-x="0"
   inkscape:window-y="0"
   inkscape:window-maximized="0"
   inkscape:current-layer="Ebene_x0020_1" />
 <defs
   id="defs83">
  <font
   id="FontID6"
   horiz-adv-x="537"
   font-variant="normal"
   style="fill-rule:nonzero"
   font-weight="400">
	<font-face
   font-family="Officina Sans ITC TT"
   id="font-face1">
		<font-face-src>
			<font-face-name
   name="Officina Sans ITC TT" />
		</font-face-src>
	</font-face>
   <missing-glyph
   id="missing-glyph1"><path
     d="M0 0z"
     id="path1" /></missing-glyph>
   <glyph
   unicode="0"
   horiz-adv-x="500"
   d="M457.02 328.16c0,-111 -17.86,-195.83 -53.37,-254.32 -35.5,-58.49 -86.99,-87.84 -154.14,-87.84 -57.68,0 -102.83,21.99 -135.51,65.85 -46.01,62.84 -68.99,150.5 -68.99,262.98 0,107.86 18.81,191.66 56.47,251.85 37.66,60.15 90.35,90.31 157.86,90.31 63.65,0 112.48,-28.32 146.51,-85.15 34.16,-56.82 51.17,-138.02 51.17,-243.68zm-82.01 -1.97c0,173.17 -40.53,259.8 -121.5,259.8 -39.99,0 -71.01,-23.3 -93.18,-69.8 -22.17,-46.68 -33.35,-111.67 -33.35,-195.34 0,-88.33 12.03,-156.83 36,-205.66 18.85,-38.83 48.03,-58.17 87.53,-58.17 44.84,0 76.35,22.31 94.84,67.01 19.84,48.84 29.67,116.16 29.67,202.16z"
   id="glyph1" />
   <glyph
   unicode="1"
   horiz-adv-x="500"
   d="M424.66 14.18c0,-9.52 -4.67,-14.18 -13.65,-14.18l-265.18 0c-9.52,0 -14.18,4.67 -14.18,14.18l0 37.66c0,9.47 4.67,14.14 14.18,14.14l102.16 0 0 489.21 -140.18 -81.02c-3.64,-2.65 -7,-3.99 -9.83,-3.99 -2.96,0 -5.66,3.01 -8.3,8.84l-11.67 21.99c-2.02,2.83 -3.01,6.33 -3.01,10.14 0,2.69 2.65,5.34 7.81,7.85l176.67 125.01 50.36 0c9.47,0 14.14,-4.67 14.14,-14.18l0 -563.85 87.03 0c8.98,0 13.65,-4.67 13.65,-14.14l0 -37.66z"
   id="glyph2" />
   <glyph
   unicode="2"
   horiz-adv-x="500"
   d="M430.99 14.18c0,-9.52 -4.67,-14.18 -14.14,-14.18l-335.7 0c-6.15,0 -9.65,1.48 -10.64,4.35 -1.03,1.97 -1.53,5.3 -1.53,9.83 0,71.64 13.33,132.14 39.86,181.65 26.48,49.51 69.84,94.84 129.99,136.18 45.51,30.97 73.84,54 85.33,68.99 16.52,21.99 24.82,48.48 24.82,79 0,32.68 -8.8,58.35 -26.66,77.52 -17.64,18.99 -41.47,28.46 -71.32,28.46 -51.48,0 -89.01,-33.3 -112.66,-100.14 -2.02,-5.16 -4.85,-7.85 -8.35,-7.85 -1.97,0 -4.49,0.67 -7.81,2.02l-43.85 13.15c-5.48,2.02 -8.3,4.85 -8.3,8.84 0,7.99 4.31,21.32 13.15,39.86 8.84,18.63 17.82,33.8 26.98,45.96 35.5,46.19 84.2,69.17 146.19,69.17 53.82,0 96.32,-16.34 127.65,-48.97 31.33,-32.86 46.99,-76.84 46.99,-132.19 0,-38.33 -8.48,-71.32 -25.67,-98.66 -17.15,-27.34 -47.98,-56.51 -92.82,-87.35 -52.47,-36.49 -90.17,-70.47 -112.98,-101.98 -22.85,-31.69 -36.85,-69.84 -42.19,-114.86l259.53 0c9.47,0 14.14,-4.67 14.14,-14.14l0 -44.66z"
   id="glyph3" />
   <glyph
   unicode=":"
   horiz-adv-x="295"
   d="M219.18 402.85c0,-19.53 -6.82,-36 -20.51,-49.51 -13.65,-13.51 -30.34,-20.33 -49.82,-20.33 -19.84,0 -36.67,6.82 -50.36,20.51 -13.65,13.65 -20.47,30.3 -20.47,50.32 0,19.48 7,36 21.01,49.69 14,13.65 30.97,20.47 50.81,20.47 18.49,0 34.65,-7 48.52,-21.01 13.82,-14 20.83,-30.66 20.83,-50.14zm0 -345.66c0,-19.53 -7,-36.18 -20.83,-50.18 -13.87,-14 -30.34,-21.01 -49.51,-21.01 -19.84,0 -36.67,6.82 -50.36,20.51 -13.65,13.65 -20.47,30.48 -20.47,50.68 0,19.48 7,36.13 21.01,49.64 14,13.51 30.97,20.15 50.81,20.15 18.49,0 34.65,-6.82 48.52,-20.65 13.82,-13.82 20.83,-30.16 20.83,-49.15z"
   id="glyph4" />
   <glyph
   unicode="M"
   horiz-adv-x="666"
   d="M592.98 9.83c0,-6.51 -4.13,-9.83 -12.66,-9.83l-58.17 0c-9.16,0 -13.82,4.35 -14.14,13.15l-14.99 512.68c0,-5.84 0.99,11.36 2.83,51.35l0.99 19.97c-4.49,-31.15 -11.49,-60.64 -21.01,-88.33l-117.15 -337.99c-2.69,-7.18 -7.5,-10.68 -14.68,-10.68l-29.35 0c-7.5,0 -12.48,3.5 -14.99,10.68l-112.84 337.99c-8.8,26.35 -15.13,55.84 -18.99,88.33l0 -18.99 1.84 -38.15 0 -19.03 -14.68 -507.83c0,-8.8 -4.31,-13.15 -12.84,-13.15l-54.31 0c-6.33,0 -10.19,0.85 -11.67,2.51 -1.53,1.48 -2.15,3.99 -2.15,7.32l0 4.35 37.66 658.65c0.67,8.84 5.34,13.15 14.14,13.15l59.2 0c7.5,0 12.48,-3.64 14.99,-11.13l117.82 -344.85c6.82,-19.84 11.67,-40.49 14.18,-61.99 1.3,11.49 5.66,32.14 13.15,61.99l118.81 344.85c2.69,7.5 7.68,11.13 15.17,11.13l63.02 0c8.17,0 12.48,-4.31 13.15,-13.15l37.66 -663z"
   id="glyph5" />
   <glyph
   unicode="S"
   horiz-adv-x="481"
   d="M438.98 182.32c0,-58.67 -19.3,-105.97 -58.13,-142.15 -38.69,-36.18 -89.37,-54.18 -151.85,-54.18 -37.52,0 -78.32,7 -122.49,21.01 -44.35,14 -66.52,26.98 -66.52,39.01 0,1.97 0.67,4.67 2.02,8.3l18.99 47.67c1.35,3.37 3.5,5.03 6.82,5.03 3.01,0 8.66,-2.33 17.19,-6.82 50.99,-28.19 99.33,-42.19 144.98,-42.19 36.67,0 66.34,10.32 88.51,31.02 22.31,20.65 33.48,47.98 33.48,81.83 0,30.52 -8.48,56.02 -25.32,76.17 -17.01,20.15 -50.18,44.35 -99.69,72.67 -65.31,37.84 -107.32,67.15 -125.99,88.33 -26.66,30.34 -39.99,67.33 -39.99,110.82 0,53.19 18.31,96.5 54.98,130.35 36.54,33.84 83.85,50.81 141.84,50.81 33.53,0 69.66,-6.33 108.53,-19.17 38.96,-12.84 58.49,-24.51 58.49,-34.97 0,-1.84 -0.67,-4.53 -2.02,-7.68l-18 -45.33c-1.66,-3.99 -4.31,-5.84 -7.81,-5.84 -1.35,0 -15.66,6.64 -43,19.97 -30.34,14.68 -62.66,21.99 -97.18,21.99 -34.52,0 -61.49,-8.66 -80.84,-26.12 -19.35,-17.37 -29,-41.7 -29,-73.03 0,-35.64 13.33,-64.01 39.99,-84.83 7.18,-5.66 47.17,-30.48 120.16,-74.82 48.16,-28.5 81.02,-55.34 98.7,-79.99 22.13,-30.7 33.13,-66.52 33.13,-107.86z"
   id="glyph6" />
   <glyph
   unicode="a"
   horiz-adv-x="462"
   d="M405.67 24.69c0,-2.02 -1.35,-3.5 -3.86,-4.85l-43 -26.84c-2.65,-2.02 -5.16,-3.01 -7.81,-3.01 -12.66,0 -25.32,21.01 -38.15,63.02 -42.87,-42.01 -90.67,-63.02 -143,-63.02 -40.35,0 -72.53,12.34 -96.19,36.85 -23.83,24.64 -35.64,57.99 -35.64,100 0,112.98 87.98,170.97 263.97,173.98l0 33.17c0,32 -7.14,54.85 -21.32,68.49 -14.18,13.69 -37.66,20.51 -70.65,20.51 -33.17,0 -73.03,-9.65 -119.17,-29 -2.69,-1.17 -5.03,-1.84 -6.87,-1.84 -3.64,0 -5.97,1.48 -6.82,4.85l-15.17 39.99 -0.99 7.68c0,4.98 8.84,11.31 26.84,18.99 41.34,18.18 85.82,27.34 133.31,27.34 103.86,0 155.84,-46.68 155.84,-140.18l0 -189.01c0,-55.3 8.84,-98.97 26.66,-131.29 1.35,-2.2 2.02,-4.17 2.02,-5.84zm-103.69 85.15l0 129c-124.65,-0.99 -186.99,-36.36 -186.99,-106.02 0,-23.48 6.82,-42.46 20.51,-57.32 13.65,-14.81 31.33,-22.31 52.65,-22.31 33.35,0 71.19,18.99 113.83,56.65z"
   id="glyph7" />
   <glyph
   unicode="d"
   horiz-adv-x="500"
   d="M448.49 23.65c0,-1.97 -1.84,-3.82 -5.34,-5.84l-44.98 -24.82c-2.02,-2.02 -4.53,-3.01 -7.85,-3.01 -11.98,0 -22.98,20.02 -33.17,59.83 -56.65,-42.51 -106.33,-63.83 -148.97,-63.83 -49.19,0 -87.53,23.03 -115.36,68.85 -27.83,45.83 -41.83,109.3 -41.83,190.31 0,76.66 16.02,137.35 48.16,182.01 32,44.48 75.68,66.83 131.02,66.83 34.52,0 71.14,-10.68 109.83,-32l0 236.14c0,6.19 3.32,10.37 10.14,12.7l51.66 12.16c1.35,0.67 3.5,0.99 6.37,0.99 4.49,0 6.82,-3.68 6.82,-11.18l0 -554.83c0,-52.16 8.3,-91.48 25.14,-118.18 5.52,-8.48 8.35,-13.82 8.35,-16.16zm-108.49 88.02l0 283.5c-36.99,21.14 -70.83,31.82 -101.49,31.82 -37.34,0 -64.19,-14 -80.7,-41.83 -16.47,-27.83 -24.82,-73.16 -24.82,-136.18 0,-68.99 7.18,-118.81 21.68,-149.33 14.32,-30.48 38.15,-45.65 71.14,-45.65 35.01,0 73.03,19.17 114.19,57.68z"
   id="glyph8" />
   <glyph
   unicode="i"
   horiz-adv-x="258"
   d="M190.99 658.15c0,-16.83 -5.84,-31.33 -17.51,-43.31 -11.8,-11.85 -25.99,-17.82 -42.46,-17.82 -17.01,0 -31.37,5.84 -43.18,17.64 -11.85,11.67 -17.82,26.35 -17.82,43.49 0,16.7 5.97,30.84 18,42.51 12.16,11.49 26.66,17.33 43.99,17.33 16.16,0 30.16,-5.84 41.65,-17.64 11.49,-11.67 17.33,-25.85 17.33,-42.19zm-14.99 -645.99c0,-6.15 -0.81,-9.65 -2.65,-10.68 -1.84,-0.99 -4.53,-1.48 -8.17,-1.48l-53.32 0c-5.03,0 -8.03,0.85 -9.2,2.65 -1.17,1.84 -1.66,5.03 -1.66,9.52l0 405.85 -79.81 0c-5.84,0 -9.34,0.99 -10.5,2.96 -1.17,1.84 -1.66,4.67 -1.66,8.17l0 38.69c0,6.15 1.3,9.83 3.82,11.18 1.66,0.63 4.49,0.99 8.35,0.99l144.13 0c4.85,0 7.85,-0.85 9.02,-2.65 1.17,-1.84 1.66,-5.03 1.66,-9.52l0 -455.68z"
   id="glyph9" />
   <glyph
   unicode="n"
   horiz-adv-x="519"
   d="M437 12.16c0,-6.15 -0.99,-9.65 -3.01,-10.68 -1.84,-0.99 -4.67,-1.48 -8.17,-1.48l-52.65 0c-4.85,0 -7.99,0.85 -9.16,2.65 -1.35,1.84 -2.02,5.03 -2.02,9.52l0 333c0,55.16 -21.99,82.81 -65.98,82.81 -42.37,0 -86.36,-20.96 -132.01,-62.79l0 -353.02c0,-6.15 -1.03,-9.65 -3.01,-10.68 -1.84,-0.99 -4.67,-1.48 -8.17,-1.48l-52.65 0c-4.85,0 -8.03,0.85 -9.2,2.65 -1.3,1.84 -1.97,5.03 -1.97,9.52l0 342.65c0,36.54 -6.33,68.49 -18.99,96.19 -1.03,2.65 -1.71,4.49 -2.02,5.84 0,3.01 1.66,4.8 4.85,5.84l45.47 25.81c3.19,2.33 5.84,3.5 7.68,3.5 12.84,0 23.03,-21.99 30.84,-66.16 56.69,45.51 110.33,68.18 161,68.18 49.51,0 83.49,-16.16 102.16,-48.34 11.36,-19.17 17.01,-52.65 17.01,-100.5l0 -333z"
   id="glyph10" />
   <glyph
   unicode="t"
   horiz-adv-x="333"
   d="M343.01 29.67c0,-7.85 -15.17,-16.34 -45.69,-25.67 -30.48,-9.34 -58.49,-14 -84.34,-14 -62.48,0 -100.99,24.33 -115.67,72.85 -4.13,13.65 -6.33,37.97 -6.33,73.34l0 281.83 -70.83 0c-8.17,0 -12.16,3.64 -12.16,11.13l0 38.69c0,6.15 1.35,9.83 3.86,11.18 1.66,0.63 4.49,0.99 8.3,0.99l70.83 0 0 137.17c0,6.82 3.37,11.18 10.19,12.66l51.66 14.18c3.68,1.3 5.66,1.97 6.33,1.97 4.49,0 6.82,-3.99 6.82,-12.16l0 -153.82 150.19 0c6.15,0 9.16,-2.33 9.16,-6.82 0,-1.66 -0.31,-3.68 -0.99,-6.33l-11.18 -38.51c-2.02,-6.82 -6.64,-10.32 -14.18,-10.32l-133 0 0 -281.16c0,-31.87 3.37,-52.2 9.83,-60.86 10.37,-13.33 27.2,-19.97 50.36,-19.97 20.83,0 50.81,7.99 89.82,24.15 3.32,1.17 5.84,1.84 7.5,1.84 3.5,0 5.84,-2.02 6.82,-5.84l10.68 -41.16c1.35,-2.83 2.02,-4.67 2.02,-5.34z"
   id="glyph11" />
  </font>
  <font
   id="FontID1"
   horiz-adv-x="537"
   font-variant="normal"
   style="fill-rule:nonzero"
   font-style="normal"
   font-weight="400">
	<font-face
   font-family="Officina Sans OS ITC TT"
   id="font-face11">
		<font-face-src>
			<font-face-name
   name="Officina Sans OS ITC TT" />
		</font-face-src>
	</font-face>
   <missing-glyph
   id="missing-glyph11"><path
     d="M0 0z"
     id="path11" /></missing-glyph>
   <glyph
   unicode="("
   horiz-adv-x="370"
   d="M316.84 -202.17c0,-3.83 -5.66,-9.49 -16.85,-16.85 -11.16,-7.33 -19.99,-10.98 -26.15,-10.98 -9.67,0 -32.68,26.99 -68.83,81 -82.02,122.84 -123.02,255.49 -123.02,397.99 0,153.66 48.33,296.67 145.01,429.17 24.51,33.16 40.01,49.82 46.83,49.82 3.65,0 7.66,-1.32 12.33,-3.83l23.85 -15.17c4.67,-2.99 6.82,-5.84 6.82,-8.83 0,-3.83 -2.84,-9.99 -8.83,-17.98 -96,-128.01 -143.99,-272.34 -143.99,-433.18 0,-159.82 48,-304.18 143.99,-433.15 5.98,-8.02 8.83,-14.18 8.83,-18.01z"
   id="glyph12" />
   <glyph
   unicode=")"
   horiz-adv-x="370"
   d="M289.01 249c0,-153.33 -48.33,-296.34 -145.16,-429.17 -24.36,-33.16 -40.01,-49.82 -46.83,-49.82 -3.5,0 -7.69,1.32 -12.18,3.83l-24 14.15c-4.49,3.68 -6.82,6.85 -6.82,9.84 0,3.83 2.99,9.99 8.83,18.01 96.15,128.97 144.17,273.33 144.17,433.15 0,159.82 -48.03,304.18 -144.17,433.18 -5.84,7.81 -8.83,13.82 -8.83,17.98 0,2.99 7.66,9.34 22.98,19 9.34,5.84 16.16,8.83 20.02,8.83 9.16,0 31.99,-26.99 68.83,-81 82.17,-120.47 123.17,-253.16 123.17,-397.99z"
   id="glyph13" />
   <glyph
   unicode="-"
   horiz-adv-x="351"
   d="M314.83 232.18c0,-9.52 -4.67,-14.18 -14.15,-14.18l-250.01 0c-9.16,0 -13.68,4.67 -13.68,14.18l0 46.65c0,9.52 4.52,14.15 13.68,14.15l250.01 0c9.49,0 14.15,-4.64 14.15,-14.15l0 -46.65z"
   id="glyph14" />
   <glyph
   unicode="."
   horiz-adv-x="295"
   d="M219.16 57.15c0,-19.48 -7,-36.15 -20.83,-50.15 -13.82,-14 -30.34,-21.01 -49.49,-21.01 -19.84,0 -36.69,6.85 -50.33,20.5 -13.68,13.68 -20.5,30.49 -20.5,50.66 0,19.51 7,36.18 20.98,49.67 14,13.5 31,20.17 50.84,20.17 18.49,0 34.68,-6.82 48.51,-20.68 13.82,-13.82 20.83,-30.16 20.83,-49.17z"
   id="glyph15" />
   <glyph
   unicode="/"
   horiz-adv-x="443"
   d="M428 721.17c0,-2 -1.02,-5.33 -2.99,-10.32l-387.67 -931.03c-2.51,-5.81 -8.02,-8.83 -16.01,-8.83l-39.17 0c-8.83,0 -13.17,2.33 -13.17,6.85 0,2.99 1.17,5.98 3.5,9.34l386.68 930.67c2.81,6.82 8.32,10.14 16.16,10.14l38.99 0c9.19,0 13.68,-2.33 13.68,-6.82z"
   id="glyph16" />
   <glyph
   unicode="1"
   horiz-adv-x="500"
   d="M424.83 14.15c0,-9.49 -4.49,-14.15 -13.68,-14.15l-264.17 0c-9.49,0 -14.15,4.67 -14.15,14.15l0 37.67c0,9.52 4.67,14.18 14.15,14.18l102.01 0 0 426.15 -111.83 -67.33c-4.52,-2.66 -8.02,-4.01 -10.17,-4.01 -2.99,0 -5.33,2.51 -6.82,7.33l-13.17 24.03c-2,3.47 -3.02,6.49 -3.02,8.83 0,3.17 2.33,6.64 6.85,10.14l150.34 109.85 49.64 0c9.52,0 14.18,-4.67 14.18,-14.18l0 -500.81 86.15 0c9.01,0 13.68,-4.67 13.68,-14.18l0 -37.67z"
   id="glyph17" />
   <glyph
   unicode="2"
   horiz-adv-x="500"
   d="M431 14.15c0,-9.49 -4.67,-14.15 -14.15,-14.15l-335.69 0c-6.16,0 -9.67,1.5 -10.65,4.34 -0.99,2 -1.5,5.33 -1.5,9.82 0,65.02 13.32,119.67 40.16,163.5 26.84,44.02 70.83,83.34 131.99,118.17 45.84,26.33 74.51,46.68 85.85,61.02 14.66,18.49 21.99,41.15 21.99,67.84 0,28.31 -8.5,50.48 -25.67,66.31 -17,16.01 -40.49,24 -70.5,24 -28.16,0 -50.99,-7.33 -68.5,-22.14 -17.33,-14.84 -32.32,-39.86 -45.01,-74.84 -2.66,-6.49 -6.16,-9.84 -10.32,-9.84 -2,0 -5.18,0.66 -9.67,2l-41 11.67c-5.51,2.33 -8.35,5.66 -8.35,10.32 0,7.51 4.34,20.5 13.17,38.99 8.83,18.67 17.83,34.02 27.02,46.02 35.49,45.81 84.48,68.83 147.17,68.83 53.83,0 96.15,-14 127.15,-42.01 31,-27.98 46.5,-66.31 46.5,-114.82 0,-47.16 -14.66,-86.33 -43.99,-117.33 -12.84,-13.02 -24.51,-23.01 -35.34,-30.16 -9.16,-6.16 -39.68,-24.18 -91.51,-53.83 -68.83,-39.68 -106.5,-91.33 -112.99,-154.83l269.68 0c9.49,0 14.15,-4.67 14.15,-14.18l0 -44.68z"
   id="glyph18" />
   <glyph
   unicode="3"
   horiz-adv-x="500"
   d="M433.99 109.82c0,-57.15 -19.66,-103.48 -58.83,-138.82 -39.17,-35.34 -90.67,-53 -154.65,-53 -34.35,0 -70.17,5 -108,15.17 -37.67,9.99 -56.53,19.66 -56.53,28.82 0,1.5 1.02,4.67 3.02,9.16l19.99 45.01c1.68,3.83 3.83,5.84 6.82,5.84 2.51,0 10.17,-2.99 23.01,-8.83 33.84,-16.16 70.5,-24.18 109.82,-24.18 88.84,0 133.34,41.35 133.34,124.01 0,82.02 -48.66,123.02 -146,123.02l-34.32 0c-9.01,0 -13.68,4.67 -13.68,14l0 39.98c0,9.34 4.67,14 13.82,14l33.19 0c39.32,0 70.83,10.83 93.99,32.5 23.34,21.66 35.01,50.66 35.01,87.17 0,29.33 -8.86,52.85 -26.33,70.17 -17.69,17.51 -41.35,26.15 -70.86,26.15 -36.48,0 -70.14,-17 -100.66,-50.81 -7.81,-8.68 -14.15,-13.17 -19.15,-13.17 -2.15,0 -5,1.32 -8.17,3.98l-32.83 27.83c-3.5,2.33 -5.33,5.03 -5.33,8.35 0,9.99 16.16,26.99 48.33,50.84 34.83,26 74.99,38.99 120.65,38.99 50.66,0 92.02,-14.84 123.68,-44.5 31.84,-29.51 47.67,-68.17 47.67,-115.69 0,-70.65 -34.35,-119.67 -103,-146.99 27.83,-8.5 49.31,-18.67 64.49,-30.67 41,-32.65 61.49,-78.67 61.49,-138.34z"
   id="glyph19" />
   <glyph
   unicode="5"
   horiz-adv-x="500"
   d="M433.99 150.85c0,-72.03 -21.16,-128.67 -63.32,-170.36 -42.34,-41.65 -99.68,-62.48 -172,-62.48 -36.18,0 -67,3.5 -92.5,10.32 -25.5,6.82 -38.18,14.99 -38.18,24.84l0 6.82 10.35 40.01c1.17,5.18 4.49,7.84 9.67,7.84 2,0 5.66,-0.69 11.16,-2 29.98,-11.16 64.67,-16.85 103.99,-16.85 99.17,0 148.84,53.03 148.84,159.17 0,40.01 -9.16,71.19 -27.32,93.33 -18.16,22.35 -43.69,33.51 -76.67,33.51 -41.5,0 -80.35,-18.34 -116.02,-54.82 -3.98,-4.19 -6.82,-6.34 -8.83,-6.34l-9.34 0.99 -34.65 12.18c-7.51,2.66 -11.19,5.66 -11.19,8.83l0 7.33 32.17 319.68c0.69,8.83 5.36,13.17 13.68,13.17l260.34 0c9.49,0 14.15,-4.67 14.15,-14.18l0 -41.65c0,-9.52 -4.67,-14.15 -14.15,-14.15l-208.99 0 -22.02 -202.85c38.84,28.52 79,42.85 120.5,42.85 50.51,0 91.69,-18.01 123.17,-54.19 31.51,-36.15 47.16,-83.16 47.16,-140.97z"
   id="glyph20" />
   <glyph
   unicode="6"
   horiz-adv-x="500"
   d="M442.99 224.16c0,-69.99 -17.98,-127.15 -53.83,-171.49 -36,-44.5 -82.5,-66.67 -139.66,-66.67 -67.84,0 -118.68,30.85 -152.34,92.35 -25.5,46.17 -38.15,106.65 -38.15,181.67 0,120 24.99,215.66 74.99,286.49 50,71.01 117.15,106.5 201.84,106.5 23.16,0 43,-2.15 59.34,-6.34 16.49,-4.34 24.66,-9.49 24.66,-15.65 0,-2.66 -0.33,-4.67 -0.99,-5.84l-10.68 -42.16c-1.32,-4.52 -3.83,-6.85 -7.33,-6.85l-6.82 0.84c-20.17,6.67 -40.52,9.99 -61.02,9.99 -54.16,0 -98,-23.16 -131.82,-69.48 -28.01,-38 -46.17,-86.18 -54.34,-144.5 38,43.33 80.5,64.99 127.51,64.99 51.32,0 92.32,-19.51 122.84,-58.5 30.49,-39.17 45.81,-90.82 45.81,-155.34zm-81.99 -1.17c0,97.34 -37.17,146 -111.5,146 -34.35,0 -61.02,-12.48 -80.02,-37.67 -19,-24.99 -28.49,-60.48 -28.49,-106.32 0,-112.01 36.51,-167.99 109.49,-167.99 73.67,0 110.51,55.33 110.51,165.99z"
   id="glyph21" />
   <glyph
   unicode="7"
   horiz-adv-x="500"
   d="M426.66 538.84l-230.83 -605.66c-2.33,-6.67 -5.66,-10.17 -9.82,-10.17 -0.69,0 -2,0 -3.83,0l-2 0 -54.16 8.32c-8.17,1.02 -12.33,3.5 -12.33,7.84 0,2 1.17,5 3.47,9.34l215.84 555.51 -257.83 0c-9.52,0 -14.18,4.67 -14.18,14.15l0 43.66c0,9.52 4.67,14.18 14.18,14.18l337.84 0c9.16,0 13.65,-4.67 13.65,-14.18l0 -22.98z"
   id="glyph22" />
   <glyph
   unicode="8"
   horiz-adv-x="500"
   d="M459.99 167.16c0,-44.32 -14.33,-82.98 -43,-116.16 -37.64,-43.33 -93.15,-64.99 -165.99,-64.99 -64.16,0 -115.33,16.34 -153.66,48.84 -38.18,32.5 -57.33,76.01 -57.33,130.35 0,53.47 19,96.98 57.15,130.83 18.82,17.33 48.51,33.81 88.84,49.31 -78.67,30.67 -118.02,80.35 -118.02,149.02 0,42.31 15.35,78.67 45.84,108.83 33.84,33.16 79.84,49.82 138.16,49.82 53,0 96,-13.82 129.18,-41.65 33.16,-27.86 49.82,-64.01 49.82,-108.18 0,-67.84 -37.67,-119.67 -113.17,-155.84 94.83,-38.15 142.17,-98.15 142.17,-180.17zm-105 328c0,28.34 -9.67,51.17 -29,68.17 -19.48,17.18 -45.01,25.67 -76.99,25.67 -30.49,0 -55.15,-8.5 -74,-25.32 -18.67,-17 -28.01,-39.17 -28.01,-66.52 0,-46.65 35.34,-86.33 106.02,-119.16 67.99,27.68 101.98,66.67 101.98,117.15zm23.01 -332.81c0,63.65 -43.33,112.01 -129.99,144.83 -84,-34.5 -126.01,-82.83 -126.01,-144.83 0,-33.34 11.82,-60 35.67,-80.17 23.82,-20.17 55.15,-30.16 94.32,-30.16 37.67,0 68.17,10.14 91.36,30.49 23.16,20.32 34.65,46.83 34.65,79.84z"
   id="glyph23" />
   <glyph
   unicode="9"
   horiz-adv-x="500"
   d="M435.01 313c0,-123.68 -22.68,-220.51 -68.17,-290.35 -45.33,-69.81 -108.32,-104.64 -189,-104.64 -35.01,0 -61.85,4.34 -80.82,13.17 -6.85,2.99 -10.35,7.15 -10.35,12.66l0 6.34 5 41c0,5.33 2.66,7.84 8.17,7.84 0.69,0 3.35,-0.69 7.84,-1.86 24.84,-7.48 48.18,-11.16 69.99,-11.16 94.02,0 152.52,74.66 175.35,224.01 -31.36,-50.66 -74.69,-76.01 -130.02,-76.01 -50.48,0 -91.15,20.35 -122.33,61.02 -31.15,40.67 -46.65,93.99 -46.65,160.15 0,68.68 17.98,124.33 54.16,166.83 36,42.67 83.16,64.01 141.15,64.01 123.83,0 185.68,-91 185.68,-273zm-81.99 49.67c0,101.5 -35.67,152.31 -106.86,152.31 -34.14,0 -61.16,-14 -81.15,-41.98 -19.99,-28.01 -30.01,-66.01 -30.01,-114.19 0,-49.17 9.52,-87.65 28.52,-115.33 19,-27.65 45.66,-41.5 79.84,-41.5 73.16,0 109.67,53.5 109.67,160.69z"
   id="glyph24" />
   <glyph
   unicode="A"
   horiz-adv-x="537"
   d="M517.18 7.84c0,-5.18 -4.85,-7.84 -14.18,-7.84l-63.98 0c-6.85,0 -11.85,3.68 -15.17,11.16l-54.67 194.84 -203.18 0 -56.17 -194.84c-1.83,-7.48 -6.82,-11.16 -14.66,-11.16l-60 0c-9.49,0 -14.15,2.33 -14.15,6.82 0,1.68 0.66,4.67 2,9.34l201.15 658.69c2.18,7.48 7.18,11.16 14.66,11.16l60 0c7.84,0 12.84,-3.68 15.17,-11.16l201.18 -658.69c1.32,-4.67 2,-7.33 2,-8.32zm-167.01 267.16l-60.18 220.15c-8.65,31.51 -16.34,63.53 -22.83,95.67 -4.67,-23.49 -12.33,-55 -22.98,-94.65l-60.18 -221.17 166.17 0z"
   id="glyph25" />
   <glyph
   unicode="B"
   horiz-adv-x="556"
   d="M500 189c0,-42.01 -10.32,-78.82 -30.82,-110.33 -20.5,-31.66 -48.69,-53.5 -84.51,-65.5 -25.02,-8.83 -68.35,-13.17 -129.84,-13.17l-145.16 0c-9.16,0 -13.68,4.67 -13.68,14.15l0 657.67c0,9.52 4.52,14.18 13.68,14.18l163.18 0c62.81,0 108.15,-9.01 136.15,-26.84 42.67,-27.68 64.01,-73.49 64.01,-137.17 0,-77.17 -32.68,-131.49 -98.18,-163.18 32.68,-8.98 56.5,-20.65 71.85,-34.65 35.49,-32.83 53.32,-78.01 53.32,-135.17zm-115.99 324.35c0,38.66 -8.53,66.16 -25.67,82.32 -17.18,16.16 -46.35,24.33 -87.35,24.33l-93 0 0 -237.99 72.03 0c38.99,0 67.48,5.98 84.98,18.16 32.68,22.65 49.02,60.33 49.02,113.17zm26.99 -321.83c0,51.32 -19,87.32 -57.18,108.32 -19.15,10.83 -46.5,16.16 -81.99,16.16l-93.84 0 0 -249.99 97.67 0c41,0 71.85,7.99 92.35,24 28.67,22.5 43,56.32 43,101.5z"
   id="glyph26" />
   <glyph
   unicode="C"
   horiz-adv-x="462"
   d="M441.17 64.01c0,-6.85 -9.34,-17.33 -27.83,-31.66 -39.68,-30.85 -84.83,-46.35 -135.35,-46.35 -73.49,0 -129.48,31 -168.17,93.18 -38.48,62.15 -57.81,152.49 -57.81,270.81 0,116.85 19,205.19 57.15,265.01 36.18,56.68 90.16,85.01 162.01,85.01 55.66,0 105.33,-18.67 148.99,-56.02 10.68,-9.16 16.16,-15.83 16.16,-19.99 0,-2.66 -0.66,-5.33 -1.97,-7.84l-29.36 -38c-1.32,-2.66 -3.98,-3.98 -7.81,-3.98 -2,0 -13.35,7.99 -34.17,24 -30.01,23.16 -60.33,34.83 -91,34.83 -45.66,0 -78.85,-21.84 -99.68,-65.5 -20.83,-43.69 -31.33,-113.17 -31.33,-208.69 0,-203.81 47.16,-305.82 141.33,-305.82 34.5,0 71.85,17.69 111.83,53 4.67,3.83 8.17,5.84 10.83,5.84 2.66,0 5.36,-2.33 8.35,-6.82l24.84 -33.16c1.97,-2 2.99,-4.52 2.99,-7.84z"
   id="glyph27" />
   <glyph
   unicode="E"
   horiz-adv-x="462"
   d="M432.01 679.15c0,-2.33 -0.69,-5.33 -2,-9.34l-15.17 -43.99c-2.66,-7.15 -7.66,-10.83 -15.17,-10.83l-221.68 0 0 -225.99 195.85 0c9.49,0 14.15,-4.67 14.15,-14l0 -38.51c0,-9.01 -4.67,-13.5 -14.15,-13.5l-195.85 0 0 -251.99 238.85 0c9.49,0 14.15,-4.52 14.15,-13.68l0 -43.18c0,-9.49 -4.67,-14.15 -14.15,-14.15l-307.17 0c-9.16,0 -13.68,4.67 -13.68,14.15l0 657.67c0,9.52 4.52,14.18 13.68,14.18l308.16 0c9.34,0 14.18,-2.33 14.18,-6.85z"
   id="glyph28" />
   <glyph
   unicode="F"
   horiz-adv-x="425"
   d="M432.01 679.16c0,-2.33 -0.36,-4.17 -1.01,-5.31l-1.01 -4.02 -15.15 -43.99c-2.69,-7.18 -7.68,-10.84 -15.19,-10.84l-221.66 0 0 -233.01 195.84 0c9.48,0 14.15,-4.49 14.15,-13.5l0 -38.49c0,-9.34 -4.67,-14 -14.15,-14l-195.84 0 0 -301.81c0,-9.52 -4.67,-14.18 -14.15,-14.18l-54.19 0c-9.16,0 -13.65,4.67 -13.65,14.18l0 657.65c0,9.48 4.49,14.15 13.65,14.15l308.16 0c9.34,0 14.18,-2.33 14.18,-6.82z"
   id="glyph29" />
   <glyph
   unicode="G"
   horiz-adv-x="537"
   d="M469 41.18c0,-7.18 -2.99,-12.18 -8.83,-15.17 -42.34,-26.66 -97.67,-40.01 -166.02,-40.01 -78.31,0 -138.16,30.16 -179.3,90.49 -41.18,60.36 -61.85,148.18 -61.85,263.36 0,117.15 20.83,206.48 62.51,268 41.65,61.49 102.16,92.17 181.67,92.17 51.32,0 99.5,-13.68 143.99,-41.03 13.32,-8.32 19.99,-14.99 19.99,-19.99 0,-2.15 -0.99,-5 -2.81,-8.17l-21.01 -43c-1.35,-2.48 -3.35,-3.83 -6.01,-3.83 -2.48,0 -12.99,6.01 -31.15,18.16 -31.66,20.5 -66.01,30.85 -103.18,30.85 -53.5,0 -92.67,-22.68 -117.66,-68.02 -24.84,-45.16 -37.35,-116.49 -37.35,-213.99 0,-105.18 13.02,-181.19 39.02,-227.84 26,-46.83 68.32,-70.17 127,-70.17 27.32,0 53.65,6.16 79,18.67l0 206.33 -77.68 0c-9.49,0 -14.15,4.67 -14.15,14.18l0 40.67c0,9.49 4.67,14.15 14.15,14.15l146 0c9.19,0 13.68,-4.67 13.68,-14.15l0 -291.67z"
   id="glyph30" />
   <glyph
   unicode="H"
   horiz-adv-x="610"
   d="M516.01 14.15c0,-9.49 -4.67,-14.15 -14.18,-14.15l-53.65 0c-9.52,0 -14.18,4.67 -14.18,14.15l0 307.86 -256 0 0 -307.86c0,-9.49 -4.67,-14.15 -14.15,-14.15l-54.16 0c-9.16,0 -13.68,4.67 -13.68,14.15l0 657.67c0,9.52 4.52,14.18 13.68,14.18l54.16 0c9.49,0 14.15,-4.67 14.15,-14.18l0 -280.84 256 0 0 280.84c0,9.52 4.67,14.18 14.18,14.18l53.65 0c9.52,0 14.18,-4.67 14.18,-14.18l0 -657.67z"
   id="glyph31" />
   <glyph
   unicode="K"
   horiz-adv-x="518"
   d="M503.68 36.99c0,-3.65 -2.18,-6.97 -6.85,-10.32l-45.81 -31.84c-4.01,-2.48 -7,-3.83 -9.34,-3.83 -2.84,0 -6.16,2.33 -9.67,6.85l-254.02 327.31 0 -311c0,-9.49 -4.67,-14.15 -14.15,-14.15l-54.16 0c-9.16,0 -13.68,4.67 -13.68,14.15l0 657.67c0,9.52 4.52,14.18 13.68,14.18l54.16 0c9.49,0 14.15,-4.67 14.15,-14.18l0 -324.65 256.84 340c4.01,5.15 7.18,7.84 9.84,7.84 2.33,0 5.33,-1.68 9.34,-4.85l36.99 -24.99c5.18,-3.5 7.84,-7 7.84,-10.17 0,-2.33 -1.68,-5.69 -4.85,-9.84l-235.32 -304.33 240.17 -295.17c3.32,-3.17 4.85,-6.16 4.85,-8.68z"
   id="glyph32" />
   <glyph
   unicode="M"
   horiz-adv-x="667"
   d="M593 9.84c0,-6.52 -4.16,-9.84 -12.66,-9.84l-58.17 0c-9.19,0 -13.85,4.34 -14.18,13.17l-14.99 512.66c0,-5.84 0.99,11.34 2.84,51.35l0.99 19.99c-4.49,-31.15 -11.49,-60.66 -21.01,-88.34l-117.15 -337.99c-2.66,-7.18 -7.51,-10.68 -14.66,-10.68l-29.33 0c-7.51,0 -12.51,3.5 -15.02,10.68l-112.81 337.99c-8.86,26.33 -15.17,55.84 -19,88.34l0 -19 1.83 -38.15 0 -19 -14.66 -507.84c0,-8.83 -4.34,-13.17 -12.84,-13.17l-54.34 0c-6.31,0 -10.17,0.84 -11.67,2.51 -1.5,1.5 -2.15,3.98 -2.15,7.33l0 4.31 37.67 658.69c0.66,8.83 5.33,13.17 14.15,13.17l59.16 0c7.51,0 12.51,-3.68 15.02,-11.16l117.81 -344.84c6.85,-19.84 11.67,-40.49 14.18,-62 1.32,11.49 5.66,32.17 13.17,62l118.83 344.84c2.66,7.48 7.66,11.16 15.17,11.16l62.99 0c8.17,0 12.51,-4.34 13.17,-13.17l37.67 -663z"
   id="glyph33" />
   <glyph
   unicode="P"
   horiz-adv-x="481"
   d="M466.01 502c0,-91.84 -33.19,-155.19 -99.68,-190.02 -28.49,-14.66 -67.15,-21.99 -116.49,-21.99l-71.85 0 0 -275.84c0,-9.49 -4.67,-14.15 -14.15,-14.15l-54.16 0c-9.16,0 -13.68,4.67 -13.68,14.15l0 657.67c0,9.52 4.52,14.18 13.68,14.18l153.51 0c59.64,0 102.31,-7.66 127.98,-23.01 49.82,-29.83 74.84,-83.67 74.84,-160.99zm-84 -1.02c0,57.51 -18.67,93.51 -55.84,107.67 -13.68,5.51 -37.17,8.35 -70.35,8.35l-77.83 0 0 -255.01 66.01 0c43.66,0 74.99,7.69 93.99,23.01 29.36,23.67 44.02,62.33 44.02,115.99z"
   id="glyph34" />
   <glyph
   unicode="S"
   horiz-adv-x="481"
   d="M439.01 182.33c0,-58.65 -19.36,-105.99 -58.17,-142.17 -38.66,-36.15 -89.35,-54.16 -151.83,-54.16 -37.49,0 -78.34,7 -122.51,21.01 -44.35,14 -66.49,26.99 -66.49,38.99 0,2 0.66,4.67 2,8.35l18.97 47.67c1.35,3.32 3.5,5 6.85,5 2.99,0 8.65,-2.33 17.18,-6.85 50.99,-28.16 99.32,-42.16 144.98,-42.16 36.66,0 66.34,10.35 88.52,31 22.32,20.68 33.48,48 33.48,81.84 0,30.49 -8.5,55.99 -25.32,76.16 -17.03,20.17 -50.18,44.35 -99.68,72.69 -65.32,37.82 -107.34,67.15 -126.01,88.34 -26.66,30.31 -40.01,67.33 -40.01,110.81 0,53.17 18.34,96.5 55,130.35 36.51,33.81 83.85,50.84 141.84,50.84 33.51,0 69.66,-6.34 108.5,-19.18 38.99,-12.84 58.5,-24.51 58.5,-35.01 0,-1.83 -0.66,-4.49 -2,-7.66l-17.98 -45.33c-1.68,-3.98 -4.34,-5.84 -7.84,-5.84 -1.35,0 -15.68,6.67 -43,20.02 -30.34,14.66 -62.66,21.99 -97.16,21.99 -34.5,0 -61.49,-8.68 -80.82,-26.18 -19.36,-17.33 -29.03,-41.65 -29.03,-72.98 0,-35.67 13.35,-64.01 40.01,-84.83 7.18,-5.66 47.16,-30.49 120.17,-74.84 48.18,-28.49 81,-55.33 98.66,-79.99 22.17,-30.67 33.19,-66.52 33.19,-107.85z"
   id="glyph35" />
   <glyph
   unicode="T"
   horiz-adv-x="407"
   d="M421.99 679.16c0,-2.98 -0.32,-4.99 -1.01,-6.32l-0.97 -3.02 -15.19 -42.98c-2.33,-7.18 -7.15,-10.84 -14.65,-10.84l-144.17 0 0 -601.82c0,-9.52 -4.67,-14.18 -14.18,-14.18l-53.65 0c-9.52,0 -14.18,4.67 -14.18,14.18l0 601.82 -145.82 0c-9.52,0 -14.18,4.49 -14.18,13.68l0 42.16c0,9.48 4.67,14.15 14.18,14.15l390.18 0c8.98,0 13.65,-2.33 13.65,-6.82z"
   id="glyph36" />
   <glyph
   unicode="V"
   horiz-adv-x="481"
   d="M467.65 672.99l-0.99 -8.83 -176.82 -652.82c-1.86,-7.51 -7,-11.34 -15.02,-11.34l-69.81 0c-8.17,0 -13.35,3.68 -15.17,11.16l-173.83 652.16c-1.35,4.85 -2,7.33 -2,7.66 0,3.35 3.83,6.52 11.67,9.34l59.16 13.68c1.35,0.66 2.84,1.02 4.82,1.02 3.68,0 6.34,-3.86 8.35,-11.67l127 -529.51c2.84,-12.66 6.49,-31.18 10.68,-55.66l4.31 -23.01c6.34,35.82 11.16,61.49 14.66,76.84l131.34 532.14c1.68,7.18 4.67,10.86 8.86,10.86 3.98,0 6.49,-0.36 7.81,-1.02l54.16 -12.66c7.18,-2 10.83,-4.85 10.83,-8.35z"
   id="glyph37" />
   <glyph
   unicode="W"
   horiz-adv-x="684"
   d="M663.18 672c0,-1.02 -0.33,-2.33 -1.02,-3.83l0 -4.01 -138.16 -651.98c-1.68,-8.17 -6.67,-12.18 -15.17,-12.18l-65.98 0c-8.02,0 -12.69,4.01 -13.68,12.18l-86.33 552.82 -104.02 -552.82c-1.32,-8.17 -6.16,-12.18 -14.66,-12.18l-60.99 0c-8.5,0 -13.5,4.01 -15.17,12.18l-124.99 653.81c-0.69,3.68 -1.02,6.16 -1.02,7.84 0,4.01 4.01,6.67 12.18,8.35l51.83 9.82c3.5,0.69 6.34,1.02 8.32,1.02 3.86,0 6.52,-3.83 7.69,-11.67l86 -494.34c4.16,-24 7.15,-65.65 8.83,-124.99 2,28.67 5.98,69.33 12.15,122l97.16 489.83c1.68,8.17 6.52,12.18 14.69,12.18l53.15 0c8.86,0 13.85,-4.01 15.17,-12.18l81.99 -493.66c4.01,-23.85 7.51,-64.52 10.83,-122 0.69,27.65 3.68,68.32 9.34,122l91.69 501.17c1.32,7.84 4.34,11.67 8.83,11.67 1.68,0 4.01,-0.33 7.33,-1.02l51.83 -10.65c7.99,-2 12.18,-5.18 12.18,-9.34z"
   id="glyph38" />
   <glyph
   unicode="a"
   horiz-adv-x="462"
   d="M405.68 24.66c0,-2 -1.35,-3.5 -3.86,-4.82l-43 -26.84c-2.66,-2 -5.15,-2.99 -7.81,-2.99 -12.69,0 -25.35,21.01 -38.18,62.99 -42.82,-41.98 -90.67,-62.99 -143.01,-62.99 -40.31,0 -72.48,12.33 -96.15,36.84 -23.85,24.66 -35.67,57.99 -35.67,100.01 0,112.99 88.01,170.99 263.99,173.98l0 33.19c0,31.99 -7.15,54.82 -21.34,68.5 -14.15,13.65 -37.64,20.5 -70.65,20.5 -33.19,0 -73.01,-9.67 -119.19,-29 -2.66,-1.17 -5,-1.86 -6.82,-1.86 -3.65,0 -5.98,1.53 -6.82,4.85l-15.17 40.01 -1.02 7.66c0,5 8.86,11.34 26.84,19 41.33,18.16 85.85,27.32 133.34,27.32 103.84,0 155.84,-46.65 155.84,-140.16l0 -189c0,-55.33 8.83,-98.99 26.66,-131.34 1.32,-2.15 2,-4.16 2,-5.84zm-103.69 85.16l0 129c-124.66,-0.99 -187,-36.33 -187,-105.99 0,-23.49 6.82,-42.49 20.5,-57.33 13.68,-14.84 31.33,-22.32 52.67,-22.32 33.34,0 71.16,19 113.83,56.65z"
   id="glyph39" />
   <glyph
   unicode="b"
   horiz-adv-x="500"
   d="M450 272.01c0,-190.68 -60.84,-286.01 -182.66,-286.01 -46.35,0 -88.99,16.34 -128.16,49.17 -12,-30.16 -22.83,-45.16 -32.35,-45.16 -2,0 -4.49,0.99 -7.84,2.99l-43 26.84c-1.97,1.83 -2.99,3.5 -2.99,4.82 0.33,2.66 1.35,5 2.99,7.33 18.67,24.51 28.01,59.52 28.01,105l0 561.16c0,6.85 3.68,11.01 11.16,12.69l51.68 12.15c0.66,0.66 2.99,1.02 6.82,1.02 4.16,0 6.34,-3.68 6.34,-11.19l0 -268c47.34,32.86 91.84,49.17 133.34,49.17 104.49,0 156.65,-73.97 156.65,-221.98zm-81.99 -10.68c0,110.51 -29.83,165.66 -89.35,165.66 -32.5,0 -72.15,-16.31 -118.65,-48.81l0 -285.5c29.65,-25.85 64.34,-38.66 103.99,-38.66 69.33,0 104.02,69.15 104.02,207.31z"
   id="glyph40" />
   <glyph
   unicode="c"
   horiz-adv-x="408"
   d="M398.17 430.16l-0.99 -6.31 -22.02 -39.02c-2.48,-4.67 -5.15,-6.82 -7.81,-6.82 -2.84,0 -5.69,1.17 -8.17,3.83 -40.67,30.16 -75.02,45.16 -103,45.16 -80.85,0 -121.19,-61.97 -121.19,-185.83 0,-124.81 37.17,-187.14 111.35,-187.14 22.17,0 43,4.49 62.51,13.65 11.31,5.69 29.83,17.36 55.15,35.34 2.99,2 5.33,2.99 7.33,2.99 2.66,0 4.85,-2 6.85,-5.84l15.14 -38.15c1.68,-4.16 2.51,-7.51 2.84,-10.17 0,-4.49 -5.33,-10.65 -16.01,-18.49 -42.64,-31.51 -89.32,-47.34 -139.66,-47.34 -59.67,0 -106.17,21.52 -139.51,64.34 -33.34,43 -50,102.49 -50,178.68 0,81.99 18.16,146.66 54.52,194 36.15,47.34 85.82,70.98 148.66,70.98 44.17,0 84.98,-12.99 122,-38.99 14.66,-10.5 21.99,-18.67 21.99,-24.84z"
   id="glyph41" />
   <glyph
   unicode="d"
   horiz-adv-x="500"
   d="M448.5 23.67c0,-2 -1.83,-3.83 -5.33,-5.84l-45.01 -24.84c-2,-2 -4.49,-2.99 -7.84,-2.99 -12,0 -22.98,19.99 -33.16,59.82 -56.68,-42.49 -106.35,-63.83 -148.99,-63.83 -49.2,0 -87.53,23.01 -115.36,68.83 -27.83,45.84 -41.83,109.34 -41.83,190.35 0,76.67 16.01,137.32 48.18,182 31.99,44.5 75.68,66.82 131.01,66.82 34.5,0 71.16,-10.65 109.82,-31.99l0 236.16c0,6.16 3.35,10.35 10.17,12.69l51.65 12.15c1.35,0.66 3.5,1.02 6.34,1.02 4.49,0 6.82,-3.68 6.82,-11.19l0 -554.82c0,-52.16 8.35,-91.51 25.17,-118.17 5.51,-8.5 8.35,-13.82 8.35,-16.16zm-108.5 88.01l0 283.5c-36.99,21.16 -70.83,31.81 -101.5,31.81 -37.32,0 -64.16,-13.97 -80.68,-41.83 -16.49,-27.83 -24.81,-73.16 -24.81,-136.15 0,-69 7.15,-118.83 21.66,-149.32 14.33,-30.52 38.15,-45.66 71.16,-45.66 35.01,0 72.98,19.15 114.16,57.66z"
   id="glyph42" />
   <glyph
   unicode="e"
   horiz-adv-x="462"
   d="M432.01 241.01c0,-12 -3.68,-18.01 -11.19,-18.01l-287.81 0c5.15,-112.66 49.31,-168.98 132.32,-168.98 35.49,0 74,12 115.66,35.82 3.68,2 7,2.99 10.35,2.99 2.33,0 4.49,-1.65 6.82,-5l17.98 -38.99c1.35,-2.84 2,-5.18 2,-6.82 0,-7.36 -12,-16.67 -36.15,-27.68 -39.68,-18.82 -80.68,-28.34 -123.02,-28.34 -63.5,0 -113.98,22.83 -151.65,68.5 -37.49,45.84 -56.35,107.19 -56.35,184.33 0,78.01 17.83,140.01 53.5,186.19 35.85,45.99 83.85,68.97 144.17,68.97 83.67,0 139.83,-39.98 168.17,-120.14 10.14,-28.34 15.17,-72.51 15.17,-132.83zm-82.02 43.99c-2.33,98.66 -38,148 -107.34,148 -68.83,0 -105.33,-49.34 -109.64,-148l216.98 0z"
   id="glyph43" />
   <glyph
   unicode="f"
   horiz-adv-x="295"
   d="M341.67 688.82c0,-0.66 -0.66,-2.48 -2,-5.84l-16.49 -41c-1.35,-3.83 -3.86,-5.84 -7.33,-5.84 -2.69,0 -5.84,1.02 -9.84,3.02 -28.85,13.82 -54.49,20.83 -76.99,20.83 -25.02,0 -42.16,-9.84 -51.17,-29.33 -5.84,-11.67 -8.83,-36.18 -8.83,-73.67l0 -76.99 143.81 0c7.51,0 11.34,-2.33 11.34,-6.85 0,-2.66 -0.33,-4.67 -0.99,-6.31l-13.17 -40.01c-2,-5.84 -6.34,-8.83 -13.17,-8.83l-127.84 0 0 -405.83c0,-6.16 -1.02,-9.67 -3.02,-10.68 -1.83,-0.99 -4.49,-1.5 -7.81,-1.5l-53.35 0c-5,0 -7.99,0.84 -9.16,2.66 -1.17,1.83 -1.68,5 -1.68,9.52l0 405.83 -66.31 0c-5.84,0 -9.19,0.99 -10.17,2.99 -1.02,1.83 -1.5,4.67 -1.5,8.17l0 38.66c0,6.16 1.32,9.84 3.83,11.16 1.32,0.69 3.98,1.02 7.84,1.02l66.31 0 0 77.98c0,54.16 8.68,92.67 25.85,115.69 25.17,33.48 62.48,50.33 111.98,50.33 23.34,0 47.52,-4.01 72.51,-12 24.84,-7.84 37.35,-15.68 37.35,-23.19z"
   id="glyph44" />
   <glyph
   unicode="g"
   horiz-adv-x="500"
   d="M447 461.85c0,-2.18 -2,-6.52 -5.84,-12.69 -16.85,-26.33 -25.17,-60 -25.17,-100.99l0 -154.32c0,-47.19 1.68,-104.2 5,-171.02 1.35,-26.66 2,-45.66 2,-57.01 0,-117.84 -59.16,-176.82 -177.66,-176.82 -53.68,0 -103.69,12.33 -149.86,37.17 -12.15,6.16 -18.16,11.67 -18.16,16.49 0,1.02 0.69,3.5 2,7.33l18.01 40.19c0.99,3.83 2.99,5.84 5.84,5.84 2.33,0 5,-1.02 7.81,-3.02 47.19,-25.32 90.85,-38 131.19,-38 43.66,0 73.82,12.18 90.67,36.36 10.14,13.97 15.14,38.33 15.14,72.98 0,7 -0.33,24.18 -0.99,51.5l-0.99 52.01c-44.5,-36.51 -90.85,-54.85 -139,-54.85 -47.67,0 -85.52,19.84 -113.35,59.52 -27.83,39.83 -41.65,93.84 -41.65,162.16 0,83.01 16.49,147.02 49.31,191.99 32.86,44.86 79.51,67.33 140.16,67.33 40.67,0 80.85,-13.97 120.5,-41.8 12.18,30.49 21.52,45.81 28.34,45.81 2.99,0 5.51,-0.66 7.84,-2l45.99 -28.34c1.83,-0.81 2.84,-2.81 2.84,-5.81zm-105.99 -332.01l0 269.82c-37.02,18.82 -68.02,28.34 -93.33,28.34 -75.86,0 -113.68,-57.99 -113.68,-174.16 0,-60.84 7,-104.85 20.83,-132.02 14,-27.14 36.69,-40.82 68.17,-40.82 33.66,0 73.01,16.34 118.02,48.84z"
   id="glyph45" />
   <glyph
   unicode="h"
   horiz-adv-x="519"
   d="M435.99 12.18c0,-6.16 -0.99,-9.67 -2.99,-10.68 -1.83,-0.99 -4.67,-1.5 -8.17,-1.5l-52.67 0c-4.82,0 -7.99,0.84 -9.16,2.66 -1.35,1.83 -2,5 -2,9.52l0 332.16c0,31.15 -5,52.85 -14.84,65.17 -9.99,12.33 -28.01,18.49 -54.16,18.49 -36.84,0 -80.82,-21.01 -131.99,-62.84l0 -352.98c0,-6.16 -1.35,-9.84 -3.83,-11.19 -1.35,-0.66 -3.83,-0.99 -7.33,-0.99l-52.67 0c-4.85,0 -8.02,0.84 -9.19,2.66 -1.32,1.83 -1.97,5 -1.97,9.52l0 685.98c0,6.16 3.32,10.35 10.14,12.69l51.68 12.15c0.66,0.66 2.99,1.02 6.82,1.02 4.16,0 6.34,-3.68 6.34,-11.19l0 -284.67c48.51,43.84 100.16,65.83 154.83,65.83 53.5,0 89.5,-19.48 108.5,-58.47 8.5,-18.01 12.66,-48.84 12.66,-92.85l0 -330.48z"
   id="glyph46" />
   <glyph
   unicode="i"
   horiz-adv-x="258"
   d="M191 658.18c0,-16.85 -5.84,-31.33 -17.51,-43.33 -11.82,-11.85 -26,-17.83 -42.49,-17.83 -17,0 -31.33,5.81 -43.18,17.66 -11.82,11.67 -17.83,26.33 -17.83,43.51 0,16.67 6.01,30.82 18.01,42.49 12.15,11.49 26.66,17.33 43.99,17.33 16.16,0 30.16,-5.84 41.68,-17.66 11.49,-11.67 17.33,-25.85 17.33,-42.16zm-14.99 -646c0,-6.16 -0.84,-9.67 -2.69,-10.68 -1.83,-0.99 -4.49,-1.5 -8.14,-1.5l-53.35 0c-5,0 -7.99,0.84 -9.16,2.66 -1.17,1.83 -1.68,5 -1.68,9.52l0 405.83 -79.84 0c-5.84,0 -9.34,0.99 -10.5,2.99 -1.17,1.83 -1.65,4.67 -1.65,8.17l0 38.66c0,6.16 1.32,9.84 3.83,11.16 1.68,0.69 4.49,1.02 8.32,1.02l144.17 0c4.85,0 7.84,-0.84 9.01,-2.66 1.17,-1.86 1.68,-5.03 1.68,-9.52l0 -455.65z"
   id="glyph47" />
   <glyph
   unicode="k"
   horiz-adv-x="443"
   d="M429.17 36c0,-2 -1.68,-4.82 -5.33,-8.32l-41 -30.85c-3.35,-2.48 -5.84,-3.83 -7.84,-3.83 -1.35,0 -3.35,1.35 -5.84,3.83l-209.17 250.16 0 -234.81c0,-6.16 -1.35,-9.84 -3.83,-11.19 -1.35,-0.66 -3.83,-0.99 -7.33,-0.99l-52.67 0c-4.85,0 -8.02,0.84 -9.19,2.66 -1.32,1.83 -1.97,5 -1.97,9.52l0 685.98c0,6.16 3.32,10.35 10.14,12.69l51.68 12.15 6.82 1.02c4.16,0 6.34,-3.68 6.34,-11.19l0 -452.99 200.82 225.84c3.5,4.16 7,6.34 10.35,6.34 2.48,0 5.48,-1.5 8.65,-4.34l38.18 -25.02c3.32,-3.14 4.82,-6.16 4.82,-8.65 0,-2.66 -1.5,-5.84 -4.82,-9.34l-170.84 -186.01 178.65 -214.82c2.33,-2 3.35,-4.67 3.35,-7.84z"
   id="glyph48" />
   <glyph
   unicode="l"
   horiz-adv-x="258"
   d="M272.85 14c0,-5.18 -9.52,-10.5 -28.67,-16.01 -19.36,-5.33 -38,-7.99 -56.17,-7.99 -58.02,0 -92.02,23.34 -102.19,69.84 -3.14,15.32 -4.82,56.32 -4.82,122.99l0 516.34c0,6.82 3.65,10.65 10.83,11.67l51.5 12.15c0.51,0.66 2.84,1.02 6.82,1.02 3.83,0 5.84,-3.68 5.84,-11.19l0 -530.49c0,-51.83 0.84,-82.5 2.51,-92.32 3.17,-25.35 16.82,-38 40.82,-38 14,0 29,3.98 44.86,12 3.83,1.32 6.49,2 7.81,2 2.18,0 4.52,-2.33 6.85,-7l12.15 -37.17c1.17,-4.19 1.86,-6.85 1.86,-7.84z"
   id="glyph49" />
   <glyph
   unicode="m"
   horiz-adv-x="722"
   d="M641 12.18c0,-6.16 -0.99,-9.67 -3.17,-10.68 -2.15,-0.99 -5.18,-1.5 -9.01,-1.5l-50.66 0c-6.16,0 -9.82,1.35 -11.16,3.83 -0.66,1.68 -0.99,4.49 -0.99,8.35l0 342.81c0,48.69 -21.34,73.01 -64.01,73.01 -28.34,0 -62.33,-13.35 -102.01,-40.01l0 -375.82c0,-6.16 -0.99,-9.67 -2.99,-10.68 -1.83,-0.99 -4.49,-1.5 -7.84,-1.5l-52.34 0c-5,0 -7.99,0.84 -9.16,2.66 -1.17,1.83 -1.68,5 -1.68,9.52l0 341.82c0,49.34 -21.34,74 -63.98,74 -29.83,0 -63.17,-14.33 -100.01,-42.85l0 -372.97c0,-6.16 -1.02,-9.67 -3.17,-10.68 -2.18,-0.99 -5.18,-1.5 -9.01,-1.5l-50.66 0c-6.16,0 -9.67,1.35 -10.68,3.83 -0.99,1.68 -1.5,4.49 -1.5,8.35l0 358.82c0,28.01 -5.98,55.99 -17.98,83.85 -0.66,0.66 -1.02,2.33 -1.02,5 0,2.81 1.68,4.82 4.85,5.84l40.01 22.83c3.65,2.33 6.64,3.5 9.34,3.5 10.14,0 19.66,-19 28.82,-57.01 50.33,39.32 97.16,58.98 140.01,58.98 46.5,0 78.16,-19.66 94.65,-58.98 55.33,39.32 104.02,58.98 146,58.98 43.66,0 74,-14.66 91.33,-43.99 12,-20.5 18.01,-52.82 18.01,-96.98l0 -340.83z"
   id="glyph50" />
   <glyph
   unicode="n"
   horiz-adv-x="519"
   d="M437.01 12.18c0,-6.16 -1.02,-9.67 -3.02,-10.68 -1.83,-0.99 -4.67,-1.5 -8.17,-1.5l-52.67 0c-4.82,0 -7.99,0.84 -9.16,2.66 -1.32,1.83 -2,5 -2,9.52l0 332.99c0,55.15 -21.99,82.83 -65.98,82.83 -42.34,0 -86.33,-21.01 -131.99,-62.84l0 -352.98c0,-6.16 -1.02,-9.67 -3.02,-10.68 -1.83,-0.99 -4.67,-1.5 -8.17,-1.5l-52.67 0c-4.82,0 -7.99,0.84 -9.16,2.66 -1.35,1.83 -2,5 -2,9.52l0 342.66c0,36.51 -6.31,68.5 -19,96.18 -0.99,2.66 -1.65,4.49 -2,5.81 0,3.02 1.68,4.85 4.85,5.84l45.48 25.85c3.17,2.33 5.84,3.5 7.69,3.5 12.84,0 22.98,-22.02 30.82,-66.19 56.68,45.51 110.33,68.17 160.99,68.17 49.52,0 83.52,-16.16 102.19,-48.33 11.31,-19.15 17,-52.67 17,-100.48l0 -332.99z"
   id="glyph51" />
   <glyph
   unicode="o"
   horiz-adv-x="500"
   d="M450 243.16c0,-81 -18.16,-144.17 -54.34,-189.33 -36.15,-45.16 -86.48,-67.84 -151,-67.84 -61.31,0 -108.83,22.17 -142.83,66.34 -33.84,44.32 -50.84,106.17 -50.84,185.5 0,81 18.16,143.99 54.34,188.82 36.18,44.86 86.51,67.33 151,67.33 60.69,0 108.18,-22.14 142.35,-66.64 34.14,-44.35 51.32,-105.84 51.32,-184.18zm-81.99 1.02c0,124.48 -39.5,186.82 -118.5,186.82 -77.68,0 -116.49,-60.99 -116.49,-182.99 0,-68.86 10.32,-120.68 31,-155.19 17.48,-29.15 46.65,-43.84 87.5,-43.84 39.14,0 67.33,14 84.48,42.01 21.34,34.5 32.02,85.49 32.02,153.18z"
   id="glyph52" />
   <glyph
   unicode="p"
   horiz-adv-x="500"
   d="M450 250.01c0,-82.02 -14.84,-146.51 -44.5,-193.52 -29.83,-47.01 -70.32,-70.5 -122,-70.5 -37.49,0 -76.99,14.66 -118.5,43.84l0 -213.99c0,-7.18 -2.99,-11.34 -9.16,-12.69l-52.67 -14.15c-2.33,-0.66 -4.19,-1.02 -5.84,-1.02 -4.85,0 -7.33,3.5 -7.33,10.68l0 543c0,43.66 -6.67,76.01 -20.17,97.16 -6.52,10.83 -9.84,17.18 -9.84,19.15 0,2.18 0.99,3.86 2.99,4.85l43 30.16c2,2 4.52,2.99 7.84,2.99 10.83,0 23.16,-19.99 37.17,-60 50.51,38.66 98.66,57.99 144.32,57.99 58.17,0 98.51,-23.16 121.34,-69.3 22.17,-44.17 33.34,-102.52 33.34,-174.67zm-81.99 -2c0,57.15 -5,99.5 -15.17,127.15 -12.33,34.5 -36.33,51.83 -72.18,51.83 -29.65,0 -68.17,-16.31 -115.66,-48.81l0 -282.18c41.65,-28.01 78.01,-41.98 108.83,-41.98 34.17,0 58.32,14.81 72.66,44.5 14.33,29.65 21.52,79.48 21.52,149.5z"
   id="glyph53" />
   <glyph
   unicode="r"
   horiz-adv-x="332"
   d="M333.17 478.01c0,-1.68 -0.69,-4.01 -2,-6.85l-24 -56.17c-1.02,-1.83 -2.66,-2.81 -5.33,-2.81 -0.33,0 -5.84,1.65 -16.67,4.82 -6.85,1.35 -12.51,2 -17,2 -22.17,0 -55.18,-25.32 -99.17,-76.16l0 -330.66c0,-6.16 -1.02,-9.67 -3.02,-10.68 -1.83,-0.99 -4.49,-1.5 -7.81,-1.5l-53.35 0c-5,0 -7.99,0.84 -9.16,2.66 -1.17,1.83 -1.68,5 -1.68,9.52l0 299.81c0,34.68 -0.84,57.51 -2.33,68.35 -2.99,22.65 -10.14,44.5 -21.81,65.32 -2.51,4.85 -3.83,8.35 -3.83,10.35 0,3.83 1.65,6.82 4.82,8.65l42.01 26.33c3.32,2 5.98,2.99 8.32,2.99 5.84,0 12.84,-8.65 20.83,-25.97 7.84,-17.51 13.68,-36.36 17.36,-56.86 31.15,35.01 54.31,57.66 69.48,67.69 15.17,10.14 33.34,15.14 54.49,15.14 11.34,0 22.5,-1.83 33.34,-5.33 11.01,-3.65 16.52,-7.15 16.52,-10.65z"
   id="glyph54" />
   <glyph
   unicode="s"
   horiz-adv-x="389"
   d="M349 128.01c0,-42.34 -14.66,-76.52 -44.02,-102.67 -29.15,-26.18 -67.66,-39.35 -115.15,-39.35 -54.34,0 -103.66,13.02 -148,38.99 -3.83,2.33 -5.84,5.36 -5.84,9.34 0,0.84 0.33,2.18 0.99,3.83l19 43.84c1.02,2.66 3.02,4.01 5.84,4.01 1.35,0 4.01,-0.66 7.84,-2 45.66,-22.65 86.33,-33.99 122.18,-33.99 24.15,0 43.48,6.67 58.17,19.99 14.66,13.35 21.99,30.85 21.99,52.19 0,31 -21.34,56.32 -64.01,76.16 -55.84,25.67 -93.15,46.17 -111.68,61.49 -30.82,25.35 -46.32,57.01 -46.32,95.16 0,40.67 14.15,74 42.67,100.01 28.49,26 64.99,38.99 109.49,38.99 26,0 54.01,-4.82 83.85,-14.66 29.98,-9.67 44.98,-18.82 44.98,-27.32 0,-1.83 -0.66,-4.34 -1.97,-7.18l-18.01 -36.66c-2.51,-4.16 -5.66,-6.34 -9.16,-6.34 0,0 -2.66,0.69 -7.84,2 -36.33,17.51 -67.33,26.18 -93.18,26.18 -50.48,0 -75.83,-22.5 -75.83,-67.33 0,-20.17 6.67,-36.51 20.02,-48.84 8.98,-8.35 43.81,-27.5 104.32,-57.01 37.02,-18.01 62.84,-36.33 77.5,-55.51 14.84,-19 22.17,-43.51 22.17,-73.31z"
   id="glyph55" />
   <glyph
   unicode="t"
   horiz-adv-x="332"
   d="M342.99 29.65c0,-7.81 -15.14,-16.31 -45.66,-25.64 -30.49,-9.34 -58.5,-14 -84.33,-14 -62.51,0 -100.99,24.33 -115.66,72.83 -4.19,13.65 -6.34,38 -6.34,73.31l0 281.85 -70.83 0c-8.17,0 -12.18,3.65 -12.18,11.16l0 38.66c0,6.16 1.35,9.84 3.83,11.16 1.68,0.69 4.52,1.02 8.35,1.02l70.83 0 0 137.14c0,6.85 3.32,11.19 10.17,12.69l51.65 14.15c3.68,1.35 5.69,2 6.34,2 4.49,0 6.82,-4.01 6.82,-12.18l0 -153.81 150.19 0c6.16,0 9.16,-2.33 9.16,-6.85 0,-1.65 -0.33,-3.65 -0.99,-6.31l-11.19 -38.51c-1.97,-6.82 -6.64,-10.32 -14.15,-10.32l-133.01 0 0 -281.17c0,-31.84 3.35,-52.19 9.84,-60.84 10.32,-13.35 27.17,-20.02 50.33,-20.02 20.83,0 50.84,8.02 89.83,24.18 3.32,1.17 5.84,1.83 7.51,1.83 3.5,0 5.84,-2 6.82,-5.84l10.68 -41.15c1.32,-2.84 1.97,-4.67 1.97,-5.36z"
   id="glyph56" />
   <glyph
   unicode="u"
   horiz-adv-x="500"
   d="M451.01 23.01c-0.69,-0.84 -2.18,-2.51 -4.52,-4.85l-44.83 -29.18c-2.99,-1.97 -5.33,-2.99 -6.82,-2.99 -10.83,0 -22.5,20.02 -35.19,59.85 -51.83,-39.83 -101.83,-59.85 -149.98,-59.85 -91.18,0 -136.66,44.68 -136.66,134.18l0 344.49c0,6.85 3.32,11.34 9.82,13.17l52.01 14.18c2.48,0.66 4.67,0.99 6.34,0.99 4.49,0 6.82,-3.65 6.82,-11.16l0 -312.17c0,-43.84 5.18,-74.18 15.65,-90.85 10.35,-16.49 29.18,-24.81 56.53,-24.81 43.48,0 85.49,17 125.83,50.81l0 359.84c0,7.18 3.14,11.52 9.67,13.17l52.82 14.18c2.18,0.66 4.16,0.99 5.69,0.99 4.49,0 6.82,-3.65 6.82,-11.16l0 -349c0,-43.18 9.01,-77.5 26.99,-102.82 2,-2.69 3.02,-5.03 3.02,-7z"
   id="glyph57" />
   <glyph
   unicode="v"
   horiz-adv-x="425"
   d="M423.01 466.66c0,-1.32 -0.66,-3.65 -2,-6.82l-182.18 -458.02c-2.15,-5.84 -6.49,-8.83 -12.66,-8.83l-38.15 0c-6.52,0 -10.83,2.99 -13.17,8.83l-168.83 460.83c-1.35,2.69 -2,4.67 -2,6.34 0,3.83 3.5,6.49 10.32,7.84l59.01 13.17 2.99 0c3.17,0 5.84,-3.17 7.66,-9.34l107.01 -326.83c2,-4.34 4.34,-11.34 7.33,-21.01l11.67 -42.01c5.33,20.53 11.67,41.03 19.15,61.85l119.19 328.15c1.83,6.19 4.49,9.19 7.66,9.19 1.32,0 3.32,-0.33 5.98,-1.02l52.19 -14.15c5.84,-1.5 8.83,-4.34 8.83,-8.17z"
   id="glyph58" />
   <glyph
   unicode="w"
   horiz-adv-x="610"
   d="M600.16 469.51c0,-1.35 -0.33,-2.84 -0.99,-4.52l-0.99 -2.81 -132.35 -459.33c-1.83,-6.52 -5.84,-9.84 -11.67,-9.84l-38.99 0c-6.16,0 -10.32,3.32 -12.33,9.84l-78.49 303.31c-3.35,11.67 -6.01,26 -8.35,43l-2 14.69 -2.81 20.98c-3.35,-29.98 -8.35,-55.81 -15.17,-77.65l-93.84 -305.34c-1.83,-5.84 -6.34,-8.83 -13.17,-8.83l-36.99 0c-6.19,0 -10.17,3.32 -11.85,9.84l-115.18 458.82c-0.66,2.66 -0.99,4.49 -0.99,5.84 0,4.67 3.17,7.33 9.34,8.32l50.66 12.69c2.66,0.99 4.67,1.5 6.01,1.5 3.83,0 6.64,-3.35 8.17,-10.17l70.83 -347c0.66,-2.66 2.99,-15.5 6.82,-38.66 0.99,5.98 5.33,24.15 13.17,54.82l95.34 324.17c1.5,5.84 5.51,8.83 11.67,8.83l39.98 0c6.52,0 10.68,-2.99 12.18,-8.83l88.99 -375.99 2.84 13.68 4.82 25.5 85.01 343.83c1.68,5.84 4.49,8.83 8.32,8.83 1.68,0 3.5,-0.33 5.84,-0.99l46.02 -10.65c6.82,-1.68 10.14,-4.34 10.14,-7.84z"
   id="glyph59" />
   <glyph
   unicode="y"
   horiz-adv-x="425"
   d="M421.66 460.17c0,-1.68 -0.33,-3.5 -0.84,-5.84l-113.83 -392.66c-26.33,-90.16 -48.33,-154.02 -65.98,-191.66 -26,-54.67 -66.34,-82.02 -121.01,-82.02 -24.15,0 -51.17,6.01 -81,18.16 -29.98,12 -45.01,22.86 -45.01,32.68 0.36,3.35 1.02,5.33 2,6.34l20.02 39.65c0.99,3.5 3.17,5.36 6.82,5.36 2.33,-0.36 4.49,-1.35 6.82,-3.02 34.83,-24.15 64.34,-36.15 88.34,-36.15 32.17,0 57.84,28.67 76.67,86l21.01 62.99 -40.01 0c-5.84,0 -9.82,2.99 -11.64,8.83l-157.34 444.49c-1.35,2.69 -2,4.85 -2,6.85 0,3.32 3.17,5.84 9.34,7.84l53.65 19 8.35 0.99c2.33,0 4.49,-2.99 6.82,-8.83l128.01 -378c5.15,-14.99 11.82,-39.17 19.99,-72.33 3.17,15.32 9.01,38.66 17,70.14l98.18 381.17c2.66,5.18 5.84,7.84 9.82,7.84 0.33,0 2,-0.33 4.85,-0.99l52.34 -18.52c5.84,-2.33 8.65,-5 8.65,-8.32z"
   id="glyph60" />
   <glyph
   unicode="z"
   horiz-adv-x="407"
   d="M389.82 60c0,-2.33 -0.47,-4.99 -1.83,-8.33l-19.14 -42.66c-1.83,-6 -6.36,-9.01 -13.18,-9.01l-312 0c-7.83,0 -11.67,3.99 -11.67,12.17l0 39.68 253.01 365.15 -221.34 0c-7.18,0 -10.66,3.66 -10.66,11.17l0 41.15c0,7.18 3.48,10.7 10.66,10.7l304.32 0c4.85,0 7.86,-0.86 9.01,-2.51 1.18,-1.51 1.65,-4.34 1.65,-8.19l0 -42.48 -248.99 -360.84 248.99 0c4.85,0 8.01,-0.32 9.34,-1.15 1.36,-0.86 1.83,-2.51 1.83,-4.85z"
   id="glyph61" />
   <glyph
   unicode="ä"
   horiz-adv-x="462"
   d="M374.02 629.83c0,-14.33 -5.35,-26.64 -16.01,-36.99 -10.49,-10.52 -23.34,-15.66 -38.35,-15.66 -14.33,0 -26.64,5.13 -36.99,15.66 -10.49,10.34 -15.66,22.98 -15.66,37.99 0,14.69 5.17,27.18 15.66,37.49 10.34,10.52 23.02,15.69 37.99,15.69 14.69,0 27.18,-5.35 37.67,-15.84 10.34,-10.66 15.69,-23.34 15.69,-38.35zm-197.35 0c0,-14.33 -5.17,-26.64 -15.66,-36.99 -10.34,-10.52 -22.69,-15.66 -37.02,-15.66 -14.97,0 -27.83,5.13 -38.31,15.66 -10.66,10.34 -16.01,22.98 -16.01,37.99 0,14.69 5.35,27.18 16.01,37.49 10.49,10.52 23.34,15.69 38.31,15.69 14.69,0 27,-5.35 37.34,-15.84 10.16,-10.66 15.33,-23.34 15.33,-38.35zm228.98 -605.16c0,-2.01 -1.33,-3.52 -3.81,-4.85l-43.02 -26.82c-2.66,-2.01 -5.17,-2.98 -7.83,-2.98 -12.68,0 -25.35,20.97 -38.17,62.98 -42.84,-42.01 -90.67,-62.98 -142.99,-62.98 -40.36,0 -72.5,12.32 -96.16,36.81 -23.84,24.67 -35.69,58.03 -35.69,100 0,113 88.01,170.99 264,174.01l0 33.18c0,31.99 -7.15,54.83 -21.33,68.48 -14.15,13.68 -37.67,20.5 -70.67,20.5 -33.14,0 -73,-9.66 -119.14,-28.98 -2.69,-1.18 -5.03,-1.87 -6.86,-1.87 -3.66,0 -6,1.51 -6.82,4.85l-15.15 40 -1.01 7.68c0,4.99 8.83,11.31 26.82,19 41.33,18.17 85.82,27.33 133.33,27.33 103.85,0 155.84,-46.68 155.84,-140.18l0 -188.98c0,-55.33 8.83,-99 26.68,-131.35 1.33,-2.15 1.97,-4.17 1.97,-5.82zm-103.67 85.17l0 128.98c-124.64,-1.01 -186.97,-36.34 -186.97,-106 0,-23.48 6.82,-42.48 20.5,-57.31 13.65,-14.83 31.31,-22.33 52.64,-22.33 33.36,0 71.17,19 113.83,56.66z"
   id="glyph62" />
   <glyph
   unicode="ü"
   horiz-adv-x="500"
   d="M413.82 629.84c0,-14.33 -5.33,-26.66 -15.83,-37.02 -10.65,-10.5 -23.31,-15.65 -38.33,-15.65 -14.33,0 -26.66,5.15 -37.17,15.65 -10.32,10.35 -15.65,23.01 -15.65,38 0,14.66 5.33,27.17 15.65,37.49 10.5,10.5 23.16,15.68 38.18,15.68 14.48,0 27.17,-5.33 37.49,-15.83 10.5,-10.68 15.65,-23.34 15.65,-38.33zm-197.32 0c0,-14.33 -5.18,-26.66 -15.5,-37.02 -10.5,-10.5 -22.83,-15.65 -37.17,-15.65 -14.99,0 -27.83,5.15 -38.33,15.65 -10.65,10.35 -15.83,23.01 -15.83,38 0,14.66 5.18,27.17 15.83,37.49 10.5,10.5 23.34,15.68 38.33,15.68 14.66,0 26.99,-5.33 37.35,-15.83 10.32,-10.68 15.32,-23.34 15.32,-38.33zm234.51 -606.83c-0.69,-0.84 -2.18,-2.51 -4.52,-4.85l-44.83 -29.18c-2.99,-1.97 -5.33,-2.99 -6.82,-2.99 -10.83,0 -22.5,20.02 -35.19,59.85 -51.83,-39.83 -101.83,-59.85 -149.98,-59.85 -91.18,0 -136.66,44.68 -136.66,134.18l0 344.49c0,6.85 3.32,11.34 9.82,13.17l52.01 14.18c2.48,0.66 4.67,0.99 6.34,0.99 4.49,0 6.82,-3.65 6.82,-11.16l0 -312.17c0,-43.84 5.18,-74.18 15.65,-90.85 10.35,-16.49 29.18,-24.81 56.53,-24.81 43.48,0 85.49,17 125.83,50.81l0 359.84c0,7.18 3.14,11.52 9.67,13.17l52.82 14.18c2.18,0.66 4.16,0.99 5.69,0.99 4.49,0 6.82,-3.65 6.82,-11.16l0 -349c0,-43.18 9.01,-77.5 26.99,-102.82 2,-2.69 3.02,-5.03 3.02,-7z"
   id="glyph63" />
  </font>
  <font
   id="FontID0"
   horiz-adv-x="556"
   font-variant="normal"
   style="fill-rule:nonzero"
   font-style="normal"
   font-weight="700">
	<font-face
   font-family="Officina Sans OS ITC TT"
   id="font-face63">
		<font-face-src>
			<font-face-name
   name="Officina Sans OS ITC TT Fett" />
		</font-face-src>
	</font-face>
   <missing-glyph
   id="missing-glyph63"><path
     d="M0 0z"
     id="path63" /></missing-glyph>
   <glyph
   unicode="1"
   horiz-adv-x="537"
   d="M459.99 21.01c0,-9.34 -1.17,-15.35 -3.32,-17.51 -2.33,-2.33 -8.17,-3.5 -17.66,-3.5l-293.02 0c-9.01,0 -14.84,1.17 -17.33,3.5 -2.33,2.15 -3.68,8.17 -3.68,17.51l0 50.99c0,12 3.17,18.67 9.34,19.99 2.51,0.69 6.49,1.02 11.67,1.02l95.01 0 0 347.99 -80.02 -44.5c-5.15,-2.99 -8.83,-4.34 -11.16,-4.34 -4.16,0 -8.65,4.19 -13.68,12.69l-26.33 45.33c-2.48,4.49 -3.83,8.83 -3.83,12.66 0,5.51 3.83,10.83 11.34,16.16l160 116.02 69.66 0c11.67,0 18.34,-3.02 19.99,-8.83 0.69,-2.51 1.02,-6.34 1.02,-11.19l0 -481.99 71.16 0c11.67,0 18.34,-2.99 19.84,-8.83 0.66,-2.51 0.99,-6.67 0.99,-12.18l0 -50.99z"
   id="glyph64" />
   <glyph
   unicode="2"
   horiz-adv-x="537"
   d="M471 435.33c0,-47.01 -13.35,-86.99 -40.01,-120.17 -12.33,-14.99 -24.66,-27.17 -36.99,-36.66 -12.33,-9.52 -40.01,-27.17 -83.01,-53.17 -40.67,-24.84 -67.18,-44.32 -79.66,-58.65 -12.69,-14.33 -19.69,-32.5 -21.34,-54.67l234.01 0c12,0 18.64,-2.99 19.99,-8.83 0.66,-2.51 0.99,-6.67 0.99,-12.18l0 -69.99c0,-11.67 -2.99,-18.34 -8.83,-20.02 -2.66,-0.66 -6.67,-0.99 -12.15,-0.99l-360.02 0c-9.34,0 -14.15,4.67 -14.15,14.15l0 7.84c0,62.84 9.16,111.17 27.32,145.01 25.5,47.82 75.35,95.16 149.83,142.17 45.01,28.34 72,47.67 81,57.99 14.66,17 21.99,37.35 21.99,61.16 0,49.82 -27.98,74.66 -84,74.66 -41.5,0 -74.33,-28.67 -98,-86 -4.16,-10.14 -9.34,-15.17 -15.17,-15.17 -1.97,0 -5.48,1.02 -10.65,3.02l-64.01 24.33c-8.17,2.99 -12.15,7.84 -12.15,14.66 0,11.49 5.48,28.01 16.67,49.67 10.98,21.66 23.16,40.16 36.48,55.48 37.85,43.36 91.33,65.02 160.51,65.02 57.66,0 103.84,-16.34 138.82,-48.84 35.01,-32.5 52.52,-75.83 52.52,-129.84z"
   id="glyph65" />
   <glyph
   unicode="3"
   horiz-adv-x="537"
   d="M464.99 117.15c0,-62.48 -23.67,-113.65 -70.83,-153.33 -42.31,-35.16 -94.98,-52.82 -158.15,-52.82 -57.66,0 -111.17,10.98 -160.69,32.65 -19.48,8.86 -29.33,16.19 -29.33,22.02 0,1.97 0.69,5.48 2,10.32l19.99 71.82c1.68,6.19 5.36,9.34 11.19,9.34 2.33,0 5.48,-0.99 9.82,-2.99 51.02,-24.84 96.5,-37.17 136.18,-37.17 73.82,0 110.81,35.67 110.81,107.01 0,66.67 -41.98,100.01 -125.98,100.01l-29.68 0c-12.15,0 -18.82,2.99 -19.99,8.83 -0.66,2.48 -0.99,6.67 -0.99,12.15l0 66.01c0,11.67 2.81,18.34 8.65,19.99 2.66,0.69 6.85,1.02 12.33,1.02l31.69 0c33.34,0 57.66,5.66 73.31,17.15 23.16,17.18 34.68,42.85 34.68,76.67 0,25.2 -7.51,45.33 -22.5,60.51 -14.99,15.17 -34.83,22.68 -59.52,22.68 -32.32,0 -62.15,-17 -89.98,-51.02 -5.51,-6.49 -9.84,-9.67 -13.17,-9.67 -1.83,0 -4.85,1.17 -8.68,3.86l-55.33 49.82c-3.17,2.99 -4.82,6.31 -4.82,10.32 0,7.18 7,18.34 20.98,33.66 41.03,45.33 93.84,68.02 158.18,68.02 59.01,0 106.5,-16.34 142.68,-49.17 36.15,-32.68 54.16,-75.5 54.16,-128.67 0,-68.68 -31.51,-118.35 -94.68,-148.99 78.49,-25.35 117.66,-82.02 117.66,-170.03z"
   id="glyph66" />
   <glyph
   unicode="4"
   horiz-adv-x="537"
   d="M500.33 64.01c0,-11.67 -3.17,-18.34 -9.34,-20.02 -2.66,-0.66 -6.49,-0.99 -11.82,-0.99l-57.18 0 0 -129c0,-9.49 -1.17,-15.32 -3.32,-17.51 -2.33,-2.33 -8.17,-3.5 -17.66,-3.5l-83.01 0c-11.67,0 -18.34,3.17 -19.99,9.34 -0.69,2.51 -1.02,6.49 -1.02,11.67l0 129 -244.99 0c-9.52,0 -15.35,0.99 -17.69,3.17 -2.15,2.15 -3.32,7.66 -3.32,16.82l0 105 249 416.84c5.18,8.83 9.99,13.17 14.15,13.17 2.69,0 7,-1.35 13.17,-3.83l60.18 -26.51c9.67,-4.16 14.51,-8.32 14.51,-12.66 0,-3.17 -1.86,-8.32 -5.84,-15.17l-232.84 -395.83 155.66 0 12.99 161.17c0.69,8.83 2.18,14.33 4.67,16.67 2.51,2.15 7.84,3.32 16.34,3.32l68.02 0c12,0 18.64,-2.99 19.99,-9.16 0.66,-2.66 0.99,-6.67 0.99,-11.82l0 -163.18 57.18 0c9.49,0 15.32,-1.35 17.66,-3.83 2.33,-2.66 3.5,-9.34 3.5,-20.02l0 -53.15z"
   id="glyph67" />
   <glyph
   unicode="5"
   horiz-adv-x="537"
   d="M486 154.83c0,-73.31 -23.82,-132.32 -71.34,-176.82 -47.49,-44.68 -110.33,-67 -188.49,-67 -51.17,0 -100.16,9.01 -147.17,26.84 -12,4.64 -18.01,10.98 -18.01,19.15 0,3.83 0.36,7.51 1.02,10.65l14.15 73.34c1.02,5.84 3.83,8.83 8.86,8.83 1.83,0 4.49,-0.66 7.66,-2 45.99,-17.8 88.34,-26.81 127.51,-26.81 44.83,0 80.82,12 108,36.15 27.17,24.18 40.82,56.02 40.82,95.85 0,70.65 -33.34,105.99 -100.01,105.99 -41,0 -74.33,-15.32 -100.16,-45.99 -4.82,-5.98 -9.49,-8.83 -14.15,-8.83 0,0 -3.17,0.99 -9.67,2.84l-60 18.16c-10.83,3.14 -16.19,7.66 -16.19,13.65 0,3.5 0.33,7 1.02,10.17l31.15 329.01c0.66,8.5 2.18,13.65 4.52,15.83 2.15,2.15 7.81,3.17 16.49,3.17l292.99 0c11.67,0 18.34,-3.02 20.02,-9.19 0.66,-2.66 0.99,-6.49 0.99,-11.82l0 -67c0,-8.5 -1.17,-14 -3.65,-16.34 -2.51,-2.51 -8.17,-3.68 -17.36,-3.68l-206 0 -18.16 -155.99c28.67,19.33 63.17,29 103.18,29 56.68,0 102.82,-19.15 138.49,-57.33 35.67,-38.33 53.5,-88.34 53.5,-149.83z"
   id="glyph68" />
   <glyph
   unicode="6"
   horiz-adv-x="537"
   d="M488 234.99c0,-85.67 -23.34,-150.82 -69.84,-195.82 -38.81,-37.49 -87.5,-56.17 -146.15,-56.17 -69,0 -121.85,25.32 -158.33,75.83 -36.51,50.66 -54.67,123.68 -54.67,219.01 0,123.98 26.66,222.99 79.84,297.15 53.15,74 124.66,111.02 214.17,111.02 25.64,0 49.49,-3.5 71.16,-10.5 21.81,-7 32.83,-14.51 32.83,-22.68 0,-2.66 -0.66,-5.48 -2,-8.83l-21.01 -69.81c-0.99,-5.51 -3.65,-8.17 -8.32,-8.17 -0.99,0 -3.17,0.48 -6.82,1.83 -23.34,8.83 -44.68,13.17 -64.01,13.17 -85.49,0 -141.18,-55 -167.01,-165 35.01,34.65 74,52.01 117.33,52.01 45.66,0 85.01,-15.35 117.84,-45.84 43.33,-40.49 64.99,-102.85 64.99,-187.17zm-121.01 -3.83c0,87.83 -29.15,131.85 -87.32,131.85 -59.16,0 -88.66,-44.68 -88.66,-133.85 0,-90.82 28.34,-136.15 84.83,-136.15 28.67,0 50.99,12.15 67,36.66 16.16,24.33 24.15,58.17 24.15,101.5z"
   id="glyph69" />
   <glyph
   unicode="7"
   horiz-adv-x="537"
   d="M464.84 536.99l-226.02 -608.83c-3.98,-10.83 -9.16,-16.16 -15.65,-16.16 -1.35,0 -4.52,0.66 -9.34,2l-84 14.15c-12,1.86 -18.01,6.19 -18.01,12.69 0,2 1.5,6.31 4.34,13.17l206.66 524.99 -239.81 0c-11.67,0 -18.34,3.17 -20.02,9.34 -0.66,2.51 -0.99,6.49 -0.99,11.67l0 76.01c0,11.67 3.17,18.31 9.34,19.99 2.48,0.66 6.49,1.02 11.67,1.02l360.82 0c12,0 18.67,-3.17 19.99,-9.34 0.69,-2.51 1.02,-6.52 1.02,-11.67l0 -39.02z"
   id="glyph70" />
   <glyph
   unicode="B"
   horiz-adv-x="574"
   d="M524.99 193.85c0,-36.84 -8.98,-71.34 -27.14,-103.51 -18.01,-32.17 -41.18,-55.33 -69.51,-69.33 -28.34,-14 -79.18,-21.01 -152.34,-21.01l-170 0c-9.49,0 -15.32,1.17 -17.51,3.32 -2.3,2.33 -3.47,8.17 -3.47,17.69l0 643.99c0,11.67 3.14,18.34 9.31,19.99 2.51,0.69 6.52,1.02 11.67,1.02l162.19 0c41,0 68.83,-0.84 83.31,-2.51 32.02,-3.83 58.17,-12.66 78.67,-26.33 46.5,-31.48 69.84,-80.68 69.84,-147.5 0,-70.17 -33.66,-120.5 -100.99,-150.85 40.01,-10.32 70.98,-29.98 93,-58.98 21.99,-29 32.98,-64.34 32.98,-105.99zm-158 301.81c0,36.84 -12.99,63.17 -38.99,78.67 -12.33,7.18 -32.32,10.68 -59.82,10.68l-53.17 0 0 -184 41.83 0c36.84,0 62.84,5.66 77.98,17 21.52,15.5 32.17,41.5 32.17,77.65zm20.02 -293.31c0,34.47 -9.52,58.98 -28.34,73.64 -18.82,14.66 -50.33,22.02 -94.5,22.02l-49.17 0 0 -189 47.34 0c44.83,0 76.81,7.15 96,21.49 19.15,14.33 28.67,38.33 28.67,71.85z"
   id="glyph71" />
   <glyph
   unicode="S"
   horiz-adv-x="482"
   d="M452 193.98c0,-61.8 -20.19,-111.99 -60.33,-150.34 -40.18,-38.5 -92.68,-57.65 -157.84,-57.65 -40.34,0 -85.18,7.18 -134.66,21.5 -49.51,14.32 -74.17,27.17 -74.17,38.5 0,1.99 0.64,5.67 1.99,11.17l33.16 85.82c2.31,6.02 5.19,8.86 8.82,8.86 2.19,0 5.35,-1.04 9.18,-2.83 59.69,-32.68 110.68,-49.03 153.01,-49.03 59.85,0 89.85,27.69 89.85,83.03 0,24.98 -7.02,45.32 -21.03,61 -13.33,14.64 -51.31,37.66 -113.83,68.82 -59.85,30 -100.82,58.65 -123.01,86.18 -22.14,27.49 -33.16,63.32 -33.16,107.64 0,59.17 19.83,106.33 59.33,141.16 39.5,34.83 92.84,52.19 159.83,52.19 39.34,0 80.99,-7.18 125,-21.66 43.85,-14.52 65.83,-28.17 65.83,-41.17 0,-1.32 -1,-4.15 -2.83,-8.34l-36.15 -75.65c-2.35,-4.87 -5.35,-7.34 -8.86,-7.34 -2.31,0 -15.32,6.14 -39.14,18.15 -34.19,17.36 -67.51,26.01 -100.18,26.01 -28.01,0 -50.15,-6.5 -66.35,-19.51 -16.32,-13.01 -24.5,-30.84 -24.5,-53.18 0,-25.14 13.01,-46.16 39.02,-63 9.5,-6.3 44.49,-24.66 105.01,-55.3 51.47,-25.69 88.65,-54.7 111.47,-86.86 23.02,-32.16 34.51,-71.66 34.51,-118.18z"
   id="glyph72" />
   <glyph
   unicode="a"
   horiz-adv-x="481"
   d="M439.82 28.01c0,-4.67 -2.66,-7.84 -7.81,-9.84l-78.19 -31.15c-2.99,-2 -7,-3.02 -12.15,-3.02 -9.19,0 -19.18,19.69 -29.83,59.01 -37.17,-38 -79.66,-57.01 -128.01,-57.01 -45.81,0 -82.32,13.68 -109.31,41 -27.02,27.35 -40.52,64.19 -40.52,110.33 0,87.5 49.67,141 148.99,160.51 26.18,5.18 63.53,8.32 112.01,9.34l0 30.67c0,28.67 -4.67,48.33 -14.15,58.98 -9.52,10.83 -26.66,16.19 -51.83,16.19 -30.01,0 -67.33,-8.68 -112.01,-25.85 -4.16,-2.15 -7.99,-3.32 -11.16,-3.32 -4.19,0 -7.51,3.32 -9.84,10.17l-21.01 60c-1.65,3.5 -2.48,7.15 -2.48,10.65 0,10.83 18.67,21.19 55.84,31.18 36.99,10.17 75.65,15.17 115.66,15.17 80.5,0 132.32,-25.67 155.84,-77.17 9.49,-20.5 14.15,-48 14.15,-82.83l0 -204.02c0,-40.31 7.66,-76.31 22.83,-107.82 2,-4.34 2.99,-7.99 2.99,-11.16zm-144.83 85.67l0 110.48c-50,0 -86,-6.16 -107.49,-18.31 -21.66,-12.36 -32.5,-32.86 -32.5,-61.85 0,-19.66 6.16,-36 18.49,-49.17 12.33,-13.17 27.5,-19.84 45.33,-19.84 26.66,0 52.16,12.84 76.16,38.69z"
   id="glyph73" />
   <glyph
   unicode="e"
   horiz-adv-x="481"
   d="M450.01 237.83c0,-8.66 -1.36,-15 -3.83,-18.99 -2.67,-3.83 -8.7,-5.83 -17.99,-5.83l-268.19 0c1.99,-84.02 38.86,-126 110.52,-126 37.14,0 75.01,10.33 113.31,31.16 5.19,2.67 9.54,3.83 13.01,3.83 5.03,0 8.66,-2.99 11.33,-9.18l24.7 -59.49c1.99,-5.03 2.99,-8.66 2.99,-11.33 0,-8.7 -13.68,-19.03 -41.02,-30.68 -43.65,-18.83 -89.65,-28.33 -138.17,-28.33 -63.48,0 -113.15,16.48 -148.98,49.31 -49.83,45.52 -74.69,115.86 -74.69,210.86 0,80.31 19.99,144.99 60.01,194.14 40.18,49.19 93,73.69 158.83,73.69 132.18,0 198.17,-91.01 198.17,-273.18zm-133.02 68.19c-1,41.49 -6.98,70.82 -18.15,87.97 -11.01,17.36 -29.32,26.01 -54.66,26.01 -29.68,0 -51.35,-12.49 -64.67,-37.66 -8.82,-16.36 -15,-41.85 -18.51,-76.32l156 0z"
   id="glyph74" />
   <glyph
   unicode="g"
   horiz-adv-x="500"
   d="M464.66 474c0,-2.66 -2,-8.65 -5.84,-18.16 -14.48,-34.65 -21.81,-72.51 -21.81,-113.17l0 -148c0,-54.64 0.99,-108.83 2.99,-162.49 1.32,-36.18 2,-57.15 2,-62.99 0,-57.33 -16.19,-101.35 -48.69,-132.02 -32.32,-30.82 -78.82,-46.14 -139.48,-46.14 -42.34,0 -86.84,6.31 -133.34,18.82 -46.68,12.51 -69.84,24.66 -69.84,36.33 0,2.33 0.66,5.51 1.83,9.84l21.52 68.83c2,6.82 5.66,10.17 10.83,10.17 2.99,0 5.84,-0.84 8.83,-2.84 54.34,-24.84 104.02,-37.17 148.66,-37.17 27.68,0 47.34,6.34 59.01,19 11.82,12.66 17.66,33.99 17.66,64.01 0,14.33 -1.65,36 -4.82,64.99 -35.34,-24.66 -74,-36.99 -116.34,-36.99 -50.48,0 -90.49,21.81 -119.82,65.65 -29.36,43.66 -44.02,102.82 -44.02,177.33 0,80.35 16.52,144.17 49.34,191.33 32.83,47.16 77.32,70.68 133.34,70.68 40.67,0 79,-15.35 115.15,-46.17 13.35,32.83 25.17,49.17 35.16,49.17 4.01,0 7.18,-0.66 9.84,-2l79 -28.34c5.84,-2.84 8.83,-6.16 8.83,-9.67zm-150.67 -332.81l0 235.98c-25.64,19.18 -49.31,28.85 -70.83,28.85 -54.82,0 -82.17,-50.66 -82.17,-152.01 0,-98 24.69,-146.99 73.85,-146.99 31,0 57.33,11.31 79.15,34.17z"
   id="glyph75" />
   <glyph
   unicode="i"
   horiz-adv-x="295"
   d="M236.01 641c0,-22.5 -7.84,-41.5 -23.52,-57.33 -15.65,-15.83 -34.83,-23.67 -57.66,-23.67 -22.65,0 -41.65,7.84 -57.33,23.67 -15.65,15.83 -23.49,35.16 -23.49,58.32 0,21.84 7.99,40.52 24,56.35 16.01,15.83 35.16,23.67 57.66,23.67 22.32,0 41.18,-8.02 56.83,-23.85 15.68,-15.98 23.52,-34.98 23.52,-57.15zm-14 -624.01c0,-11.34 -5.69,-17 -17.18,-17l-93.15 0c-11.16,0 -16.67,5.66 -16.67,17.18l0 383.84 -76.01 0c-11.34,0 -17,5.66 -17,17l0 58.98c0,11.34 5.66,17 17,17l186.01 0c11.31,0 17,-5.66 17,-17l0 -459.99z"
   id="glyph76" />
   <glyph
   unicode="m"
   horiz-adv-x="777"
   d="M715.01 17c0,-11.33 -5.67,-17 -17.2,-17l-92.64 0c-11.49,0 -17.16,5.67 -17.16,17l0 315.99c0,51.35 -15,77 -45,77 -24.66,0 -53.34,-15 -86.02,-44.81l0 -348.19c0,-11.33 -5.67,-17 -17.16,-17l-90.65 0c-11.53,0 -17.2,5.67 -17.2,17.16l0 307.69c0,28.17 -1.68,47 -4.83,56.81 -6.14,18.83 -19.99,28.33 -41.17,28.33 -24.98,0 -53.66,-14.32 -85.98,-43.01l0 -349.82c0,-11.49 -5.67,-17.16 -17.16,-17.16l-91.17 0c-11.17,0 -16.68,5.67 -16.68,17l0 335.82c0,41.02 -6.02,77 -17.99,108 -1.99,3.83 -3.03,7.66 -3.03,11.17 0,5.51 3.67,9.5 10.85,11.69l81.15 27.33c6.5,1.32 9.85,1.99 9.85,1.99 11.65,0 22.5,-24.02 32.16,-72.02 50.67,46.68 100.34,70.02 149.34,70.02 51.51,0 87.82,-23.34 109,-70.02 51.67,46.68 103.18,70.02 154.64,70.02 46.68,0 78.68,-16.84 95.83,-50.35 12.17,-22.98 18.19,-61.32 18.19,-114.67l0 -329z"
   id="glyph77" />
   <glyph
   unicode="n"
   horiz-adv-x="537"
   d="M473.01 17c0,-11.34 -5.69,-17 -17.18,-17l-93.15 0c-11.19,0 -16.67,5.66 -16.67,17.18l0 308.67c0,56.17 -19,84.15 -57.18,84.15 -26,0 -55,-13.65 -86.84,-41.15l0 -351.67c0,-11.52 -5.66,-17.18 -17.15,-17.18l-93.18 0c-11.16,0 -16.67,5.66 -16.67,17.18l0 335.84c0,42.82 -6.82,79.15 -20.65,108.83 -2.18,4.16 -3.35,7.66 -3.35,10.14 0,4.01 2.84,6.85 8.35,8.83l88.66 33.19c3.65,1.32 7,2 10.32,2 12.33,0 24.18,-23.01 35.67,-69.18 46.5,42.85 96.33,64.19 149.68,64.19 86.15,0 129.33,-52.67 129.33,-158.18l0 -335.84z"
   id="glyph78" />
   <glyph
   unicode="r"
   horiz-adv-x="352"
   d="M365.19 488.51c0,-1.84 -0.68,-5.51 -2.35,-10.69l-30.84 -80.83c-2.31,-5.83 -4.83,-8.82 -7.82,-8.82 -1,0 -3.35,0.68 -7.34,1.99 -15,5.19 -28.33,7.82 -39.98,7.82 -21.5,0 -46.84,-16 -75.85,-47.8l0 -333.03c0,-11.49 -5.67,-17.16 -17.16,-17.16l-93.2 0c-11.13,0 -16.64,5.67 -16.64,17l0 303.66c0,47.84 -10.01,94.16 -30,139.16 -1.36,3.83 -1.99,7.02 -1.99,9.18 0,4.35 3.31,7.5 9.81,9.81l80.99 28.69c5.86,2.31 10.01,3.51 12.17,3.51 13.33,0 26.01,-26.01 38.18,-77.84 7.82,9.34 18.99,22.34 33.67,38.82 25.97,26.01 56.5,39.02 91.33,39.02 14.64,0 27.85,-2.35 39.5,-6.86 11.65,-4.47 17.52,-9.66 17.52,-15.64z"
   id="glyph79" />
   <glyph
   unicode="s"
   horiz-adv-x="425"
   d="M392.99 144.99c0,-45.48 -15.32,-84.14 -45.84,-116.14 -29.48,-30.52 -70.5,-45.84 -122.65,-45.84 -58.85,0 -115.34,14 -169.49,42.01 -14.68,7.5 -22.02,13.8 -22.02,18.99 0,2.67 1,6.66 2.99,12.17l22.86 61c2.63,6.5 5.98,9.81 9.81,9.81 2.35,0 5.35,-1 9.34,-2.99 52.82,-28.69 97.99,-43.01 135.85,-43.01 38.82,0 58.13,17.16 58.13,51.67 0,14.32 -4.83,25.49 -14.32,33.35 -9.66,7.66 -30.48,17.63 -62.68,29.64 -52.47,20.19 -86.98,38.34 -103.97,54.18 -26.69,25.49 -40.02,58.17 -40.02,98.15 0,47.84 16.68,87.02 49.99,117.34 33.35,30.52 76.01,45.68 128.03,45.68 31.48,0 64.83,-5.35 99.98,-16.16 34.99,-10.69 52.67,-20.67 52.67,-30.2 0,-2.47 -1,-6.14 -2.99,-10.65l-24.66 -57.01c-2.67,-5.83 -6.02,-8.82 -10.17,-8.82 -1.36,0 -3.99,0.68 -7.82,1.99 -38.5,17.16 -72.02,25.85 -100.5,25.85 -42.33,0 -63.52,-17 -63.52,-50.83 0,-13.68 4.15,-24.18 12.33,-31.36 8.18,-7.34 25.85,-16.32 53.02,-26.65 59.97,-23.5 98.31,-43.49 114.99,-60.01 27.17,-26.85 40.66,-60.84 40.66,-102.18z"
   id="glyph80" />
   <glyph
   unicode="t"
   horiz-adv-x="370"
   d="M365.98 21.98c0,-8.14 -10.33,-15.32 -31.16,-21.98 -35.15,-11.33 -68.82,-17 -101.14,-17 -59.17,0 -99.51,21.5 -121.01,64.51 -9.18,18.83 -13.68,49.83 -13.68,92.64l0 260.85 -69.3 0c-11.17,0 -16.68,5.67 -16.68,17l0 59.01c0,11.33 5.51,17 16.68,17l69.3 0 0 126.16c0,10.49 5.35,16.48 16.2,18.15l91.8 12.69 8.86 0c6.82,0 10.13,-5.35 10.13,-16.2l0 -140.8 113.67 0c11.33,0 17.2,-3.35 17.2,-10.17 0,-3.99 -0.36,-6.82 -1,-8.86l-13.17 -58.81c-2.03,-10.17 -7.86,-15.16 -17.67,-15.16l-99.03 0 0 -243.02c0,-22.82 1.2,-37.5 3.51,-44.01 4.51,-13.33 15.68,-19.99 33.51,-19.99 15.68,0 37.66,5.67 65.99,16.84 3.15,1.32 6.18,1.99 8.66,1.99 4.67,0 8.02,-3.31 10.33,-9.81l15.68 -69.7c1.52,-5.98 2.31,-9.66 2.31,-11.33z"
   id="glyph81" />
   <glyph
   unicode="u"
   horiz-adv-x="537"
   d="M485.01 15.32c0,-3.98 -3.35,-6.64 -9.84,-8.32l-84 -19c-5.84,-1.35 -9.67,-2 -11.16,-2 -11.49,0 -21.34,18.34 -29.83,55 -40.67,-38.66 -86.84,-57.99 -138.16,-57.99 -50.18,0 -87.68,14.33 -112.84,43 -16.34,18.49 -26.51,42.67 -30.67,72.33 -2.33,14 -3.5,40.67 -3.5,80.02l0 293.17c0,9.67 5,15.5 15.17,17.48l92.82 20.02c1.35,0.66 4.01,0.99 8.35,0.99 7.15,0 10.65,-5.15 10.65,-15.65l0 -310.19c0,-37.49 3.17,-61.82 9.34,-73.31 9.34,-17.83 26.66,-26.84 51.68,-26.84 26.66,0 54.31,12 82.98,36.18l0 351.16c0,9.84 5.03,15.68 15.17,17.66l92.85 20.02 10.14 0.99c5.84,0 8.86,-5.15 8.86,-15.65l0 -368.18c0,-42.67 6.31,-76.67 18.97,-101.98 2,-3.02 3.02,-6.01 3.02,-8.86z"
   id="glyph82" />
   <glyph
   unicode="w"
   horiz-adv-x="667"
   d="M658.18 477.17c0,0 -1.17,-3.5 -3.5,-10.32l-137.68 -461.19c-2.84,-9.16 -9.34,-13.65 -19,-13.65l-83.01 0c-7.15,0 -11.64,0.66 -13.5,2.15 -1.65,1.5 -3.32,6.01 -4.67,13.5l-46.83 253.52c-0.99,4.49 -3.32,21.49 -7.33,50.81l-3.83 37.17 -2.99 23.85c-2.51,-22.83 -8.5,-60 -18.01,-111.83l-59.16 -254.5c-2.15,-9.84 -7.99,-14.66 -17.51,-14.66l-81.99 0c-9.49,0 -15.5,4.82 -18.16,14.66l-121.01 460.17c-1.32,5.15 -1.97,8.98 -1.97,11.16 0,5.33 5,8.5 15.14,9.82l87.86 13.17c0.66,0.69 3.32,1.02 7.81,1.02 6.16,0 10.35,-4.67 12.18,-14.18l47.01 -230c5.15,-25.32 12.15,-77.65 20.98,-156.83 6.16,68.68 12.18,116.67 18.01,143.99l49.82 233.86c2.18,10.14 8.35,15.14 18.01,15.14l89.83 0c10.17,0 16.16,-5 18.16,-15.14l45.33 -225c6.82,-35.19 13.32,-86 19.48,-152.85 8.86,84.33 16.34,139.69 22.5,166.17l50.84 220.66c2.18,9.52 5.84,14.18 10.68,14.18 5.48,0 8.65,-0.33 9.31,-1.02l82.02 -13.17c10.17,-1.32 15.17,-4.82 15.17,-10.65z"
   id="glyph83" />
  </font>
</defs>
</svg>
