<?xml version="1.0" encoding="UTF-8" standalone="no"?>
<!-- Creator: CorelDRAW 2021 (64-Bit) -->

<svg
   xml:space="preserve"
   width="209.961mm"
   height="155.741mm"
   version="1.0"
   style="shape-rendering:geometricPrecision; text-rendering:geometricPrecision; image-rendering:optimizeQuality; fill-rule:evenodd; clip-rule:evenodd"
   viewBox="0 0 20992.36 15571.3"
   id="svg153"
   sodipodi:docname="christliche_studien__2-fach-m.a._.svg"
   inkscape:version="1.3-dev (77bc73e, 2022-05-18)"
   xmlns:inkscape="http://www.inkscape.org/namespaces/inkscape"
   xmlns:sodipodi="http://sodipodi.sourceforge.net/DTD/sodipodi-0.dtd"
   xmlns="http://www.w3.org/2000/svg"
   xmlns:svg="http://www.w3.org/2000/svg"><sodipodi:namedview
   id="namedview153"
   pagecolor="#ffffff"
   bordercolor="#000000"
   borderopacity="0.25"
   inkscape:showpageshadow="2"
   inkscape:pageopacity="0.0"
   inkscape:pagecheckerboard="0"
   inkscape:deskcolor="#d1d1d1"
   inkscape:document-units="mm"
   showgrid="false"
   inkscape:zoom="0.40093275"
   inkscape:cx="397.82233"
   inkscape:cy="294.3137"
   inkscape:window-width="1440"
   inkscape:window-height="900"
   inkscape:window-x="0"
   inkscape:window-y="0"
   inkscape:window-maximized="0"
   inkscape:current-layer="Ebene_x0020_1" />
 <defs
   id="defs75">
  <font
   id="FontID1"
   horiz-adv-x="556"
   font-variant="normal"
   style="fill-rule:nonzero"
   font-style="normal"
   font-weight="700">
	<font-face
   font-family="Officina Sans OS ITC TT"
   id="font-face1">
		<font-face-src>
			<font-face-name
   name="Officina Sans OS ITC TT Fett" />
		</font-face-src>
	</font-face>
   <missing-glyph
   id="missing-glyph1"><path
     d="M0 0z"
     id="path1" /></missing-glyph>
   <glyph
   unicode="("
   horiz-adv-x="443"
   d="M405.49 -214.67c0,-5.49 -2.5,-9.99 -7.66,-13.17l-51.83 -31.66c-3.17,-2.33 -7,-3.5 -11.18,-3.5 -11.16,0 -42,38.33 -92.82,115.16 -83.34,126.01 -125.01,256.67 -125.01,392.18 0,75.99 11.16,146.65 33.5,211.83 22.18,64.99 59.5,135 111.49,209.82 39.01,56.68 63.33,85.02 72.83,85.02 5.84,0 21.17,-8.01 45.85,-24.02 16.67,-10.65 24.82,-18.65 24.82,-23.81 0,-4.5 -2.5,-10.5 -7.66,-18.02 -43,-61.49 -76.34,-120.32 -100.01,-176.32 -33.15,-78.67 -49.82,-167 -49.82,-264.49 0,-81.52 11.65,-156.68 35.16,-225.67 23.34,-69.01 61.67,-140.67 114.67,-215.35 5.16,-7.82 7.66,-13.82 7.66,-18z"
   id="glyph1" />
   <glyph
   unicode=")"
   horiz-adv-x="443"
   d="M328.99 244.34c0,-76.17 -11.16,-146.84 -33.66,-212.01 -22.5,-64.99 -59.5,-135.16 -111.33,-210.33 -39.33,-56.66 -63.82,-85 -73.16,-85 -6.51,0 -21.85,8.17 -46.01,24.33 -16.5,11.18 -24.84,19.17 -24.84,24 0,4.5 2.68,10.5 7.84,18 41.16,55.68 74.49,114.34 100.33,175.85 33.17,79.65 49.84,168.15 49.84,265.17 0,109 -21.34,207.81 -64.01,296.66 -26.5,55 -55.65,103.84 -87.66,146.49 -4.18,5.51 -6.35,10.85 -6.35,15.68 0,4.16 2.68,8.5 7.84,12.65l53.18 32.17c3.32,2.01 6.49,3.01 9.83,3.01 11.32,0 42.49,-38.17 93.17,-114.67 83.32,-126.01 124.99,-256.67 124.99,-392z"
   id="glyph2" />
   <glyph
   unicode="-"
   horiz-adv-x="370"
   d="M331 216c0,-8.85 -1.17,-14.33 -3.5,-16.67 -2.17,-2.17 -8.01,-3.34 -17.51,-3.34l-249.99 0c-9.5,0 -15.34,1.17 -17.49,3.67 -2.33,2.5 -3.5,7.84 -3.5,16.34l0 79c0,9.17 1.17,14.66 3.5,16.83 2.15,2.17 7.99,3.17 17.49,3.17l249.99 0c11.67,0 18.35,-3.01 20.01,-8.85 0.68,-2.17 1,-6 1,-11.16l0 -79z"
   id="glyph3" />
   <glyph
   unicode="1"
   horiz-adv-x="537"
   d="M460 21.01c0,-9.34 -1.17,-15.34 -3.34,-17.51 -2.33,-2.33 -8.17,-3.5 -17.67,-3.5l-293 0c-8.99,0 -14.82,1.17 -17.32,3.5 -2.33,2.17 -3.67,8.17 -3.67,17.51l0 50.99c0,12 3.15,18.67 9.32,20.01 2.52,0.68 6.51,1 11.67,1l95.01 0 0 347.99 -80 -44.49c-5.18,-3.01 -8.85,-4.34 -11.18,-4.34 -4.16,0 -8.66,4.18 -13.66,12.67l-26.33 45.33c-2.5,4.5 -3.83,8.83 -3.83,12.65 0,5.51 3.83,10.83 11.32,16.18l160 116 69.66 0c11.67,0 18.35,-2.99 20.01,-8.83 0.68,-2.5 1,-6.35 1,-11.18l0 -481.99 71.18 0c11.65,0 18.33,-3.01 19.82,-8.85 0.68,-2.5 1,-6.65 1,-12.16l0 -50.99z"
   id="glyph4" />
   <glyph
   unicode="2"
   horiz-adv-x="537"
   d="M471 435.33c0,-46.99 -13.33,-86.98 -39.99,-120.15 -12.35,-15.01 -24.67,-27.17 -37,-36.67 -12.35,-9.5 -40.01,-27.17 -83.01,-53.16 -40.67,-24.84 -67.16,-44.35 -79.65,-58.66 -12.67,-14.33 -19.68,-32.52 -21.34,-54.67l234 0c12,0 18.65,-3.01 19.98,-8.85 0.68,-2.5 1,-6.65 1,-12.16l0 -69.99c0,-11.67 -2.99,-18.35 -8.83,-20.01 -2.66,-0.68 -6.68,-1 -12.16,-1l-360.01 0c-9.34,0 -14.17,4.67 -14.17,14.17l0 7.82c0,62.84 9.17,111.17 27.34,145.01 25.51,47.83 75.33,95.15 149.85,142.17 44.99,28.32 71.99,47.67 81,57.99 14.66,17.02 21.99,37.35 21.99,61.18 0,49.82 -27.99,74.66 -83.99,74.66 -41.51,0 -74.35,-28.67 -98,-86 -4.18,-10.16 -9.34,-15.17 -15.17,-15.17 -2.01,0 -5.51,1 -10.67,3.01l-64.01 24.33c-8.15,3.01 -12.16,7.84 -12.16,14.66 0,11.51 5.51,28.01 16.67,49.68 11,21.66 23.18,40.17 36.51,55.51 37.82,43.33 91.32,64.99 160.49,64.99 57.66,0 103.84,-16.34 138.83,-48.84 35.01,-32.5 52.5,-75.82 52.5,-129.84z"
   id="glyph5" />
   <glyph
   unicode="3"
   horiz-adv-x="537"
   d="M465 117.17c0,-62.49 -23.67,-113.66 -70.83,-153.33 -42.34,-35.18 -95.01,-52.83 -158.16,-52.83 -57.68,0 -111.19,11 -160.68,32.66 -19.49,8.83 -29.32,16.16 -29.32,21.99 0,2.01 0.66,5.51 1.99,10.34l20.01 71.83c1.66,6.16 5.32,9.34 11.16,9.34 2.33,0 5.51,-1 9.83,-3.01 51.01,-24.82 96.5,-37.16 136.17,-37.16 73.84,0 110.84,35.67 110.84,107.01 0,66.67 -42,99.99 -125.99,99.99l-29.67 0c-12.16,0 -18.84,3.01 -20.01,8.85 -0.66,2.5 -1,6.65 -1,12.16l0 66c0,11.67 2.85,18.35 8.68,20.01 2.66,0.68 6.82,1 12.33,1l31.66 0c33.34,0 57.68,5.67 73.35,17.16 23.16,17.18 34.67,42.84 34.67,76.66 0,25.17 -7.49,45.33 -22.5,60.51 -15.01,15.17 -34.83,22.67 -59.5,22.67 -32.33,0 -62.17,-17 -89.99,-51.01 -5.51,-6.49 -9.83,-9.66 -13.17,-9.66 -1.84,0 -4.83,1.17 -8.66,3.83l-55.35 49.84c-3.15,3.01 -4.83,6.33 -4.83,10.34 0,7.17 7,18.33 21.01,33.66 40.99,45.33 93.82,68 158.16,68 59.01,0 106.5,-16.34 142.68,-49.16 36.16,-32.68 54.16,-75.5 54.16,-128.67 0,-68.66 -31.49,-118.33 -94.66,-149.01 78.49,-25.33 117.66,-81.99 117.66,-169.99z"
   id="glyph6" />
   <glyph
   unicode="4"
   horiz-adv-x="537"
   d="M500.34 64.01c0,-11.67 -3.17,-18.35 -9.34,-20.01 -2.66,-0.68 -6.49,-1 -11.84,-1l-57.17 0 0 -129c0,-9.5 -1.17,-15.34 -3.34,-17.51 -2.33,-2.33 -8.15,-3.5 -17.65,-3.5l-83.01 0c-11.67,0 -18.33,3.17 -20.01,9.34 -0.66,2.5 -0.98,6.51 -0.98,11.67l0 129 -245 0c-9.5,0 -15.34,1 -17.67,3.17 -2.17,2.15 -3.34,7.66 -3.34,16.83l0 105 248.99 416.84c5.18,8.83 10.01,13.17 14.17,13.17 2.66,0 7,-1.35 13.17,-3.85l60.18 -26.5c9.66,-4.16 14.5,-8.33 14.5,-12.65 0,-3.17 -1.84,-8.33 -5.84,-15.17l-232.84 -395.83 155.66 0 13 161.15c0.68,8.85 2.17,14.33 4.67,16.67 2.5,2.17 7.84,3.34 16.34,3.34l68 0c12,0 18.65,-2.99 19.98,-9.17 0.68,-2.66 1,-6.65 1,-11.81l0 -163.18 57.17 0c9.5,0 15.34,-1.33 17.67,-3.83 2.33,-2.66 3.5,-9.34 3.5,-20.01l0 -53.16z"
   id="glyph7" />
   <glyph
   unicode="C"
   horiz-adv-x="462"
   d="M464.83 50.84c0,-8.17 -7.33,-17.18 -21.99,-26.84 -40.67,-27.34 -89.01,-40.99 -145.01,-40.99 -94.66,0 -163.83,39.83 -206.99,119.66 -33.83,62.17 -50.84,145.5 -50.84,250.32 0,118.84 26.35,209.19 79.18,271 44.49,52.66 101.83,79 171.84,79 54.32,0 104.65,-17 150.83,-51.15 14.01,-10.18 20.99,-18.18 20.99,-24.02 0,-3.83 -0.66,-6.49 -1.99,-7.82l-41.01 -74.17c-2.83,-5.16 -6.16,-7.68 -9.66,-7.68 -4.67,0 -14.66,6 -30.33,18.02 -26.66,20.5 -53.67,30.82 -81,30.82 -76.5,0 -114.83,-71.32 -114.83,-214 0,-99.66 13,-173.99 39.01,-223.17 18,-33.83 48,-50.82 89.99,-50.82 28.18,0 58.17,12 89.83,35.83 5.51,2.83 8.85,4.32 10.18,4.32 2.66,0 5.49,-3.15 8.83,-9.32l40.01 -69.68c1.99,-3.67 2.99,-6.65 2.99,-9.32z"
   id="glyph8" />
   <glyph
   unicode="F"
   horiz-adv-x="444"
   d="M460 674.84c0,0.49 -0.68,-3.67 -2.01,-12.84l-19.98 -67.84c-3.17,-11.49 -10.5,-17.16 -22.01,-17.16l-193.99 0 0 -163.99 167.17 0c11.65,0 18.33,-3.17 19.98,-9.34 0.68,-2.5 1,-6.51 1,-11.67l0 -67c0,-12 -2.99,-18.67 -9.34,-20.01 -2.5,-0.66 -6.49,-1 -11.65,-1l-167.17 0 0 -282.98c0,-11.67 -3.17,-18.35 -9.34,-20.01 -2.5,-0.68 -6.49,-1 -11.67,-1l-94.99 0c-9.5,0 -15.34,1.17 -17.67,3.34 -2.17,2.33 -3.34,8.17 -3.34,17.67l0 644c0,9.5 1.17,15.32 3.5,17.65 2.17,2.17 8.01,3.34 17.51,3.34l333.99 0c13.33,0 20.01,-3.67 20.01,-11.16z"
   id="glyph9" />
   <glyph
   unicode="M"
   horiz-adv-x="704"
   d="M636.34 13.17c0,-8.83 -7,-13.17 -21.01,-13.17l-90.34 0c-8.33,0 -13.99,1.17 -16.48,3.34 -2.68,2.33 -4.18,7.82 -4.5,16.67l-6.84 387.17c0,35.16 0.33,71.83 1,110 -14.5,-65.18 -27.01,-113.5 -37,-145.18l-63.82 -204.99c-2.33,-7.49 -4.5,-12 -6.84,-13.68 -2.33,-1.66 -7.68,-2.5 -16.01,-2.5l-61 0c-8.15,0 -13.17,1 -15.32,2.66 -2.17,1.84 -4.34,6.68 -6.51,14.52l-56.17 194.83c-11,38.99 -23.16,90.48 -36.49,154.33l0 -157.34 -8.01 -339.82c0,-8.85 -1.33,-14.33 -3.83,-16.67 -2.68,-2.17 -8.33,-3.34 -17.18,-3.34l-81 0c-13.33,0 -19.98,4.83 -19.98,14.5l0 5.51 29.32 645.99c0.68,13.35 7.68,20.01 21.01,20.01l98.65 0c11.34,0 18.84,-5.32 22.34,-16.16l79.67 -252.84c6.84,-20.82 15.99,-59.34 27.34,-115.16 12.65,47.83 24,86.49 33.66,116.16l85 251.84c2.66,7.49 5,12.16 7,13.66 2.17,1.66 7.17,2.5 14.99,2.5l94.17 0c8.5,0 14.01,-1.17 16.67,-3.34 2.5,-2.33 4.01,-7.82 4.34,-16.67l33.17 -652.82z"
   id="glyph10" />
   <glyph
   unicode="S"
   horiz-adv-x="481"
   d="M451.99 193.99c0,-61.82 -20.17,-111.98 -60.32,-150.32 -40.17,-38.52 -92.68,-57.68 -157.83,-57.68 -40.34,0 -85.18,7.17 -134.67,21.5 -49.49,14.33 -74.17,27.17 -74.17,38.52 0,1.99 0.66,5.65 2.01,11.16l33.15 85.84c2.33,6 5.18,8.83 8.85,8.83 2.17,0 5.32,-1 9.15,-2.83 59.67,-32.68 110.67,-49 153,-49 59.85,0 89.85,27.66 89.85,82.99 0,25 -7,45.33 -21.01,61 -13.33,14.68 -51.33,37.68 -113.83,68.84 -59.83,30 -100.85,58.66 -123,86.16 -22.18,27.5 -33.17,63.33 -33.17,107.66 0,59.18 19.84,106.33 59.34,141.16 39.5,34.83 92.82,52.17 159.84,52.17 39.31,0 80.98,-7.17 124.99,-21.66 43.84,-14.5 65.83,-28.18 65.83,-41.18 0,-1.33 -1,-4.16 -2.83,-8.33l-36.16 -75.66c-2.33,-4.83 -5.34,-7.33 -8.85,-7.33 -2.33,0 -15.34,6.16 -39.17,18.16 -34.15,17.34 -67.49,26 -100.15,26 -28.01,0 -50.17,-6.51 -66.34,-19.49 -16.34,-13 -24.49,-30.84 -24.49,-53.18 0,-25.17 12.98,-46.17 38.99,-63.01 9.5,-6.33 44.49,-24.65 105,-55.33 51.5,-25.68 88.66,-54.67 111.49,-86.84 23.02,-32.17 34.5,-71.67 34.5,-118.17z"
   id="glyph11" />
   <glyph
   unicode="a"
   horiz-adv-x="481"
   d="M439.83 27.99c0,-4.65 -2.66,-7.82 -7.82,-9.83l-78.18 -31.16c-2.99,-2.01 -7,-2.99 -12.16,-2.99 -9.17,0 -19.17,19.66 -29.83,58.99 -37.16,-38 -79.67,-57.01 -128,-57.01 -45.83,0 -82.34,13.68 -109.34,41.01 -26.99,27.32 -40.5,64.15 -40.5,110.33 0,87.5 49.68,141 149.01,160.49 26.17,5.18 63.5,8.33 112.01,9.34l0 30.67c0,28.67 -4.67,48.32 -14.17,58.99 -9.5,10.83 -26.66,16.18 -51.83,16.18 -30,0 -67.35,-8.68 -112.01,-25.84 -4.18,-2.17 -8.01,-3.34 -11.16,-3.34 -4.18,0 -7.51,3.34 -9.85,10.18l-20.99 60c-1.68,3.5 -2.5,7.17 -2.5,10.67 0,10.83 18.65,21.17 55.82,31.16 37,10.18 75.68,15.17 115.67,15.17 80.51,0 132.34,-25.68 155.84,-77.18 9.5,-20.5 14.17,-48 14.17,-82.83l0 -204.01c0,-40.34 7.66,-76.34 22.83,-107.83 1.99,-4.34 2.99,-8.01 2.99,-11.18zm-144.83 85.67l0 110.51c-50,0 -86,-6.18 -107.5,-18.35 -21.66,-12.33 -32.5,-32.82 -32.5,-61.82 0,-19.68 6.16,-36.02 18.49,-49.18 12.35,-13.17 27.5,-19.82 45.33,-19.82 26.66,0 52.17,12.84 76.17,38.66z"
   id="glyph12" />
   <glyph
   unicode="c"
   horiz-adv-x="407"
   d="M405.49 454c0,-3.99 -0.82,-7.66 -2.83,-11.16l-34.67 -64.01c-2.66,-4.5 -5.67,-6.84 -9.34,-6.84 -2.83,0 -6.16,1.33 -9.66,4.01 -31,22.67 -59.16,33.99 -85,33.99 -66,0 -99,-56 -99,-167.82 0,-105.51 33.34,-158.18 100.01,-158.18 26.66,0 54,9.34 81.99,27.85 4.83,3.5 8.52,5.32 10.67,5.32 3.01,0 5.84,-2.33 8.33,-7.33l24 -61c1.84,-4.83 2.85,-8.66 2.85,-11.67 0,-12.65 -15.66,-24.84 -47.18,-36.67 -31.33,-11.65 -63.99,-17.49 -97.84,-17.49 -67.98,0 -120.83,22.16 -158.49,66.67 -37.51,44.33 -56.33,106.66 -56.33,187.15 0,84.83 20.66,151.83 61.82,200.67 41.18,49 97.51,73.51 169.18,73.51 30.49,0 61.84,-6.51 93.66,-19.33 32,-12.84 47.83,-25.35 47.83,-37.68z"
   id="glyph13" />
   <glyph
   unicode="d"
   horiz-adv-x="518"
   d="M465.67 30.84c0,-3.5 -3.01,-6.51 -8.85,-8.66l-82.99 -33.17c-5.16,-2.01 -8.66,-3.01 -10.18,-3.01 -11.16,0 -20.15,17.02 -26.99,51.17 -43.84,-36.16 -90.67,-54.16 -140,-54.16 -51.85,0 -91.84,22.16 -120.18,66.67 -28.34,44.33 -42.51,106.99 -42.51,187.99 0,95.34 19.51,166.49 58.69,213.32 33.83,40.01 76.5,60.02 127.65,60.02 32.17,0 65.18,-9.34 98.68,-28.18l0 203.17c0,10.01 5,16.01 15.17,18l101.99 20.01c6.51,0 9.83,-5.67 9.83,-17l0 -583.84c0,-30.33 5.84,-58.83 17.67,-85.84 0.68,-1.66 1.33,-3.83 2.01,-6.49zm-146.67 85.32l0 275.84c-23.83,12 -47.83,18 -71.83,18 -31.68,0 -54,-12.33 -66.83,-37.16 -12.84,-24.67 -19.33,-67.33 -19.33,-127.83 0,-57.83 6.16,-99.66 18.33,-125.5 12.16,-25.66 32,-38.5 59.5,-38.5 31.33,0 57.99,11.67 80.16,35.16z"
   id="glyph14" />
   <glyph
   unicode="e"
   horiz-adv-x="481"
   d="M450.01 237.83c0,-8.66 -1.33,-14.99 -3.85,-19 -2.66,-3.83 -8.66,-5.84 -18,-5.84l-268.16 0c2.01,-83.99 38.82,-125.99 110.49,-125.99 37.18,0 75,10.32 113.34,31.16 5.18,2.66 9.5,3.83 13,3.83 5,0 8.66,-2.99 11.34,-9.17l24.65 -59.48c2.01,-5.02 3.01,-8.68 3.01,-11.34 0,-8.66 -13.68,-19 -41.01,-30.67 -43.66,-18.82 -89.67,-28.32 -138.15,-28.32 -63.5,0 -113.17,16.5 -149.01,49.33 -49.84,45.5 -74.66,115.83 -74.66,210.84 0,80.33 19.98,144.99 60,194.16 40.15,49.16 93,73.67 158.83,73.67 132.15,0 198.17,-91 198.17,-273.17zm-133.01 68.17c-1,41.51 -7,70.83 -18.16,88.01 -11,17.32 -29.32,26 -54.67,26 -29.65,0 -51.33,-12.51 -64.66,-37.68 -8.83,-16.34 -14.99,-41.83 -18.49,-76.34l155.99 0z"
   id="glyph15" />
   <glyph
   unicode="h"
   horiz-adv-x="537"
   d="M472 17c0,-11.32 -5.67,-17 -17.16,-17l-93.17 0c-11.18,0 -16.67,5.67 -16.67,17.16l0 308.68c0,30.33 -4.18,51.99 -12.67,64.83 -8.5,12.84 -22.67,19.33 -42.49,19.33 -27.34,0 -55.84,-13.66 -85.84,-41.16l0 -351.68c0,-11.49 -5.67,-17.16 -17.18,-17.16l-92.66 0c-11.51,0 -17.18,5.67 -17.18,17.16l0 668.84c0,10.01 4.83,16.01 14.68,18l93.33 19c1.82,0.68 4.83,1 8.83,1 6.84,0 10.18,-5.67 10.18,-17l0 -253.84c40.67,38.52 86.49,57.85 137.66,57.85 51.5,0 88.17,-18 110.33,-54.18 13.33,-21.83 20.01,-56.17 20.01,-103l0 -336.83z"
   id="glyph16" />
   <glyph
   unicode="i"
   horiz-adv-x="295"
   d="M236.01 641.01c0,-22.5 -7.84,-41.51 -23.51,-57.33 -15.66,-15.85 -34.83,-23.67 -57.66,-23.67 -22.67,0 -41.67,7.82 -57.33,23.67 -15.68,15.83 -23.51,35.16 -23.51,58.32 0,21.85 8.01,40.5 24,56.35 15.99,15.83 35.16,23.65 57.66,23.65 22.34,0 41.18,-7.99 56.84,-23.83 15.66,-15.99 23.51,-34.99 23.51,-57.15zm-14.01 -624.01c0,-11.32 -5.67,-17 -17.18,-17l-93.17 0c-11.16,0 -16.65,5.67 -16.65,17.16l0 383.85 -76.01 0c-11.34,0 -17,5.65 -17,17l0 58.99c0,11.34 5.65,17 17,17l186.01 0c11.32,0 17,-5.65 17,-17l0 -460z"
   id="glyph17" />
   <glyph
   unicode="l"
   horiz-adv-x="277"
   d="M289.17 11.32c0,-6.82 -11,-13.33 -32.82,-19.33 -21.68,-6 -44.52,-8.99 -68.35,-8.99 -59.48,0 -97.49,24.16 -113.66,72.32 -6.16,17.18 -9.34,57.68 -9.34,121.51l0 508.16c0,10.67 5.02,17.02 15.17,19l89.83 18c6.84,1.33 11,2.01 12.16,2.01 6.51,0 9.85,-5.67 9.85,-17.16l0 -520.83c0,-39.17 0.66,-61.18 1.99,-66.02 3.5,-13.33 12,-19.98 25.35,-19.98 9.15,0 19.98,1.99 32.66,6 2.01,0.66 4.34,1 6.84,1 4.67,0 7.33,-2.01 8.33,-6l20.99 -85.84c0.68,-1.33 1,-2.5 1,-3.85z"
   id="glyph18" />
   <glyph
   unicode="m"
   horiz-adv-x="777"
   d="M715 17.01c0,-11.33 -5.68,-17.01 -17.17,-17.01l-92.66 0c-11.49,0 -17.17,5.68 -17.17,17.01l0 315.99c0,51.33 -14.99,76.99 -44.99,76.99 -24.65,0 -53.32,-14.99 -86,-44.83l0 -348.15c0,-11.33 -5.68,-17.01 -17.17,-17.01l-90.67 0c-11.49,0 -17.17,5.68 -17.17,17.17l0 307.66c0,28.18 -1.67,47.01 -4.83,56.84 -6.14,18.84 -19.98,28.31 -41.14,28.31 -25.01,0 -53.67,-14.33 -86,-43l0 -349.81c0,-11.49 -5.68,-17.17 -17.17,-17.17l-91.16 0c-11.17,0 -16.68,5.68 -16.68,17.01l0 335.84c0,40.98 -6.01,76.99 -17.99,107.98 -1.99,3.85 -3,7.67 -3,11.17 0,5.51 3.66,9.5 10.84,11.69l81.17 27.33c6.5,1.34 9.83,1.99 9.83,1.99 11.66,0 22.5,-24 32.16,-71.99 50.67,46.66 100.33,70 149.34,70 51.49,0 87.83,-23.34 108.99,-70 51.68,46.66 103.17,70 154.66,70 46.69,0 78.68,-16.85 95.86,-50.34 12.15,-22.99 18.16,-61.32 18.16,-114.67l0 -328.98z"
   id="glyph19" />
   <glyph
   unicode="n"
   horiz-adv-x="537"
   d="M473 17c0,-11.32 -5.67,-17 -17.16,-17l-93.17 0c-11.18,0 -16.67,5.67 -16.67,17.16l0 308.68c0,56.17 -19,84.16 -57.17,84.16 -26,0 -55,-13.66 -86.84,-41.16l0 -351.68c0,-11.49 -5.67,-17.16 -17.16,-17.16l-93.17 0c-11.18,0 -16.67,5.67 -16.67,17.16l0 335.83c0,42.84 -6.84,79.18 -20.68,108.85 -2.15,4.16 -3.32,7.66 -3.32,10.16 0,3.99 2.83,6.84 8.33,8.83l88.66 33.17c3.67,1.33 7,2.01 10.34,2.01 12.33,0 24.16,-22.99 35.65,-69.17 46.5,42.84 96.34,64.17 149.68,64.17 86.16,0 129.33,-52.66 129.33,-158.18l0 -335.83z"
   id="glyph20" />
   <glyph
   unicode="r"
   horiz-adv-x="352"
   d="M365.17 488.5c0,-1.84 -0.68,-5.51 -2.33,-10.67l-30.84 -80.84c-2.33,-5.84 -4.83,-8.83 -7.84,-8.83 -1,0 -3.32,0.66 -7.33,2.01 -14.99,5.16 -28.34,7.82 -39.99,7.82 -21.5,0 -46.83,-15.99 -75.84,-47.83l0 -333.01c0,-11.49 -5.67,-17.16 -17.16,-17.16l-93.17 0c-11.16,0 -16.67,5.67 -16.67,17l0 303.66c0,47.83 -9.99,94.17 -30,139.18 -1.33,3.83 -2.01,7 -2.01,9.17 0,4.32 3.34,7.49 9.83,9.83l81 28.67c5.84,2.33 10.01,3.5 12.16,3.5 13.35,0 26,-26 38.17,-77.83 7.84,9.32 19,22.32 33.66,38.82 26,26 56.51,39.01 91.34,39.01 14.66,0 27.83,-2.33 39.5,-6.84 11.67,-4.5 17.51,-9.66 17.51,-15.66z"
   id="glyph21" />
   <glyph
   unicode="s"
   horiz-adv-x="425"
   d="M393 144.99c0,-45.5 -15.34,-84.16 -45.83,-116.16 -29.51,-30.49 -70.5,-45.83 -122.67,-45.83 -58.83,0 -115.34,13.99 -169.5,42 -14.66,7.49 -21.99,13.84 -21.99,19 0,2.66 0.98,6.65 2.99,12.16l22.83 61c2.66,6.51 6,9.83 9.83,9.83 2.33,0 5.34,-1 9.34,-2.99 52.85,-28.67 98,-43 135.84,-43 38.82,0 58.17,17.16 58.17,51.66 0,14.33 -4.83,25.49 -14.33,33.34 -9.66,7.66 -30.51,17.67 -62.68,29.67 -52.5,20.17 -87,38.33 -104,54.16 -26.66,25.49 -39.99,58.17 -39.99,98.16 0,47.83 16.67,87 50,117.33 33.31,30.51 75.99,45.68 128,45.68 31.49,0 64.83,-5.34 99.99,-16.18 35.01,-10.67 52.66,-20.66 52.66,-30.16 0,-2.5 -0.98,-6.16 -2.99,-10.67l-24.67 -57.01c-2.66,-5.84 -6,-8.83 -10.16,-8.83 -1.33,0 -4.01,0.66 -7.84,2.01 -38.5,17.16 -71.99,25.82 -100.5,25.82 -42.32,0 -63.5,-17 -63.5,-50.82 0,-13.68 4.16,-24.18 12.33,-31.35 8.17,-7.33 25.84,-16.32 53.01,-26.66 60,-23.51 98.33,-43.49 114.99,-60 27.17,-26.84 40.67,-60.84 40.67,-102.18z"
   id="glyph22" />
   <glyph
   unicode="t"
   horiz-adv-x="370"
   d="M365.99 21.99c0,-8.15 -10.32,-15.32 -31.16,-21.99 -35.16,-11.32 -68.82,-17 -101.15,-17 -59.18,0 -99.51,21.5 -121.01,64.5 -9.15,18.84 -13.66,49.82 -13.66,92.66l0 260.85 -69.33 0c-11.18,0 -16.67,5.65 -16.67,17l0 58.99c0,11.34 5.49,17 16.67,17l69.33 0 0 126.17c0,10.5 5.32,16.5 16.16,18.16l91.84 12.67 8.85 0c6.82,0 10.16,-5.34 10.16,-16.18l0 -140.84 113.66 0c11.34,0 17.18,-3.32 17.18,-10.16 0,-3.99 -0.35,-6.84 -1,-8.83l-13.17 -58.85c-2.01,-10.16 -7.84,-15.15 -17.67,-15.15l-99 0 0 -243.01c0,-22.83 1.17,-37.49 3.5,-44 4.5,-13.33 15.66,-19.98 33.5,-19.98 15.66,0 37.68,5.65 66,16.83 3.17,1.33 6.18,1.99 8.68,1.99 4.67,0 7.99,-3.32 10.32,-9.83l15.66 -69.66c1.52,-6 2.33,-9.66 2.33,-11.34z"
   id="glyph23" />
   <glyph
   unicode="u"
   horiz-adv-x="537"
   d="M485 15.34c0,-4.01 -3.34,-6.68 -9.83,-8.33l-84.01 -19c-5.82,-1.33 -9.66,-2.01 -11.16,-2.01 -11.51,0 -21.34,18.35 -29.83,55 -40.67,-38.66 -86.84,-57.99 -138.17,-57.99 -50.17,0 -87.66,14.33 -112.82,43 -16.34,18.49 -26.5,42.65 -30.67,72.32 -2.33,14.01 -3.5,40.67 -3.5,80l0 293.18c0,9.66 5.02,15.5 15.17,17.49l92.84 20.01c1.33,0.68 3.99,1 8.33,1 7.17,0 10.67,-5.16 10.67,-15.66l0 -310.17c0,-37.49 3.15,-61.84 9.34,-73.33 9.32,-17.83 26.66,-26.84 51.66,-26.84 26.66,0 54.32,12 82.99,36.18l0 351.17c0,9.83 5,15.66 15.17,17.65l92.84 20.01 10.16 1c5.84,0 8.85,-5.16 8.85,-15.66l0 -368.16c0,-42.67 6.33,-76.68 18.98,-102.01 2.01,-2.99 3.01,-6 3.01,-8.83z"
   id="glyph24" />
  </font>
  <font
   id="FontID0"
   horiz-adv-x="537"
   font-variant="normal"
   style="fill-rule:nonzero"
   font-style="normal"
   font-weight="400">
	<font-face
   font-family="Officina Sans OS ITC TT"
   id="font-face24">
		<font-face-src>
			<font-face-name
   name="Officina Sans OS ITC TT" />
		</font-face-src>
	</font-face>
   <missing-glyph
   id="missing-glyph24"><path
     d="M0 0z"
     id="path24" /></missing-glyph>
   <glyph
   unicode="("
   horiz-adv-x="370"
   d="M316.83 -202.16c0,-3.83 -5.67,-9.5 -16.83,-16.83 -11.16,-7.33 -20.01,-11.02 -26.17,-11.02 -9.66,0 -32.66,27.01 -68.82,81 -82.01,122.84 -123,255.5 -123,398 0,153.67 48.32,296.68 144.99,429.18 24.51,33.15 39.99,49.82 46.83,49.82 3.67,0 7.68,-1.33 12.35,-3.83l23.81 -15.17c4.67,-2.99 6.84,-5.82 6.84,-8.83 0,-3.83 -2.83,-9.99 -8.83,-18 -96.01,-128 -144.01,-272.33 -144.01,-433.18 0,-159.82 48,-304.15 144.01,-433.16 6,-8.01 8.83,-14.17 8.83,-18z"
   id="glyph25" />
   <glyph
   unicode=")"
   horiz-adv-x="370"
   d="M289 248.99c0,-153.33 -48.34,-296.33 -145.18,-429.16 -24.33,-33.17 -39.99,-49.84 -46.83,-49.84 -3.5,0 -7.66,1.35 -12.16,3.85l-24 14.17c-4.5,3.67 -6.84,6.82 -6.84,9.83 0,3.83 3.01,9.99 8.85,18 96.16,129 144.15,273.34 144.15,433.16 0,159.84 -48,304.18 -144.15,433.18 -5.84,7.84 -8.85,13.84 -8.85,18 0,3.01 7.68,9.34 22.99,19 9.34,5.84 16.18,8.83 20.01,8.83 9.17,0 32,-26.99 68.84,-80.98 82.17,-120.5 123.16,-253.17 123.16,-398.02z"
   id="glyph26" />
   <glyph
   unicode=","
   horiz-adv-x="295"
   d="M233 107.17c0,-1.68 -1.33,-4.83 -3.99,-9.85l-115.18 -212.48c-3.34,-5.84 -6.49,-8.85 -9.83,-8.85 -1,0 -2.66,0.33 -4.83,1l-3.01 1 -21.99 8.33c-7.49,2.5 -11.16,5.49 -11.16,8.66 0,0.68 0.66,3.34 1.99,7.84l58.01 200.48c2.01,7.17 7,10.67 15.17,10.67l81.17 0c8.99,0 13.66,-2.33 13.66,-6.82z"
   id="glyph27" />
   <glyph
   unicode="-"
   horiz-adv-x="352"
   d="M314.84 232.16c0,-9.5 -4.67,-14.17 -14.17,-14.17l-250.02 0c-9.15,0 -13.66,4.67 -13.66,14.17l0 46.67c0,9.5 4.5,14.17 13.66,14.17l250.02 0c9.5,0 14.17,-4.67 14.17,-14.17l0 -46.67z"
   id="glyph28" />
   <glyph
   unicode="."
   horiz-adv-x="295"
   d="M219.16 57.17c0,-19.49 -6.98,-36.16 -20.82,-50.17 -13.84,-14.01 -30.33,-21.01 -49.49,-21.01 -19.84,0 -36.67,6.84 -50.35,20.5 -13.66,13.68 -20.5,30.51 -20.5,50.68 0,19.49 7,36.16 21.01,49.65 14.01,13.51 31,20.17 50.82,20.17 18.51,0 34.67,-6.82 48.51,-20.66 13.84,-13.84 20.82,-30.16 20.82,-49.16z"
   id="glyph29" />
   <glyph
   unicode="0"
   horiz-adv-x="500"
   d="M457.01 292.18c0,-204.17 -69.17,-306.18 -207.51,-306.18 -57.66,0 -102.83,19.68 -135.51,59.01 -45.99,56 -68.98,134.32 -68.98,234.82 0,96.67 18.82,171.84 56.49,225.67 37.66,53.67 90.34,80.49 157.83,80.49 63.66,0 112.5,-25.33 146.51,-75.82 34.15,-50.66 51.17,-123.33 51.17,-217.99zm-82.01 -2.33c0,150.15 -40.5,225.16 -121.51,225.16 -39.99,0 -70.99,-20.17 -93.17,-60.32 -22.16,-40.17 -33.34,-96.34 -33.34,-168.68 0,-76.83 12,-136.17 36,-178.16 19.51,-33.83 48.67,-50.82 87.52,-50.82 44.82,0 76.34,19.33 94.83,58.15 19.84,42.02 29.67,100.17 29.67,174.68z"
   id="glyph30" />
   <glyph
   unicode="1"
   horiz-adv-x="500"
   d="M424.84 14.17c0,-9.5 -4.5,-14.17 -13.68,-14.17l-264.16 0c-9.5,0 -14.17,4.67 -14.17,14.17l0 37.66c0,9.5 4.67,14.17 14.17,14.17l101.99 0 0 426.17 -111.82 -67.33c-4.5,-2.68 -8.01,-4.01 -10.18,-4.01 -2.99,0 -5.32,2.5 -6.82,7.33l-13.17 24c-2.01,3.5 -3.01,6.51 -3.01,8.85 0,3.17 2.33,6.65 6.84,10.16l150.34 109.83 49.65 0c9.5,0 14.17,-4.67 14.17,-14.17l0 -500.83 86.16 0c9.01,0 13.68,-4.67 13.68,-14.17l0 -37.66z"
   id="glyph31" />
   <glyph
   unicode="2"
   horiz-adv-x="500"
   d="M431.01 14.17c0,-9.5 -4.67,-14.17 -14.17,-14.17l-335.67 0c-6.16,0 -9.66,1.49 -10.67,4.34 -1,1.99 -1.49,5.32 -1.49,9.83 0,64.99 13.33,119.66 40.15,163.5 26.84,44 70.85,83.32 132.01,118.17 45.83,26.33 74.49,46.67 85.84,61 14.66,18.49 21.99,41.16 21.99,67.82 0,28.34 -8.5,50.51 -25.66,66.34 -17.02,15.99 -40.5,24 -70.5,24 -28.18,0 -51.01,-7.33 -68.51,-22.16 -17.32,-14.85 -32.33,-39.85 -44.99,-74.84 -2.68,-6.51 -6.18,-9.83 -10.34,-9.83 -2.01,0 -5.16,0.66 -9.66,1.99l-40.99 11.67c-5.51,2.33 -8.33,5.67 -8.33,10.34 0,7.49 4.32,20.5 13.17,38.99 8.83,18.67 17.83,34.01 26.99,46.01 35.51,45.83 84.51,68.82 147.16,68.82 53.83,0 96.18,-13.99 127.18,-42 31,-27.99 46.5,-66.32 46.5,-114.83 0,-47.16 -14.68,-86.33 -44,-117.33 -12.84,-13 -24.51,-22.99 -35.34,-30.16 -9.15,-6.16 -39.66,-24.16 -91.49,-53.83 -68.84,-39.68 -106.5,-91.34 -113.01,-154.84l269.67 0c9.5,0 14.17,-4.67 14.17,-14.17l0 -44.66z"
   id="glyph32" />
   <glyph
   unicode="3"
   horiz-adv-x="500"
   d="M433.99 109.83c0,-57.17 -19.66,-103.51 -58.83,-138.83 -39.17,-35.34 -90.67,-53.01 -154.66,-53.01 -34.34,0 -70.17,5.02 -108.01,15.17 -37.66,9.99 -56.49,19.68 -56.49,28.83 0,1.49 1,4.67 2.99,9.17l20.01 45.01c1.68,3.83 3.83,5.82 6.84,5.82 2.5,0 10.16,-2.99 22.99,-8.83 33.83,-16.18 70.5,-24.16 109.83,-24.16 88.83,0 133.34,41.32 133.34,124 0,81.99 -48.67,123 -146.02,123l-34.32 0c-9.01,0 -13.68,4.65 -13.68,13.99l0 40.01c0,9.34 4.67,13.99 13.84,13.99l33.17 0c39.33,0 70.83,10.85 93.99,32.52 23.34,21.66 35.01,50.66 35.01,87.17 0,29.32 -8.85,52.83 -26.33,70.15 -17.67,17.51 -41.34,26.17 -70.85,26.17 -36.49,0 -70.15,-17 -100.66,-50.82 -7.84,-8.68 -14.17,-13.17 -19.17,-13.17 -2.17,0 -5,1.33 -8.17,3.99l-32.82 27.83c-3.5,2.33 -5.34,5.02 -5.34,8.33 0,10.01 16.18,27.01 48.34,50.84 34.83,26 74.98,38.99 120.67,38.99 50.66,0 92,-14.82 123.66,-44.49 31.84,-29.49 47.67,-68.17 47.67,-115.67 0,-70.66 -34.34,-119.66 -103,-147 27.83,-8.5 49.33,-18.65 64.5,-30.65 40.99,-32.68 61.49,-78.67 61.49,-138.34z"
   id="glyph33" />
   <glyph
   unicode="4"
   horiz-adv-x="500"
   d="M469.5 86.84c0,-9.17 -4.83,-13.84 -14.17,-13.84l-79.33 0 0 -140.84c0,-9.5 -4.67,-14.17 -14.17,-14.17l-46.67 0c-9.5,0 -14.17,4.67 -14.17,14.17l0 140.84 -257.84 0c-6.16,0 -9.83,1.84 -11.16,5.34 -0.68,1.99 -1,4.83 -1,8.33l0 56.17 259.33 430.33c3.17,5.16 8.83,7.82 17,7.82l49.84 -7.82c8.17,-1.33 12.16,-4.34 12.16,-9.17 0,-2.33 -1.33,-5.32 -3.83,-8.83l-255.34 -416.18 190.68 0 11.16 160.84c0.68,8.83 5.51,13.17 14.17,13.17l35.67 0c9.5,0 14.17,-4.67 14.17,-14.17l0 -159.84 79.33 0c9.34,0 14.17,-4.83 14.17,-14.33l0 -37.82z"
   id="glyph34" />
   <glyph
   unicode="5"
   horiz-adv-x="500"
   d="M433.99 150.83c0,-71.99 -21.15,-128.65 -63.33,-170.32 -42.32,-41.67 -99.66,-62.51 -172,-62.51 -36.16,0 -67,3.5 -92.49,10.34 -25.49,6.84 -38.17,15.01 -38.17,24.84l0 6.84 10.34 39.99c1.17,5.16 4.48,7.84 9.66,7.84 1.99,0 5.65,-0.68 11.16,-2.01 30,-11.16 64.66,-16.83 104,-16.83 99.17,0 148.84,52.99 148.84,159.16 0,39.99 -9.17,71.18 -27.34,93.33 -18.16,22.34 -43.68,33.5 -76.66,33.5 -41.51,0 -80.35,-18.33 -116.02,-54.84 -3.99,-4.16 -6.82,-6.33 -8.83,-6.33l-9.34 1 -34.67 12.16c-7.49,2.66 -11.16,5.67 -11.16,8.83l0 7.35 32.17 319.66c0.66,8.83 5.32,13.17 13.66,13.17l260.34 0c9.5,0 14.17,-4.67 14.17,-14.17l0 -41.67c0,-9.5 -4.67,-14.15 -14.17,-14.15l-209 0 -21.99 -202.84c38.82,28.5 79,42.84 120.5,42.84 50.49,0 91.65,-18 123.16,-54.18 31.49,-36.16 47.16,-83.15 47.16,-141z"
   id="glyph35" />
   <glyph
   unicode="6"
   horiz-adv-x="500"
   d="M443 224.17c0,-70.01 -18,-127.18 -53.83,-171.51 -36,-44.49 -82.5,-66.67 -139.67,-66.67 -67.84,0 -118.66,30.84 -152.34,92.35 -25.49,46.15 -38.17,106.66 -38.17,181.67 0,119.99 25,215.66 75,286.48 50,71.01 117.17,106.52 201.83,106.52 23.16,0 43,-2.17 59.34,-6.35 16.5,-4.32 24.65,-9.5 24.65,-15.66 0,-2.66 -0.33,-4.67 -0.98,-5.84l-10.67 -42.16c-1.33,-4.5 -3.85,-6.84 -7.35,-6.84l-6.82 0.84c-20.17,6.68 -40.5,9.99 -61,9.99 -54.18,0 -98,-23.16 -131.85,-69.5 -27.99,-38 -46.15,-86.16 -54.32,-144.5 38,43.33 80.49,65.01 127.51,65.01 51.33,0 92.33,-19.51 122.82,-58.5 30.51,-39.17 45.85,-90.83 45.85,-155.33zm-82.01 -1.17c0,97.32 -37.16,146 -111.49,146 -34.34,0 -61,-12.51 -80,-37.68 -19,-25 -28.5,-60.49 -28.5,-106.33 0,-111.98 36.51,-167.99 109.51,-167.99 73.65,0 110.49,55.33 110.49,166z"
   id="glyph36" />
   <glyph
   unicode="9"
   horiz-adv-x="500"
   d="M435 313c0,-123.68 -22.67,-220.51 -68.17,-290.33 -45.33,-69.82 -108.34,-104.67 -189,-104.67 -34.99,0 -61.84,4.34 -80.84,13.17 -6.84,3.01 -10.32,7.17 -10.32,12.67l0 6.33 5 41.01c0,5.32 2.66,7.82 8.17,7.82 0.66,0 3.32,-0.66 7.82,-1.82 24.84,-7.51 48.16,-11.18 70.01,-11.18 93.99,0 152.49,74.68 175.32,224.01 -31.33,-50.68 -74.66,-76.01 -129.98,-76.01 -50.51,0 -91.18,20.33 -122.35,61 -31.16,40.67 -46.67,94.01 -46.67,160.17 0,68.68 18,124.33 54.18,166.84 36,42.67 83.15,63.99 141.16,63.99 123.82,0 185.66,-91 185.66,-272.99zm-82.01 49.68c0,101.5 -35.65,152.32 -106.82,152.32 -34.17,0 -61.16,-14.01 -81.17,-42 -20.01,-28.01 -30,-66 -30,-114.18 0,-49.16 9.5,-87.66 28.5,-115.32 19,-27.66 45.66,-41.51 79.84,-41.51 73.16,0 109.65,53.5 109.65,160.68z"
   id="glyph37" />
   <glyph
   unicode=":"
   horiz-adv-x="295"
   d="M219.16 402.83c0,-19.49 -6.82,-36 -20.5,-49.49 -13.66,-13.51 -30.33,-20.33 -49.82,-20.33 -19.84,0 -36.67,6.82 -50.35,20.5 -13.66,13.66 -20.5,30.33 -20.5,50.33 0,19.49 7,36 21.01,49.68 14.01,13.66 31,20.5 50.82,20.5 18.51,0 34.67,-7 48.51,-21.01 13.84,-14.01 20.82,-30.67 20.82,-50.17zm0 -345.66c0,-19.49 -6.98,-36.16 -20.82,-50.17 -13.84,-14.01 -30.33,-21.01 -49.49,-21.01 -19.84,0 -36.67,6.84 -50.35,20.5 -13.66,13.68 -20.5,30.51 -20.5,50.68 0,19.49 7,36.16 21.01,49.65 14.01,13.51 31,20.17 50.82,20.17 18.51,0 34.67,-6.82 48.51,-20.66 13.84,-13.84 20.82,-30.16 20.82,-49.16z"
   id="glyph38" />
   <glyph
   unicode="A"
   horiz-adv-x="537"
   d="M517.17 7.84c0,-5.18 -4.83,-7.84 -14.17,-7.84l-64.01 0c-6.82,0 -11.81,3.67 -15.15,11.16l-54.67 194.83 -203.17 0 -56.17 -194.83c-1.84,-7.49 -6.84,-11.16 -14.66,-11.16l-60.02 0c-9.5,0 -14.15,2.33 -14.15,6.84 0,1.66 0.66,4.67 1.99,9.34l201.18 658.66c2.15,7.49 7.17,11.16 14.66,11.16l60 0c7.84,0 12.84,-3.67 15.17,-11.16l201.16 -658.66c1.33,-4.67 2.01,-7.35 2.01,-8.33zm-167 267.15l-60.16 220.16c-8.68,31.51 -16.34,63.52 -22.83,95.69 -4.67,-23.51 -12.35,-55.02 -23.02,-94.68l-60.16 -221.16 166.16 0z"
   id="glyph39" />
   <glyph
   unicode="C"
   horiz-adv-x="462"
   d="M441.16 64.01c0,-6.84 -9.34,-17.34 -27.83,-31.68 -39.66,-30.84 -84.83,-46.34 -135.33,-46.34 -73.51,0 -129.51,31 -168.17,93.17 -38.5,62.17 -57.83,152.51 -57.83,270.84 0,116.84 18.98,205.17 57.15,265 36.18,56.66 90.18,85 162.01,85 55.68,0 105.33,-18.67 149.01,-56 10.67,-9.17 16.16,-15.83 16.16,-20.01 0,-2.66 -0.66,-5.32 -1.99,-7.82l-29.34 -38c-1.33,-2.66 -3.99,-3.99 -7.84,-3.99 -1.99,0 -13.33,7.99 -34.15,24 -30,23.16 -60.34,34.83 -91,34.83 -45.68,0 -78.83,-21.83 -99.68,-65.5 -20.82,-43.68 -31.33,-113.17 -31.33,-208.67 0,-203.82 47.16,-305.83 141.33,-305.83 34.5,0 71.83,17.67 111.84,53.01 4.67,3.83 8.17,5.84 10.83,5.84 2.66,0 5.32,-2.33 8.33,-6.84l24.84 -33.17c1.99,-2.01 2.99,-4.5 2.99,-7.82z"
   id="glyph40" />
   <glyph
   unicode="F"
   horiz-adv-x="425"
   d="M432.01 679.16c0,-2.31 -0.35,-4.16 -1,-5.32l-1 -3.99 -15.17 -44c-2.66,-7.17 -7.66,-10.83 -15.15,-10.83l-221.68 0 0 -233 195.84 0c9.5,0 14.17,-4.5 14.17,-13.51l0 -38.5c0,-9.34 -4.67,-14.01 -14.17,-14.01l-195.84 0 0 -301.82c0,-9.5 -4.67,-14.17 -14.17,-14.17l-54.16 0c-9.17,0 -13.68,4.67 -13.68,14.17l0 657.66c0,9.5 4.5,14.17 13.68,14.17l308.17 0c9.34,0 14.17,-2.33 14.17,-6.84z"
   id="glyph41" />
   <glyph
   unicode="I"
   horiz-adv-x="333"
   d="M310.17 14.33c0,-9.5 -4.83,-14.33 -14.17,-14.33l-258.84 0c-9.5,0 -14.17,4.83 -14.17,14.33l0 37.33c0,9.5 4.67,14.33 14.17,14.33l87.84 0 0 554.01 -87.84 0c-9.5,0 -14.17,4.67 -14.17,13.84l0 37.82c0,9.5 4.67,14.33 14.17,14.33l258.84 0c9.34,0 14.17,-4.83 14.17,-14.33l0 -37.82c0,-9.17 -4.83,-13.84 -14.17,-13.84l-89.01 0 0 -554.01 89.01 0c9.34,0 14.17,-4.83 14.17,-14.33l0 -37.33z"
   id="glyph42" />
   <glyph
   unicode="K"
   horiz-adv-x="518"
   d="M503.68 37c0,-3.67 -2.17,-7 -6.84,-10.34l-45.85 -31.82c-3.99,-2.5 -6.98,-3.85 -9.32,-3.85 -2.85,0 -6.16,2.33 -9.66,6.84l-254.01 327.33 0 -310.99c0,-9.5 -4.67,-14.17 -14.17,-14.17l-54.16 0c-9.17,0 -13.68,4.67 -13.68,14.17l0 657.66c0,9.5 4.5,14.17 13.68,14.17l54.16 0c9.5,0 14.17,-4.67 14.17,-14.17l0 -324.65 256.83 339.99c3.99,5.16 7.17,7.84 9.83,7.84 2.33,0 5.34,-1.68 9.34,-4.83l37 -25c5.16,-3.5 7.84,-7 7.84,-10.18 0,-2.33 -1.68,-5.67 -4.85,-9.83l-235.31 -304.34 240.17 -295.17c3.32,-3.15 4.83,-6.16 4.83,-8.66z"
   id="glyph43" />
   <glyph
   unicode="M"
   horiz-adv-x="666"
   d="M592.99 9.83c0,-6.49 -4.16,-9.83 -12.65,-9.83l-58.17 0c-9.17,0 -13.84,4.34 -14.17,13.17l-14.99 512.66c0,-5.84 0.98,11.34 2.83,51.33l1 20.01c-4.5,-31.16 -11.51,-60.67 -21.01,-88.33l-117.17 -338c-2.66,-7.17 -7.49,-10.67 -14.66,-10.67l-29.34 0c-7.49,0 -12.49,3.5 -14.99,10.67l-112.84 338c-8.83,26.33 -15.15,55.84 -19,88.33l0 -19 1.84 -38.17 0 -19 -14.66 -507.83c0,-8.83 -4.34,-13.17 -12.84,-13.17l-54.32 0c-6.35,0 -10.18,0.84 -11.67,2.5 -1.52,1.49 -2.17,3.99 -2.17,7.33l0 4.34 37.66 658.66c0.68,8.85 5.34,13.17 14.17,13.17l59.18 0c7.49,0 12.49,-3.67 14.99,-11.16l117.84 -344.84c6.84,-19.82 11.67,-40.5 14.17,-62 1.33,11.51 5.67,32.17 13.17,62l118.82 344.84c2.68,7.49 7.68,11.16 15.17,11.16l63.01 0c8.17,0 12.49,-4.32 13.17,-13.17l37.66 -663z"
   id="glyph44" />
   <glyph
   unicode="P"
   horiz-adv-x="481"
   d="M466 502c0,-91.84 -33.17,-155.17 -99.66,-190 -28.5,-14.66 -67.18,-21.99 -116.51,-21.99l-71.83 0 0 -275.84c0,-9.5 -4.67,-14.17 -14.17,-14.17l-54.16 0c-9.17,0 -13.68,4.67 -13.68,14.17l0 657.66c0,9.5 4.5,14.17 13.68,14.17l153.49 0c59.67,0 102.34,-7.66 128,-22.99 49.84,-29.83 74.84,-83.67 74.84,-161zm-83.99 -1c0,57.5 -18.67,93.52 -55.84,107.66 -13.66,5.51 -37.16,8.33 -70.34,8.33l-77.83 0 0 -254.99 66 0c43.68,0 75,7.66 94.01,22.99 29.32,23.67 44,62.33 44,116z"
   id="glyph45" />
   <glyph
   unicode="R"
   horiz-adv-x="518"
   d="M504.66 8.5c0,-2.83 -3.83,-5.16 -11.65,-6.84l-61 -11.65 -5.51 0c-4.5,0 -8.01,2.66 -10.67,7.82l-162.17 313.16 -75.66 0 0 -296.82c0,-9.5 -4.67,-14.17 -14.17,-14.17l-54.16 0c-9.17,0 -13.68,4.67 -13.68,14.17l0 657.66c0,9.5 4.5,14.17 13.68,14.17l153.49 0c57.01,0 99,-7 126.01,-20.99 49.82,-26 74.82,-76.01 74.82,-150.01 0,-102.16 -43.33,-168.01 -130.17,-197.33l167 -297.83c2.5,-5.02 3.83,-8.68 3.83,-11.34zm-124.66 499.66c0,59.01 -21.5,94.68 -64.5,107.01 -11.51,3.17 -30.67,4.83 -57.83,4.83l-79.67 0 0 -246 76.83 0c36.18,0 63.5,7.66 82.17,22.83 28.67,23.34 43,60.51 43,111.33z"
   id="glyph46" />
   <glyph
   unicode="S"
   horiz-adv-x="481"
   d="M438.99 182.34c0,-58.66 -19.33,-106.01 -58.15,-142.17 -38.68,-36.18 -89.34,-54.18 -151.83,-54.18 -37.51,0 -78.34,7 -122.51,21.01 -44.33,14.01 -66.51,26.99 -66.51,39.01 0,1.99 0.68,4.65 2.01,8.31l19 47.67c1.33,3.34 3.5,5.02 6.84,5.02 2.99,0 8.66,-2.33 17.16,-6.84 51.01,-28.18 99.33,-42.16 145.01,-42.16 36.65,0 66.32,10.32 88.5,30.98 22.32,20.68 33.5,48.02 33.5,81.84 0,30.51 -8.5,56 -25.35,76.17 -17,20.17 -50.17,44.33 -99.66,72.67 -65.34,37.82 -107.34,67.16 -125.99,88.31 -26.68,30.35 -40.01,67.35 -40.01,110.84 0,53.18 18.33,96.5 55,130.33 36.51,33.85 83.83,50.84 141.84,50.84 33.5,0 69.66,-6.33 108.5,-19.17 38.99,-12.84 58.5,-24.51 58.5,-34.99 0,-1.84 -0.68,-4.5 -2.01,-7.68l-18 -45.33c-1.68,-3.99 -4.34,-5.84 -7.84,-5.84 -1.33,0 -15.66,6.68 -43,20.01 -30.33,14.66 -62.66,21.99 -97.16,21.99 -34.5,0 -61.51,-8.66 -80.84,-26.15 -19.33,-17.34 -28.99,-41.67 -28.99,-73.02 0,-35.65 13.33,-63.99 40.01,-84.83 7.17,-5.65 47.16,-30.49 120.15,-74.82 48.16,-28.5 81,-55.33 98.68,-80 22.16,-30.67 33.15,-66.51 33.15,-107.83z"
   id="glyph47" />
   <glyph
   unicode="U"
   horiz-adv-x="591"
   d="M508 184.16c0,-61.49 -16.67,-108.5 -49.84,-141 -38.99,-38.17 -95.32,-57.17 -168.99,-57.17 -136.82,0 -205.17,66.02 -205.17,198.17l0 487.66c0,9.5 4.67,14.17 14.17,14.17l53.67 0c9.5,0 14.17,-4.67 14.17,-14.17l0 -485c0,-48.49 9.66,-82.99 28.99,-103.32 19.33,-20.33 52.01,-30.51 97.84,-30.51 90.83,0 136.17,44.68 136.17,133.83l0 485c0,9.5 4.5,14.17 13.68,14.17l51.66 0c9.15,0 13.66,-4.67 13.66,-14.17l0 -487.66z"
   id="glyph48" />
   <glyph
   unicode="W"
   horiz-adv-x="684"
   d="M663.17 671.99c0,-0.98 -0.33,-2.31 -1,-3.83l0 -3.99 -138.15 -652.01c-1.68,-8.17 -6.68,-12.16 -15.17,-12.16l-66 0c-8.01,0 -12.67,3.99 -13.68,12.16l-86.33 552.84 -104 -552.84c-1.33,-8.17 -6.16,-12.16 -14.66,-12.16l-61 0c-8.52,0 -13.51,3.99 -15.17,12.16l-125.01 653.83c-0.66,3.69 -1,6.18 -1,7.84 0,3.99 4.01,6.68 12.18,8.33l51.83 9.83c3.5,0.68 6.33,1 8.33,1 3.83,0 6.49,-3.83 7.66,-11.67l86 -494.32c4.18,-24.02 7.17,-65.67 8.85,-125.01 1.99,28.67 6,69.33 12.16,122l97.16 489.83c1.68,8.17 6.51,12.16 14.68,12.16l53.16 0c8.83,0 13.84,-3.99 15.17,-12.16l81.99 -493.66c4.01,-23.83 7.51,-64.5 10.83,-122 0.68,27.66 3.69,68.33 9.34,122l91.67 501.16c1.33,7.84 4.34,11.67 8.83,11.67 1.68,0 4.01,-0.33 7.35,-1l51.83 -10.67c8.01,-1.99 12.16,-5.16 12.16,-9.34z"
   id="glyph49" />
   <glyph
   unicode="a"
   horiz-adv-x="462"
   d="M405.68 24.67c0,-2.01 -1.35,-3.5 -3.85,-4.83l-43 -26.84c-2.66,-2.01 -5.16,-2.99 -7.82,-2.99 -12.67,0 -25.33,20.99 -38.17,62.99 -42.84,-42 -90.67,-62.99 -143.01,-62.99 -40.34,0 -72.51,12.33 -96.16,36.82 -23.83,24.67 -35.67,58.01 -35.67,100.01 0,113.01 87.99,171 264,174.01l0 33.17c0,31.98 -7.17,54.81 -21.34,68.49 -14.17,13.66 -37.68,20.5 -70.66,20.5 -33.17,0 -73,-9.66 -119.17,-28.99 -2.66,-1.17 -5,-1.84 -6.84,-1.84 -3.67,0 -6,1.49 -6.82,4.83l-15.17 40.01 -1 7.66c0,5 8.83,11.34 26.84,19 41.32,18.16 85.82,27.34 133.32,27.34 103.84,0 155.84,-46.67 155.84,-140.16l0 -189.02c0,-55.33 8.83,-98.98 26.66,-131.31 1.33,-2.17 2.01,-4.18 2.01,-5.84zm-103.67 85.16l0 129c-124.68,-1 -187.01,-36.35 -187.01,-106.01 0,-23.49 6.84,-42.49 20.5,-57.33 13.68,-14.82 31.35,-22.32 52.66,-22.32 33.34,0 71.18,18.98 113.85,56.66z"
   id="glyph50" />
   <glyph
   unicode="b"
   horiz-adv-x="500"
   d="M450.01 272.01c0,-190.68 -60.84,-286.01 -182.67,-286.01 -46.34,0 -89.01,16.34 -128.18,49.16 -12,-30.16 -22.83,-45.15 -32.33,-45.15 -1.99,0 -4.48,0.98 -7.82,2.99l-43 26.84c-2.01,1.82 -3.01,3.5 -3.01,4.83 0.35,2.66 1.33,5 3.01,7.33 18.65,24.49 27.99,59.5 27.99,105l0 561.15c0,6.84 3.67,11.02 11.18,12.67l51.66 12.16c0.66,0.68 2.99,1 6.84,1 4.16,0 6.33,-3.67 6.33,-11.16l0 -268.01c47.34,32.84 91.84,49.16 133.34,49.16 104.49,0 156.66,-73.98 156.66,-221.98zm-82.01 -10.67c0,110.49 -29.83,165.65 -89.34,165.65 -32.5,0 -72.16,-16.32 -118.66,-48.82l0 -285.5c29.67,-25.84 64.34,-38.68 104,-38.68 69.33,0 104,69.17 104,207.34z"
   id="glyph51" />
   <glyph
   unicode="c"
   horiz-adv-x="408"
   d="M398.16 430.17l-1 -6.33 -21.99 -39.01c-2.5,-4.67 -5.16,-6.84 -7.84,-6.84 -2.83,0 -5.65,1.17 -8.15,3.85 -40.67,30.16 -75,45.15 -103.02,45.15 -80.82,0 -121.16,-61.98 -121.16,-185.82 0,-124.84 37.16,-187.17 111.33,-187.17 22.18,0 43,4.5 62.49,13.68 11.34,5.65 29.83,17.32 55.18,35.32 2.99,2.01 5.32,3.01 7.33,3.01 2.66,0 4.83,-2.01 6.84,-5.84l15.15 -38.17c1.68,-4.18 2.5,-7.49 2.85,-10.18 0,-4.48 -5.34,-10.67 -16.01,-18.49 -42.67,-31.49 -89.34,-47.34 -139.67,-47.34 -59.67,0 -106.17,21.5 -139.48,64.34 -33.34,43 -50,102.5 -50,178.68 0,81.99 18.16,146.65 54.49,193.99 36.18,47.34 85.84,70.99 148.68,70.99 44.17,0 85,-12.98 122,-38.99 14.66,-10.5 21.99,-18.67 21.99,-24.84z"
   id="glyph52" />
   <glyph
   unicode="d"
   horiz-adv-x="500"
   d="M448.49 23.67c0,-2.01 -1.82,-3.83 -5.32,-5.84l-45.01 -24.84c-1.99,-2.01 -4.5,-2.99 -7.82,-2.99 -12,0 -23.02,19.98 -33.17,59.83 -56.66,-42.51 -106.33,-63.85 -149.01,-63.85 -49.16,0 -87.5,23.02 -115.32,68.84 -27.85,45.83 -41.83,109.32 -41.83,190.33 0,76.66 15.99,137.33 48.16,182.01 32,44.49 75.66,66.81 131.01,66.81 34.5,0 71.16,-10.65 109.83,-31.98l0 236.15c0,6.18 3.32,10.34 10.16,12.67l51.66 12.16c1.33,0.68 3.5,1 6.35,1 4.48,0 6.82,-3.67 6.82,-11.16l0 -554.85c0,-52.15 8.33,-91.49 25.17,-118.17 5.51,-8.5 8.33,-13.82 8.33,-16.16zm-108.48 87.99l0 283.51c-37,21.15 -70.85,31.82 -101.5,31.82 -37.35,0 -64.17,-13.99 -80.68,-41.83 -16.5,-27.83 -24.84,-73.16 -24.84,-136.17 0,-68.98 7.17,-118.82 21.66,-149.33 14.33,-30.49 38.17,-45.66 71.18,-45.66 34.99,0 73,19.17 114.18,57.66z"
   id="glyph53" />
   <glyph
   unicode="e"
   horiz-adv-x="462"
   d="M432.01 241.01c0,-12 -3.67,-18 -11.18,-18l-287.84 0c5.18,-112.68 49.35,-169.01 132.34,-169.01 35.51,0 74,12 115.67,35.83 3.67,2.01 7,3.01 10.34,3.01 2.31,0 4.48,-1.68 6.82,-5l18 -39.01c1.33,-2.83 2.01,-5.16 2.01,-6.84 0,-7.33 -12,-16.67 -36.16,-27.66 -39.66,-18.84 -80.68,-28.34 -123,-28.34 -63.5,0 -114.01,22.83 -151.67,68.51 -37.51,45.83 -56.33,107.15 -56.33,184.33 0,77.99 17.83,140 53.48,186.17 35.83,45.99 83.85,68.98 144.17,68.98 83.67,0 139.83,-39.99 168.17,-120.15 10.16,-28.34 15.17,-72.51 15.17,-132.83zm-82.01 44c-2.33,98.65 -38,147.98 -107.34,147.98 -68.84,0 -105.33,-49.33 -109.67,-147.98l217.01 0z"
   id="glyph54" />
   <glyph
   unicode="f"
   horiz-adv-x="295"
   d="M341.67 688.84c0,-0.68 -0.68,-2.52 -2.01,-5.84l-16.5 -41.01c-1.33,-3.83 -3.83,-5.84 -7.33,-5.84 -2.66,0 -5.84,1 -9.83,3.01 -28.83,13.84 -54.49,20.82 -76.99,20.82 -25,0 -42.18,-9.83 -51.17,-29.32 -5.84,-11.67 -8.85,-36.16 -8.85,-73.67l0 -76.99 143.85 0c7.49,0 11.32,-2.33 11.32,-6.84 0,-2.66 -0.33,-4.67 -1,-6.33l-13.17 -40.01c-1.99,-5.84 -6.33,-8.83 -13.17,-8.83l-127.83 0 0 -405.84c0,-6.16 -0.98,-9.66 -2.99,-10.67 -1.84,-1 -4.5,-1.49 -7.84,-1.49l-53.32 0c-5,0 -8.01,0.84 -9.17,2.66 -1.17,1.84 -1.66,5 -1.66,9.5l0 405.84 -66.34 0c-5.84,0 -9.17,1 -10.16,2.99 -1,1.84 -1.52,4.67 -1.52,8.17l0 38.68c0,6.16 1.35,9.83 3.85,11.16 1.33,0.66 3.99,1 7.82,1l66.34 0 0 77.99c0,54.16 8.66,92.68 25.82,115.67 25.17,33.5 62.51,50.33 112.01,50.33 23.34,0 47.5,-3.99 72.51,-12 24.84,-7.84 37.33,-15.66 37.33,-23.16z"
   id="glyph55" />
   <glyph
   unicode="g"
   horiz-adv-x="500"
   d="M447 461.84c0,-2.17 -2.01,-6.51 -5.84,-12.67 -16.83,-26.33 -25.17,-60 -25.17,-101.01l0 -154.33c0,-47.16 1.68,-104.16 5,-171 1.33,-26.66 2.01,-45.66 2.01,-57.01 0,-117.82 -59.16,-176.83 -177.67,-176.83 -53.67,0 -103.65,12.35 -149.82,37.18 -12.16,6.16 -18.16,11.65 -18.16,16.48 0,1 0.66,3.5 1.99,7.33l18 40.17c1,3.83 3.01,5.84 5.84,5.84 2.33,0 5.02,-1 7.84,-3.01 47.16,-25.33 90.83,-37.98 131.17,-37.98 43.66,0 73.82,12.16 90.67,36.32 10.16,14.01 15.15,38.33 15.15,73 0,7 -0.33,24.16 -1,51.5l-0.98 52.01c-44.52,-36.51 -90.83,-54.84 -139.01,-54.84 -47.67,0 -85.49,19.82 -113.34,59.5 -27.83,39.83 -41.65,93.82 -41.65,162.15 0,83.01 16.48,147 49.33,192.01 32.82,44.84 79.49,67.33 140.16,67.33 40.67,0 80.84,-13.99 120.5,-41.83 12.16,30.51 21.5,45.85 28.34,45.85 2.99,0 5.49,-0.68 7.82,-2.01l46.01 -28.34c1.82,-0.82 2.83,-2.83 2.83,-5.82zm-106.01 -332l0 269.84c-37,18.82 -67.98,28.32 -93.33,28.32 -75.82,0 -113.66,-57.99 -113.66,-174.17 0,-60.81 7,-104.82 20.84,-131.99 13.99,-27.17 36.65,-40.83 68.17,-40.83 33.66,0 73,16.32 117.98,48.84z"
   id="glyph56" />
   <glyph
   unicode="h"
   horiz-adv-x="518"
   d="M436 12.16c0,-6.16 -1,-9.66 -3.01,-10.67 -1.82,-1 -4.65,-1.49 -8.15,-1.49l-52.66 0c-4.85,0 -8.01,0.84 -9.17,2.66 -1.33,1.84 -2.01,5 -2.01,9.5l0 332.17c0,31.16 -5,52.83 -14.82,65.18 -10.01,12.33 -28.01,18.49 -54.18,18.49 -36.82,0 -80.82,-20.99 -131.99,-62.82l0 -353.01c0,-6.16 -1.33,-9.83 -3.83,-11.16 -1.33,-0.68 -3.83,-1 -7.33,-1l-52.69 0c-4.83,0 -7.99,0.84 -9.15,2.66 -1.33,1.84 -2.01,5 -2.01,9.5l0 686c0,6.18 3.34,10.34 10.18,12.67l51.66 12.16c0.66,0.68 2.99,1 6.84,1 4.16,0 6.33,-3.67 6.33,-11.16l0 -284.68c48.51,43.84 100.17,65.83 154.84,65.83 53.48,0 89.48,-19.49 108.48,-58.48 8.5,-18.02 12.67,-48.84 12.67,-92.84l0 -330.51z"
   id="glyph57" />
   <glyph
   unicode="i"
   horiz-adv-x="258"
   d="M191 658.17c0,-16.83 -5.84,-31.33 -17.51,-43.33 -11.84,-11.84 -26,-17.83 -42.49,-17.83 -17.02,0 -31.35,5.84 -43.16,17.65 -11.84,11.67 -17.83,26.35 -17.83,43.51 0,16.67 6,30.84 18,42.49 12.16,11.51 26.66,17.34 43.98,17.34 16.18,0 30.18,-5.84 41.67,-17.67 11.51,-11.67 17.34,-25.82 17.34,-42.16zm-15.01 -646.01c0,-6.16 -0.82,-9.66 -2.66,-10.67 -1.82,-1 -4.5,-1.49 -8.17,-1.49l-53.32 0c-5.02,0 -8.01,0.84 -9.17,2.66 -1.17,1.84 -1.66,5 -1.66,9.5l0 405.84 -79.84 0c-5.84,0 -9.34,1 -10.5,2.99 -1.17,1.84 -1.66,4.67 -1.66,8.17l0 38.68c0,6.16 1.33,9.83 3.83,11.16 1.66,0.66 4.5,1 8.33,1l144.15 0c4.83,0 7.84,-0.84 9.01,-2.66 1.17,-1.84 1.66,-5.02 1.66,-9.5l0 -455.68z"
   id="glyph58" />
   <glyph
   unicode="j"
   horiz-adv-x="258"
   d="M191 658.17c0,-16.83 -5.84,-31.33 -17.51,-43.33 -11.84,-11.84 -26,-17.83 -42.49,-17.83 -17.02,0 -31.35,5.84 -43.16,17.65 -11.84,11.67 -17.83,26.35 -17.83,43.51 0,16.67 6,30.84 18,42.49 12.16,11.51 26.66,17.34 43.98,17.34 15.85,0 29.67,-6 41.51,-17.83 11.67,-12 17.51,-26 17.51,-42zm-16.01 -711.51c0,-52.32 -11,-90.67 -32.82,-114.67 -26.66,-29.32 -63.82,-43.98 -111.49,-43.98 -24.35,0 -51.01,4.48 -79.67,13.49 -28.67,8.83 -43,17.51 -43,25.66 0,2.17 0.68,4.83 2.01,7.84l19 39.99c1.33,3.85 3.99,5.84 7.82,5.84 0.68,0 3.01,-0.66 6.84,-1.99 31,-16.5 61,-24.84 90.32,-24.84 30.35,0 49.51,11.16 57.68,33.34 5.49,13.66 8.33,38.82 8.33,75.66l0 455 -80.16 0c-7.51,0 -11.34,3.67 -11.34,11.16l0 38.68c0,8.15 3.83,12.16 11.34,12.16l144.32 0c5.02,0 8.01,-0.84 9.17,-2.66 1.17,-1.84 1.66,-5.02 1.66,-9.5l0 -521.18z"
   id="glyph59" />
   <glyph
   unicode="k"
   horiz-adv-x="443"
   d="M429.16 36c0,-2.01 -1.66,-4.83 -5.32,-8.33l-41.01 -30.84c-3.32,-2.5 -5.82,-3.83 -7.82,-3.83 -1.33,0 -3.34,1.33 -5.84,3.83l-209.17 250.18 0 -234.84c0,-6.16 -1.33,-9.83 -3.83,-11.16 -1.33,-0.68 -3.83,-1 -7.33,-1l-52.69 0c-4.83,0 -7.99,0.84 -9.15,2.66 -1.33,1.84 -2.01,5 -2.01,9.5l0 686c0,6.18 3.34,10.34 10.18,12.67l51.66 12.16 6.84 1c4.16,0 6.33,-3.67 6.33,-11.16l0 -453.02 200.83 225.85c3.5,4.16 7,6.33 10.34,6.33 2.5,0 5.49,-1.49 8.66,-4.34l38.17 -25c3.34,-3.15 4.83,-6.16 4.83,-8.66 0,-2.66 -1.49,-5.84 -4.83,-9.34l-170.83 -185.99 178.66 -214.84c2.33,-2.01 3.34,-4.67 3.34,-7.84z"
   id="glyph60" />
   <glyph
   unicode="l"
   horiz-adv-x="258"
   d="M272.83 14.01c0,-5.18 -9.5,-10.5 -28.67,-16.01 -19.33,-5.32 -37.98,-7.99 -56.17,-7.99 -57.99,0 -92,23.32 -102.16,69.82 -3.17,15.34 -4.83,56.33 -4.83,123l0 516.33c0,6.84 3.67,10.67 10.83,11.67l51.5 12.16c0.49,0.68 2.83,1 6.84,1 3.83,0 5.84,-3.67 5.84,-11.16l0 -530.5c0,-51.85 0.82,-82.5 2.5,-92.35 3.15,-25.33 16.83,-37.98 40.83,-37.98 14.01,0 28.99,3.99 44.82,12 3.85,1.33 6.51,1.99 7.84,1.99 2.17,0 4.5,-2.33 6.84,-7l12.16 -37.16c1.17,-4.16 1.82,-6.82 1.82,-7.82z"
   id="glyph61" />
   <glyph
   unicode="m"
   horiz-adv-x="722"
   d="M641.01 12.16c0,-6.16 -1,-9.66 -3.17,-10.67 -2.17,-1 -5.16,-1.49 -9.01,-1.49l-50.66 0c-6.16,0 -9.83,1.33 -11.16,3.83 -0.68,1.68 -1,4.5 -1,8.33l0 342.83c0,48.67 -21.34,73 -64.01,73 -28.34,0 -62.33,-13.33 -101.99,-39.99l0 -375.84c0,-6.16 -1,-9.66 -3.01,-10.67 -1.82,-1 -4.48,-1.49 -7.82,-1.49l-52.34 0c-5,0 -8.01,0.84 -9.17,2.66 -1.17,1.84 -1.66,5 -1.66,9.5l0 341.83c0,49.35 -21.34,74 -64.01,74 -29.83,0 -63.17,-14.33 -99.99,-42.84l0 -373c0,-6.16 -1,-9.66 -3.17,-10.67 -2.17,-1 -5.16,-1.49 -9.01,-1.49l-50.66 0c-6.16,0 -9.66,1.33 -10.67,3.83 -1,1.68 -1.49,4.5 -1.49,8.33l0 358.85c0,27.99 -6,55.98 -18,83.83 -0.68,0.66 -1,2.33 -1,5 0,2.83 1.66,4.83 4.83,5.84l39.99 22.83c3.69,2.33 6.68,3.5 9.34,3.5 10.18,0 19.68,-19 28.83,-57.01 50.35,39.33 97.18,58.99 140.02,58.99 46.48,0 78.16,-19.66 94.66,-58.99 55.33,39.33 104,58.99 146,58.99 43.68,0 74,-14.66 91.32,-43.98 12,-20.52 18.02,-52.85 18.02,-97.02l0 -340.83z"
   id="glyph62" />
   <glyph
   unicode="n"
   horiz-adv-x="518"
   d="M437 12.16c0,-6.16 -1,-9.66 -3.01,-10.67 -1.82,-1 -4.67,-1.49 -8.17,-1.49l-52.66 0c-4.83,0 -7.99,0.84 -9.15,2.66 -1.33,1.84 -2.01,5 -2.01,9.5l0 333.01c0,55.16 -21.99,82.83 -66,82.83 -42.34,0 -86.35,-20.99 -132.01,-62.82l0 -353.01c0,-6.16 -1,-9.66 -2.99,-10.67 -1.84,-1 -4.67,-1.49 -8.17,-1.49l-52.66 0c-4.83,0 -8.01,0.84 -9.17,2.66 -1.33,1.84 -2.01,5 -2.01,9.5l0 342.67c0,36.51 -6.33,68.49 -18.98,96.16 -1,2.68 -1.68,4.5 -2.01,5.84 0,3.01 1.66,4.83 4.83,5.84l45.5 25.84c3.17,2.33 5.84,3.5 7.66,3.5 12.84,0 23.02,-22.01 30.84,-66.18 56.68,45.52 110.35,68.17 161,68.17 49.49,0 83.5,-16.16 102.18,-48.32 11.32,-19.17 17,-52.66 17,-100.5l0 -333.01z"
   id="glyph63" />
   <glyph
   unicode="o"
   horiz-adv-x="500"
   d="M450.01 243.18c0,-81 -18.18,-144.17 -54.34,-189.34 -36.16,-45.17 -86.49,-67.84 -150.99,-67.84 -61.35,0 -108.83,22.18 -142.84,66.34 -33.83,44.33 -50.82,106.17 -50.82,185.49 0,81 18.16,144.01 54.32,188.83 36.16,44.84 86.51,67.33 151.01,67.33 60.65,0 108.16,-22.16 142.33,-66.65 34.15,-44.33 51.33,-105.84 51.33,-184.16zm-82.01 0.98c0,124.52 -39.5,186.85 -118.5,186.85 -77.67,0 -116.51,-61 -116.51,-183 0,-68.84 10.34,-120.67 31,-155.17 17.51,-29.18 46.67,-43.84 87.52,-43.84 39.15,0 67.33,14.01 84.49,42 21.34,34.5 32,85.51 32,153.16z"
   id="glyph64" />
   <glyph
   unicode="p"
   horiz-adv-x="500"
   d="M450.01 249.99c0,-81.99 -14.85,-146.49 -44.52,-193.5 -29.83,-46.99 -70.32,-70.5 -122,-70.5 -37.49,0 -76.99,14.68 -118.5,43.84l0 -214c0,-7.17 -2.99,-11.34 -9.17,-12.67l-52.66 -14.17c-2.33,-0.66 -4.16,-0.98 -5.84,-0.98 -4.83,0 -7.33,3.48 -7.33,10.65l0 543.01c0,43.68 -6.65,76.01 -20.17,97.16 -6.49,10.83 -9.83,17.18 -9.83,19.17 0,2.17 1,3.85 3.01,4.83l43 30.18c1.99,1.99 4.48,2.99 7.82,2.99 10.83,0 23.18,-20.01 37.16,-60 50.51,38.66 98.68,57.99 144.34,57.99 58.17,0 98.51,-23.16 121.34,-69.33 22.16,-44.17 33.34,-102.48 33.34,-174.66zm-82.01 -1.99c0,57.15 -5,99.49 -15.17,127.16 -12.33,34.5 -36.32,51.83 -72.16,51.83 -29.67,0 -68.17,-16.32 -115.67,-48.82l0 -282.18c41.67,-27.99 77.99,-42 108.83,-42 34.17,0 58.34,14.85 72.67,44.49 14.33,29.67 21.5,79.51 21.5,149.52z"
   id="glyph65" />
   <glyph
   unicode="q"
   horiz-adv-x="500"
   d="M441.16 460.84c0,-1.33 -1.99,-6.35 -6,-15.17 -14.82,-31.84 -22.16,-64.66 -22.16,-98.68l0 -530.32c0,-8.68 -3.01,-14.17 -9.17,-16.01l-53.67 -15.66c-2.33,-0.68 -4.34,-1 -6.33,-1 -4.5,0 -6.84,3.67 -6.84,10.67l0 250.34c-42.32,-39.33 -86.16,-59.01 -131.83,-59.01 -47.18,0 -84.51,22.18 -112.01,66.67 -27.5,44.33 -41.16,104.51 -41.16,180.33 0,81.84 15.32,145.83 46.15,192.01 30.67,45.99 73.51,68.98 128.16,68.98 43.68,0 87.52,-15.99 131.85,-48.16 10.67,33.5 21.17,50.17 31.16,50.17 1.33,-0.33 2.99,-1 5,-2.01l42 -24.82c3.17,-2.33 4.83,-5 4.83,-8.33zm-104.16 -350.16l0 278.66c-38.17,25.17 -73,37.66 -104.33,37.66 -65.83,0 -98.68,-61.65 -98.68,-184.82 0,-69.33 9.01,-119.5 27.17,-150.5 14.66,-25.17 36.16,-37.68 64.66,-37.68 31.68,0 68.84,18.84 111.17,56.68z"
   id="glyph66" />
   <glyph
   unicode="r"
   horiz-adv-x="333"
   d="M333.17 478c0,-1.66 -0.68,-3.99 -2.01,-6.84l-24 -56.17c-1,-1.82 -2.66,-2.83 -5.32,-2.83 -0.35,0 -5.84,1.66 -16.67,4.83 -6.84,1.33 -12.51,2.01 -17.02,2.01 -22.16,0 -55.16,-25.35 -99.17,-76.17l0 -330.67c0,-6.16 -0.98,-9.66 -2.99,-10.67 -1.84,-1 -4.5,-1.49 -7.84,-1.49l-53.32 0c-5,0 -8.01,0.84 -9.17,2.66 -1.17,1.84 -1.66,5 -1.66,9.5l0 299.83c0,34.67 -0.84,57.5 -2.33,68.33 -3.01,22.67 -10.18,44.52 -21.85,65.34 -2.5,4.83 -3.83,8.33 -3.83,10.34 0,3.83 1.68,6.82 4.83,8.66l42 26.33c3.34,2.01 6,2.99 8.33,2.99 5.84,0 12.84,-8.66 20.84,-25.98 7.82,-17.51 13.66,-36.35 17.32,-56.84 31.16,34.99 54.34,57.66 69.52,67.67 15.15,10.16 33.31,15.15 54.49,15.15 11.34,0 22.5,-1.82 33.34,-5.32 11,-3.67 16.5,-7.17 16.5,-10.67z"
   id="glyph67" />
   <glyph
   unicode="s"
   horiz-adv-x="389"
   d="M349 128c0,-42.32 -14.66,-76.5 -44,-102.67 -29.16,-26.17 -67.65,-39.33 -115.16,-39.33 -54.34,0 -103.67,13 -148,39.01 -3.83,2.33 -5.84,5.32 -5.84,9.34 0,0.82 0.33,2.17 1,3.83l19 43.84c1,2.66 2.99,3.99 5.84,3.99 1.33,0 3.99,-0.68 7.82,-2.01 45.68,-22.67 86.35,-33.99 122.18,-33.99 24.16,0 43.49,6.65 58.15,20.01 14.68,13.33 22.01,30.82 22.01,52.15 0,31 -21.34,56.33 -64.01,76.17 -55.84,25.66 -93.17,46.17 -111.66,61.49 -30.84,25.35 -46.34,57.01 -46.34,95.17 0,40.67 14.17,74 42.67,100.01 28.48,26 64.99,38.99 109.49,38.99 26,0 54,-4.83 83.83,-14.66 30,-9.66 45.01,-18.84 45.01,-27.34 0,-1.82 -0.68,-4.32 -2.01,-7.17l-18 -36.65c-2.5,-4.18 -5.65,-6.35 -9.15,-6.35 0,0 -2.68,0.68 -7.84,2.01 -36.32,17.51 -67.33,26.17 -93.17,26.17 -50.49,0 -75.82,-22.5 -75.82,-67.33 0,-20.17 6.65,-36.51 19.98,-48.84 9.01,-8.33 43.84,-27.5 104.35,-57.01 37,-18 62.82,-36.32 77.5,-55.49 14.82,-19 22.16,-43.51 22.16,-73.35z"
   id="glyph68" />
   <glyph
   unicode="t"
   horiz-adv-x="333"
   d="M343 29.67c0,-7.84 -15.17,-16.34 -45.66,-25.68 -30.51,-9.32 -58.5,-13.99 -84.34,-13.99 -62.49,0 -100.99,24.33 -115.67,72.83 -4.16,13.66 -6.33,37.98 -6.33,73.33l0 281.84 -70.83 0c-8.17,0 -12.16,3.67 -12.16,11.16l0 38.68c0,6.16 1.33,9.83 3.83,11.16 1.66,0.66 4.5,1 8.33,1l70.83 0 0 137.17c0,6.82 3.34,11.16 10.18,12.65l51.66 14.17c3.67,1.33 5.67,2.01 6.33,2.01 4.5,0 6.84,-4.01 6.84,-12.16l0 -153.84 150.17 0c6.16,0 9.15,-2.33 9.15,-6.84 0,-1.66 -0.33,-3.67 -1,-6.33l-11.16 -38.5c-2.01,-6.84 -6.65,-10.34 -14.17,-10.34l-132.99 0 0 -281.16c0,-31.84 3.34,-52.17 9.83,-60.84 10.34,-13.35 27.17,-20.01 50.33,-20.01 20.84,0 50.84,8.01 89.83,24.16 3.34,1.17 5.84,1.84 7.51,1.84 3.5,0 5.84,-2.01 6.82,-5.84l10.67 -41.18c1.35,-2.83 2.01,-4.67 2.01,-5.32z"
   id="glyph69" />
   <glyph
   unicode="u"
   horiz-adv-x="500"
   d="M450.99 22.99c-0.66,-0.82 -2.15,-2.5 -4.48,-4.83l-44.84 -29.16c-2.99,-2.01 -5.32,-3.01 -6.84,-3.01 -10.83,0 -22.48,20.01 -35.16,59.83 -51.83,-39.83 -101.83,-59.83 -150.01,-59.83 -91.16,0 -136.66,44.68 -136.66,134.18l0 344.49c0,6.84 3.34,11.32 9.83,13.17l52.01 14.17c2.5,0.66 4.67,1 6.33,1 4.5,0 6.84,-3.67 6.84,-11.18l0 -312.16c0,-43.84 5.16,-74.17 15.66,-90.83 10.34,-16.5 29.16,-24.84 56.49,-24.84 43.51,0 85.51,17 125.85,50.84l0 359.83c0,7.17 3.15,11.51 9.66,13.17l52.83 14.17c2.17,0.66 4.16,1 5.67,1 4.48,0 6.82,-3.67 6.82,-11.18l0 -349c0,-43.16 9.01,-77.5 27.01,-102.83 2.01,-2.66 2.99,-5 2.99,-7z"
   id="glyph70" />
   <glyph
   unicode="v"
   horiz-adv-x="425"
   d="M423 466.67c0,-1.35 -0.68,-3.67 -2.01,-6.84l-182.16 -457.99c-2.17,-5.84 -6.51,-8.85 -12.67,-8.85l-38.17 0c-6.49,0 -10.83,3.01 -13.17,8.85l-168.83 460.82c-1.33,2.66 -2.01,4.67 -2.01,6.35 0,3.83 3.5,6.49 10.34,7.82l58.99 13.17 3.01 0c3.17,0 5.84,-3.17 7.66,-9.34l107.01 -326.82c2.01,-4.34 4.32,-11.34 7.33,-21.01l11.67 -42c5.32,20.5 11.67,40.99 19.17,61.84l119.17 328.15c1.82,6.18 4.48,9.17 7.66,9.17 1.33,0 3.34,-0.33 6,-1l52.17 -14.17c5.84,-1.49 8.83,-4.32 8.83,-8.15z"
   id="glyph71" />
   <glyph
   unicode="w"
   horiz-adv-x="610"
   d="M600.16 469.5c0,-1.33 -0.33,-2.83 -0.98,-4.5l-1 -2.83 -132.34 -459.34c-1.84,-6.49 -5.84,-9.83 -11.67,-9.83l-39.01 0c-6.16,0 -10.32,3.34 -12.33,9.83l-78.51 303.34c-3.32,11.67 -6,26 -8.33,43l-1.99 14.68 -2.85 20.99c-3.32,-30 -8.33,-55.84 -15.15,-77.67l-93.84 -305.32c-1.82,-5.84 -6.33,-8.85 -13.17,-8.85l-37 0c-6.16,0 -10.16,3.34 -11.84,9.83l-115.16 458.83c-0.68,2.68 -1,4.5 -1,5.84 0,4.67 3.17,7.33 9.34,8.33l50.66 12.67c2.68,1 4.67,1.49 6,1.49 3.85,0 6.68,-3.34 8.17,-10.16l70.83 -347.01c0.68,-2.66 3.01,-15.5 6.84,-38.66 1,6 5.34,24.16 13.17,54.84l95.34 324.16c1.49,5.84 5.51,8.83 11.67,8.83l39.99 0c6.51,0 10.67,-2.99 12.16,-8.83l89.01 -376.01 2.83 13.68 4.83 25.49 85 343.84c1.68,5.84 4.5,8.83 8.33,8.83 1.68,0 3.5,-0.33 5.84,-1l46.01 -10.65c6.84,-1.68 10.16,-4.34 10.16,-7.84z"
   id="glyph72" />
   <glyph
   unicode="z"
   horiz-adv-x="407"
   d="M389.83 60c0,-2.33 -0.49,-5 -1.82,-8.33l-19.17 -42.65c-1.84,-6 -6.35,-9.01 -13.17,-9.01l-312 0c-7.84,0 -11.67,3.99 -11.67,12.16l0 39.66 253 365.17 -221.35 0c-7.17,0 -10.67,3.67 -10.67,11.16l0 41.18c0,7.17 3.5,10.67 10.67,10.67l304.34 0c4.83,0 7.84,-0.84 9.01,-2.5 1.17,-1.52 1.66,-4.34 1.66,-8.17l0 -42.51 -248.99 -360.83 248.99 0c4.83,0 8.01,-0.33 9.34,-1.17 1.33,-0.82 1.82,-2.5 1.82,-4.83z"
   id="glyph73" />
   <glyph
   unicode="ä"
   horiz-adv-x="462"
   d="M374 629.83c0,-14.33 -5.32,-26.66 -15.99,-37 -10.5,-10.5 -23.34,-15.66 -38.33,-15.66 -14.33,0 -26.68,5.16 -37,15.66 -10.5,10.34 -15.68,22.99 -15.68,38 0,14.66 5.18,27.17 15.68,37.49 10.32,10.5 22.99,15.68 37.98,15.68 14.68,0 27.17,-5.34 37.68,-15.85 10.34,-10.67 15.66,-23.32 15.66,-38.33zm-197.33 0c0,-14.33 -5.16,-26.66 -15.66,-37 -10.34,-10.5 -22.67,-15.66 -37,-15.66 -15.01,0 -27.85,5.16 -38.33,15.66 -10.67,10.34 -16.01,22.99 -16.01,38 0,14.66 5.34,27.17 16.01,37.49 10.48,10.5 23.32,15.68 38.33,15.68 14.66,0 26.99,-5.34 37.33,-15.85 10.18,-10.67 15.34,-23.32 15.34,-38.33zm229.01 -605.16c0,-2.01 -1.35,-3.5 -3.85,-4.83l-43 -26.84c-2.66,-2.01 -5.16,-2.99 -7.82,-2.99 -12.67,0 -25.33,20.99 -38.17,62.99 -42.84,-42 -90.67,-62.99 -143.01,-62.99 -40.34,0 -72.51,12.33 -96.16,36.82 -23.83,24.67 -35.67,58.01 -35.67,100.01 0,113.01 87.99,171 264,174.01l0 33.17c0,31.98 -7.17,54.81 -21.34,68.49 -14.17,13.66 -37.68,20.5 -70.66,20.5 -33.17,0 -73,-9.66 -119.17,-28.99 -2.66,-1.17 -5,-1.84 -6.84,-1.84 -3.67,0 -6,1.49 -6.82,4.83l-15.17 40.01 -1 7.66c0,5 8.83,11.34 26.84,19 41.32,18.16 85.82,27.34 133.32,27.34 103.84,0 155.84,-46.67 155.84,-140.16l0 -189.02c0,-55.33 8.83,-98.98 26.66,-131.31 1.33,-2.17 2.01,-4.18 2.01,-5.84zm-103.67 85.16l0 129c-124.68,-1 -187.01,-36.35 -187.01,-106.01 0,-23.49 6.84,-42.49 20.5,-57.33 13.68,-14.82 31.35,-22.32 52.66,-22.32 33.34,0 71.18,18.98 113.85,56.66z"
   id="glyph74" />
   <glyph
   unicode="ü"
   horiz-adv-x="500"
   d="M413.83 629.83c0,-14.33 -5.32,-26.66 -15.83,-37 -10.67,-10.5 -23.32,-15.66 -38.33,-15.66 -14.33,0 -26.66,5.16 -37.16,15.66 -10.34,10.34 -15.66,22.99 -15.66,38 0,14.66 5.32,27.17 15.66,37.49 10.5,10.5 23.16,15.68 38.17,15.68 14.5,0 27.17,-5.34 37.49,-15.85 10.5,-10.67 15.66,-23.32 15.66,-38.33zm-197.33 0c0,-14.33 -5.16,-26.66 -15.5,-37 -10.5,-10.5 -22.83,-15.66 -37.16,-15.66 -14.99,0 -27.83,5.16 -38.33,15.66 -10.67,10.34 -15.83,22.99 -15.83,38 0,14.66 5.16,27.17 15.83,37.49 10.5,10.5 23.34,15.68 38.33,15.68 14.66,0 27.01,-5.34 37.33,-15.85 10.34,-10.67 15.34,-23.32 15.34,-38.33zm234.49 -606.83c-0.66,-0.82 -2.15,-2.5 -4.48,-4.83l-44.84 -29.16c-2.99,-2.01 -5.32,-3.01 -6.84,-3.01 -10.83,0 -22.48,20.01 -35.16,59.83 -51.83,-39.83 -101.83,-59.83 -150.01,-59.83 -91.16,0 -136.66,44.68 -136.66,134.18l0 344.49c0,6.84 3.34,11.32 9.83,13.17l52.01 14.17c2.5,0.66 4.67,1 6.33,1 4.5,0 6.84,-3.67 6.84,-11.18l0 -312.16c0,-43.84 5.16,-74.17 15.66,-90.83 10.34,-16.5 29.16,-24.84 56.49,-24.84 43.51,0 85.51,17 125.85,50.84l0 359.83c0,7.17 3.15,11.51 9.66,13.17l52.83 14.17c2.17,0.66 4.16,1 5.67,1 4.48,0 6.82,-3.67 6.82,-11.18l0 -349c0,-43.16 9.01,-77.5 27.01,-102.83 2.01,-2.66 2.99,-5 2.99,-7z"
   id="glyph75" />
  </font>
</defs>
</svg>
