<?xml version="1.0" encoding="UTF-8" standalone="no"?>
<!-- Creator: CorelDRAW 2021 (64-Bit) -->

<svg
   xml:space="preserve"
   width="209.965mm"
   height="123.76mm"
   version="1.0"
   style="shape-rendering:geometricPrecision; text-rendering:geometricPrecision; image-rendering:optimizeQuality; fill-rule:evenodd; clip-rule:evenodd"
   viewBox="0 0 20993.04 12373.98"
   id="svg271"
   sodipodi:docname="germanistik__2-fach-m.a._.svg"
   inkscape:version="1.3-dev (77bc73e, 2022-05-18)"
   xmlns:inkscape="http://www.inkscape.org/namespaces/inkscape"
   xmlns:sodipodi="http://sodipodi.sourceforge.net/DTD/sodipodi-0.dtd"
   xmlns="http://www.w3.org/2000/svg"
   xmlns:svg="http://www.w3.org/2000/svg"><sodipodi:namedview
   id="namedview271"
   pagecolor="#ffffff"
   bordercolor="#000000"
   borderopacity="0.25"
   inkscape:showpageshadow="2"
   inkscape:pageopacity="0.0"
   inkscape:pagecheckerboard="0"
   inkscape:deskcolor="#d1d1d1"
   inkscape:document-units="mm"
   showgrid="false"
   inkscape:zoom="0.50453835"
   inkscape:cx="397.39299"
   inkscape:cy="233.87717"
   inkscape:window-width="1440"
   inkscape:window-height="900"
   inkscape:window-x="0"
   inkscape:window-y="0"
   inkscape:window-maximized="0"
   inkscape:current-layer="Ebene_x0020_1" />
 <defs
   id="defs74">
  <font
   id="FontID1"
   horiz-adv-x="556"
   font-variant="normal"
   style="fill-rule:nonzero"
   font-style="normal"
   font-weight="700">
	<font-face
   font-family="Officina Sans OS ITC TT"
   id="font-face1">
		<font-face-src>
			<font-face-name
   name="Officina Sans OS ITC TT Fett" />
		</font-face-src>
	</font-face>
   <missing-glyph
   id="missing-glyph1"><path
     d="M0 0z"
     id="path1" /></missing-glyph>
   <glyph
   unicode="("
   horiz-adv-x="443"
   d="M405.51 -214.66c0,-5.51 -2.52,-10.02 -7.67,-13.17l-51.84 -31.66c-3.18,-2.35 -7,-3.51 -11.18,-3.51 -11.15,0 -41.98,38.33 -92.83,115.16 -83.33,126.01 -125.01,256.67 -125.01,392.17 0,76 11.18,146.68 33.52,211.83 22.17,65.01 59.5,135 111.51,209.84 39,56.65 63.32,84.99 72.82,84.99 5.84,0 21.17,-8 45.83,-24 16.66,-10.66 24.85,-18.68 24.85,-23.83 0,-4.51 -2.52,-10.52 -7.67,-18.02 -43.01,-61.5 -76.36,-120.31 -100.02,-176.33 -33.16,-78.66 -49.82,-167 -49.82,-264.5 0,-81.51 11.65,-156.65 35.15,-225.67 23.33,-69 61.69,-140.65 114.69,-215.32 5.15,-7.83 7.67,-13.84 7.67,-17.99z"
   id="glyph1" />
   <glyph
   unicode=")"
   horiz-adv-x="443"
   d="M328.99 244.33c0,-76.17 -11.15,-146.82 -33.65,-212 -22.5,-64.98 -59.5,-135.17 -111.34,-210.31 -39.33,-56.68 -63.82,-85.02 -73.15,-85.02 -6.5,0 -21.84,8.16 -46,24.33 -16.52,11.18 -24.85,19.18 -24.85,24.02 0,4.48 2.68,10.49 7.83,17.99 41.18,55.66 74.5,114.33 100.35,175.83 33.16,79.68 49.82,168.16 49.82,265.17 0,109.02 -21.34,207.85 -63.99,296.66 -26.51,55.02 -55.68,103.84 -87.68,146.52 -4.15,5.48 -6.34,10.82 -6.34,15.66 0,4.15 2.68,8.5 7.83,12.65l53.17 32.19c3.35,1.99 6.5,2.99 9.85,2.99 11.32,0 42.48,-38.17 93.16,-114.66 83.33,-126.01 124.99,-256.67 124.99,-392.01z"
   id="glyph2" />
   <glyph
   unicode="-"
   horiz-adv-x="370"
   d="M331.01 216.01c0,-8.86 -1.16,-14.34 -3.51,-16.69 -2.16,-2.16 -8,-3.32 -17.49,-3.32l-250 0c-9.49,0 -15.33,1.16 -17.49,3.65 -2.35,2.52 -3.51,7.83 -3.51,16.36l0 78.99c0,9.16 1.16,14.67 3.51,16.83 2.16,2.16 8,3.18 17.49,3.18l250 0c11.65,0 18.32,-3.02 20.01,-8.86 0.66,-2.16 1,-5.98 1,-11.15l0 -78.99z"
   id="glyph3" />
   <glyph
   unicode="1"
   horiz-adv-x="537"
   d="M460.01 21.01c0,-9.33 -1.16,-15.33 -3.35,-17.52 -2.32,-2.32 -8.16,-3.49 -17.66,-3.49l-293.01 0c-8.99,0 -14.83,1.16 -17.33,3.49 -2.32,2.19 -3.68,8.19 -3.68,17.52l0 51.01c0,11.98 3.18,18.65 9.35,19.98 2.49,0.66 6.5,1 11.65,1l95.01 0 0 348 -80.01 -44.5c-5.15,-2.99 -8.83,-4.32 -11.15,-4.32 -4.18,0 -8.66,4.15 -13.67,12.65l-26.35 45.33c-2.49,4.51 -3.82,8.86 -3.82,12.68 0,5.51 3.82,10.85 11.32,16.16l160.02 116.02 69.66 0c11.65,0 18.32,-3.02 19.98,-8.86 0.69,-2.49 1.02,-6.31 1.02,-11.15l0 -482.01 71.16 0c11.68,0 18.32,-2.99 19.84,-8.83 0.66,-2.49 1,-6.67 1,-12.15l0 -51.01z"
   id="glyph4" />
   <glyph
   unicode="2"
   horiz-adv-x="537"
   d="M471 435.32c0,-46.99 -13.34,-86.99 -39.99,-120.14 -12.34,-15 -24.66,-27.18 -37,-36.67 -12.34,-9.49 -39.99,-27.18 -83,-53.17 -40.66,-24.85 -67.17,-44.34 -79.65,-58.67 -12.68,-14.34 -19.68,-32.49 -21.34,-54.66l234 0c11.98,0 18.65,-3.02 19.98,-8.83 0.66,-2.52 1,-6.67 1,-12.18l0 -69.99c0,-11.68 -2.99,-18.35 -8.83,-20.01 -2.66,-0.66 -6.67,-1 -12.15,-1l-360.01 0c-9.33,0 -14.17,4.68 -14.17,14.17l0 7.83c0,62.83 9.16,111.18 27.34,145 25.49,47.82 75.33,95.18 149.84,142.17 45,28.34 71.99,47.66 80.98,57.98 14.67,17.02 22,37.34 22,61.19 0,49.82 -27.98,74.64 -84,74.64 -41.49,0 -74.34,-28.64 -98,-85.99 -4.15,-10.16 -9.33,-15.17 -15.17,-15.17 -1.99,0 -5.51,1 -10.66,2.99l-64.02 24.36c-8.16,2.99 -12.15,7.83 -12.15,14.67 0,11.49 5.48,27.98 16.66,49.65 10.99,21.67 23.17,40.16 36.51,55.49 37.83,43.34 91.33,65.01 160.49,65.01 57.68,0 103.84,-16.33 138.82,-48.82 35.01,-32.52 52.5,-75.83 52.5,-129.86z"
   id="glyph5" />
   <glyph
   unicode="3"
   horiz-adv-x="537"
   d="M464.99 117.15c0,-62.49 -23.66,-113.67 -70.82,-153.33 -42.34,-35.15 -95.01,-52.83 -158.17,-52.83 -57.65,0 -111.18,11.02 -160.66,32.69 -19.51,8.83 -29.34,16.16 -29.34,21.97 0,2.02 0.66,5.51 1.99,10.35l20.01 71.82c1.66,6.17 5.34,9.35 11.15,9.35 2.35,0 5.51,-1.02 9.85,-3.02 50.98,-24.83 96.48,-37.17 136.17,-37.17 73.81,0 110.82,35.67 110.82,107 0,66.67 -41.98,100.02 -125.98,100.02l-29.67 0c-12.18,0 -18.85,2.99 -20.01,8.83 -0.66,2.49 -1,6.67 -1,12.15l0 66.01c0,11.68 2.82,18.32 8.66,20.01 2.68,0.66 6.84,1 12.34,1l31.66 0c33.32,0 57.68,5.67 73.34,17.16 23.17,17.16 34.65,42.84 34.65,76.66 0,25.19 -7.5,45.33 -22.5,60.5 -15,15.17 -34.82,22.67 -59.5,22.67 -32.33,0 -62.16,-16.99 -89.98,-51.01 -5.51,-6.48 -9.85,-9.66 -13.17,-9.66 -1.83,0 -4.84,1.16 -8.66,3.85l-55.35 49.82c-3.16,3.02 -4.82,6.34 -4.82,10.35 0,7.17 7,18.32 20.98,33.65 41.02,45.33 93.85,68 158.17,68 59.01,0 106.5,-16.33 142.67,-49.15 36.17,-32.69 54.16,-75.5 54.16,-128.67 0,-68.66 -31.5,-118.34 -94.65,-149.01 78.49,-25.32 117.65,-82 117.65,-170.02z"
   id="glyph6" />
   <glyph
   unicode="4"
   horiz-adv-x="537"
   d="M500.33 63.99c0,-11.65 -3.16,-18.32 -9.33,-19.98 -2.68,-0.66 -6.5,-1 -11.85,-1l-57.15 0 0 -129c0,-9.52 -1.16,-15.33 -3.35,-17.52 -2.32,-2.32 -8.16,-3.49 -17.66,-3.49l-83 0c-11.68,0 -18.32,3.16 -20.01,9.33 -0.66,2.49 -1,6.5 -1,11.68l0 129 -244.99 0c-9.49,0 -15.33,1 -17.66,3.16 -2.19,2.16 -3.35,7.67 -3.35,16.83l0 105 249 416.83c5.18,8.83 9.99,13.17 14.17,13.17 2.66,0 7,-1.33 13.17,-3.85l60.17 -26.49c9.66,-4.18 14.47,-8.33 14.47,-12.68 0,-3.16 -1.83,-8.33 -5.81,-15.17l-232.84 -395.83 155.65 0 13.01 161.16c0.66,8.83 2.16,14.34 4.68,16.66 2.49,2.19 7.83,3.35 16.33,3.35l68 0c12.01,0 18.65,-2.99 20.01,-9.16 0.66,-2.68 1,-6.67 1,-11.85l0 -163.15 57.15 0c9.52,0 15.33,-1.36 17.69,-3.85 2.32,-2.66 3.49,-9.33 3.49,-20.01l0 -53.17z"
   id="glyph7" />
   <glyph
   unicode="F"
   horiz-adv-x="444"
   d="M460.01 674.83c0,0.5 -0.66,-3.65 -2.02,-12.84l-19.98 -67.83c-3.18,-11.49 -10.52,-17.16 -22,-17.16l-194.01 0 0 -163.98 167.16 0c11.68,0 18.35,-3.18 20.01,-9.35 0.66,-2.49 1,-6.5 1,-11.65l0 -67c0,-12.01 -2.99,-18.68 -9.33,-20.01 -2.49,-0.66 -6.5,-1 -11.68,-1l-167.16 0 0 -282.99c0,-11.68 -3.16,-18.35 -9.33,-20.01 -2.49,-0.66 -6.5,-1 -11.65,-1l-95.01 0c-9.49,0 -15.33,1.16 -17.66,3.32 -2.19,2.35 -3.35,8.19 -3.35,17.69l0 644c0,9.49 1.16,15.33 3.51,17.66 2.16,2.16 8,3.35 17.49,3.35l334 0c13.34,0 20.01,-3.68 20.01,-11.18z"
   id="glyph8" />
   <glyph
   unicode="G"
   horiz-adv-x="556"
   d="M508.99 59.17c0,-11.02 -5.15,-20.01 -15.66,-26.85 -50.51,-32.82 -112.84,-49.32 -187.01,-49.32 -176.82,0 -265.33,119.67 -265.33,358.82 0,240.84 89.67,361.18 269.01,361.18 63.49,0 118.84,-14.67 166,-43.84 12.68,-8.16 19.15,-14.83 19.15,-20.01 0,-2.66 -0.66,-5.48 -1.99,-8.33l-37.17 -74.67c-2.32,-3.65 -4.48,-5.31 -6.84,-5.31 -3.16,0 -6.34,1.16 -9.33,3.32 -50.34,27.18 -91.83,40.85 -123.99,40.85 -42.01,0 -73.01,-14.83 -92.85,-44.5 -27.98,-41.35 -41.98,-108.85 -41.98,-202.51 0,-92.83 10.66,-158.67 31.83,-197.33 20.51,-37.17 55.32,-55.66 104.17,-55.66 23.83,0 46.83,5.15 69,15.66l0 140.32 -75 0c-11.65,0 -18.32,3.18 -20.01,9.33 -0.66,2.52 -1,6.5 -1,11.68l0 67c0,9.49 1.16,15.33 3.68,17.49 2.49,2.32 8.16,3.51 17.33,3.51l176.99 0c9.19,0 14.83,-1.19 17.35,-3.51 2.49,-2.16 3.65,-8 3.65,-17.49l0 -279.84z"
   id="glyph9" />
   <glyph
   unicode="M"
   horiz-adv-x="704"
   d="M636.33 13.17c0,-8.83 -7,-13.17 -21.01,-13.17l-90.34 0c-8.33,0 -14,1.16 -16.5,3.32 -2.66,2.35 -4.15,7.83 -4.48,16.69l-6.84 387.16c0,35.15 0.33,71.82 1,109.99 -14.5,-65.15 -27.01,-113.5 -37,-145.16l-63.85 -205c-2.32,-7.5 -4.48,-12.01 -6.81,-13.67 -2.35,-1.66 -7.67,-2.49 -16.02,-2.49l-61 0c-8.16,0 -13.15,1 -15.33,2.66 -2.16,1.85 -4.32,6.67 -6.5,14.5l-56.16 194.84c-10.99,39 -23.17,90.5 -36.51,154.32l0 -157.34 -8 -339.81c0,-8.86 -1.33,-14.34 -3.82,-16.69 -2.68,-2.16 -8.33,-3.32 -17.19,-3.32l-80.98 0c-13.34,0 -20.01,4.84 -20.01,14.5l0 5.51 29.34 645.99c0.66,13.34 7.67,20.01 21.01,20.01l98.67 0c11.32,0 18.82,-5.34 22.33,-16.19l79.65 -252.82c6.84,-20.84 16,-59.34 27.34,-115.16 12.68,47.82 24,86.49 33.65,116.16l85.02 251.83c2.66,7.5 4.98,12.18 6.97,13.67 2.19,1.66 7.17,2.52 15,2.52l94.18 0c8.5,0 14,-1.19 16.66,-3.35 2.49,-2.32 4.01,-7.83 4.35,-16.66l33.16 -652.83z"
   id="glyph10" />
   <glyph
   unicode="S"
   horiz-adv-x="482"
   d="M452.01 193.99c0,-61.81 -20.19,-112 -60.33,-150.34 -40.19,-38.49 -92.66,-57.64 -157.83,-57.64 -40.33,0 -85.17,7.16 -134.69,21.48 -49.49,14.35 -74.17,27.16 -74.17,38.53 0,1.99 0.7,5.65 2.03,11.14l33.14 85.83c2.36,6.01 5.17,8.86 8.86,8.86 2.18,0 5.31,-1.03 9.15,-2.84 59.67,-32.66 110.67,-49.01 152.99,-49.01 59.85,0 89.86,27.68 89.86,82.99 0,25.02 -7.01,45.35 -21,61 -13.36,14.69 -51.33,37.68 -113.84,68.82 -59.82,30 -100.85,58.67 -122.99,86.2 -22.18,27.49 -33.17,63.32 -33.17,107.64 0,59.19 19.82,106.35 59.34,141.19 39.48,34.84 92.84,52.14 159.82,52.14 39.34,0 81,-7.16 125.02,-21.66 43.8,-14.5 65.83,-28.16 65.83,-41.15 0,-1.37 -1.03,-4.17 -2.84,-8.34l-36.16 -75.69c-2.36,-4.83 -5.35,-7.31 -8.86,-7.31 -2.32,0 -15.31,6.16 -39.15,18.16 -34.17,17.34 -67.49,25.98 -100.15,25.98 -28.01,0 -50.19,-6.49 -66.35,-19.48 -16.35,-12.99 -24.5,-30.85 -24.5,-53.18 0,-25.17 12.99,-46.16 39.01,-62.99 9.48,-6.35 44.5,-24.65 104.99,-55.32 51.51,-25.68 88.67,-54.69 111.52,-86.87 22.99,-32.14 34.5,-71.66 34.5,-118.16z"
   id="glyph11" />
   <glyph
   unicode="a"
   horiz-adv-x="482"
   d="M439.83 28.01c0,-4.68 -2.66,-7.83 -7.83,-9.85l-78.16 -31.16c-3.02,-1.99 -7,-2.99 -12.18,-2.99 -9.16,0 -19.15,19.65 -29.84,59.01 -37.17,-38 -79.65,-57.01 -128,-57.01 -45.83,0 -82.34,13.67 -109.32,41.02 -27.01,27.32 -40.52,64.15 -40.52,110.32 0,87.51 49.68,141.01 149.01,160.49 26.18,5.18 63.52,8.33 112.01,9.35l0 30.67c0,28.64 -4.68,48.32 -14.17,58.98 -9.49,10.85 -26.65,16.19 -51.84,16.19 -30,0 -67.34,-8.69 -112.01,-25.85 -4.15,-2.16 -8,-3.32 -11.15,-3.32 -4.18,0 -7.5,3.32 -9.83,10.16l-21.01 60c-1.66,3.49 -2.49,7.17 -2.49,10.66 0,10.85 18.65,21.17 55.82,31.16 37,10.18 75.67,15.17 115.66,15.17 80.51,0 132.35,-25.66 155.85,-77.16 9.49,-20.48 14.17,-47.99 14.17,-82.84l0 -204c0,-40.32 7.67,-76.33 22.83,-107.83 1.99,-4.32 2.99,-8 2.99,-11.15zm-144.83 85.66l0 110.51c-50.01,0 -85.99,-6.17 -107.49,-18.35 -21.67,-12.32 -32.52,-32.82 -32.52,-61.83 0,-19.68 6.17,-36.01 18.52,-49.15 12.34,-13.17 27.51,-19.84 45.33,-19.84 26.65,0 52.17,12.84 76.17,38.66z"
   id="glyph12" />
   <glyph
   unicode="c"
   horiz-adv-x="407"
   d="M405.51 454c0,-4.01 -0.86,-7.67 -2.85,-11.18l-34.65 -63.99c-2.68,-4.51 -5.67,-6.84 -9.35,-6.84 -2.82,0 -6.14,1.33 -9.66,4.01 -31,22.67 -59.17,33.99 -84.99,33.99 -66.01,0 -99,-55.99 -99,-167.83 0,-105.5 33.32,-158.17 99.99,-158.17 26.65,0 54,9.33 82,27.84 4.82,3.49 8.5,5.31 10.66,5.31 3.02,0 5.84,-2.32 8.33,-7.33l24 -61c1.85,-4.82 2.85,-8.66 2.85,-11.65 0,-12.68 -15.66,-24.83 -47.16,-36.67 -31.36,-11.65 -64.02,-17.49 -97.84,-17.49 -68,0 -120.83,22.17 -158.5,66.67 -37.5,44.31 -56.35,106.66 -56.35,187.15 0,84.83 20.67,151.83 61.86,200.68 41.15,48.99 97.48,73.48 169.16,73.48 30.5,0 61.83,-6.48 93.66,-19.32 31.99,-12.84 47.85,-25.32 47.85,-37.67z"
   id="glyph13" />
   <glyph
   unicode="e"
   horiz-adv-x="480"
   d="M449.99 237.82c0,-8.66 -1.33,-15 -3.82,-18.99 -2.66,-3.85 -8.66,-5.84 -17.99,-5.84l-268.18 0c1.99,-84 38.83,-126.01 110.51,-126.01 37.17,0 75,10.35 113.33,31.19 5.15,2.66 9.49,3.82 12.98,3.82 5.01,0 8.69,-2.99 11.35,-9.16l24.66 -59.5c1.99,-5.01 3.02,-8.66 3.02,-11.32 0,-8.69 -13.67,-19.01 -41.02,-30.69 -43.67,-18.82 -89.67,-28.31 -138.16,-28.31 -63.52,0 -113.17,16.5 -149.01,49.32 -49.82,45.5 -74.67,115.85 -74.67,210.84 0,80.34 20.01,145 60,194.18 40.19,49.15 93.02,73.65 158.83,73.65 132.18,0 198.16,-91 198.16,-273.17zm-132.98 68.17c-1,41.51 -7,70.85 -18.18,88.01 -10.99,17.33 -29.31,25.99 -54.66,25.99 -29.67,0 -51.34,-12.48 -64.65,-37.67 -8.83,-16.33 -15,-41.82 -18.52,-76.33l156.01 0z"
   id="glyph14" />
   <glyph
   unicode="h"
   horiz-adv-x="537"
   d="M471.99 16.99c0,-11.32 -5.65,-16.99 -17.16,-16.99l-93.16 0c-11.18,0 -16.66,5.67 -16.66,17.16l0 308.67c0,30.33 -4.18,52 -12.68,64.85 -8.5,12.81 -22.67,19.32 -42.51,19.32 -27.32,0 -55.82,-13.67 -85.82,-41.15l0 -351.68c0,-11.49 -5.67,-17.16 -17.16,-17.16l-92.69 0c-11.49,0 -17.16,5.67 -17.16,17.16l0 668.85c0,9.99 4.84,16 14.67,17.99l93.32 18.99c1.85,0.69 4.84,1.02 8.86,1.02 6.81,0 10.16,-5.67 10.16,-17.02l0 -253.82c40.66,38.5 86.49,57.82 137.66,57.82 51.51,0 88.18,-17.99 110.35,-54.16 13.31,-21.84 19.98,-56.16 19.98,-102.98l0 -336.85z"
   id="glyph15" />
   <glyph
   unicode="i"
   horiz-adv-x="295"
   d="M236 641.01c0,-22.5 -7.83,-41.51 -23.5,-57.35 -15.66,-15.83 -34.84,-23.66 -57.68,-23.66 -22.67,0 -41.65,7.83 -57.32,23.66 -15.66,15.83 -23.5,35.18 -23.5,58.34 0,21.84 8,40.49 24,56.32 16,15.83 35.18,23.66 57.68,23.66 22.31,0 41.15,-8 56.82,-23.83 15.66,-16 23.5,-34.98 23.5,-57.15zm-14 -624.02c0,-11.32 -5.65,-16.99 -17.16,-16.99l-93.16 0c-11.18,0 -16.66,5.67 -16.66,17.16l0 383.84 -76 0c-11.35,0 -17.02,5.67 -17.02,16.99l0 59.01c0,11.32 5.67,16.99 17.02,16.99l185.98 0c11.35,0 16.99,-5.67 16.99,-16.99l0 -460.01z"
   id="glyph16" />
   <glyph
   unicode="k"
   horiz-adv-x="500"
   d="M502.82 43.01c0,-4.18 -3.32,-8.16 -9.83,-12.18l-78.99 -44.01c-5.01,-2.49 -8.33,-3.82 -10.35,-3.82 -3.82,0 -8.16,3.16 -12.65,9.33l-187.01 239.68 0 -214.85c0,-11.49 -5.67,-17.16 -17.16,-17.16l-92.69 0c-11.49,0 -17.16,5.67 -17.16,17.16l0 668.85c0,9.99 4.84,16 14.67,17.99l102.18 20.01c6.81,0 10.16,-5.67 10.16,-17.02l0 -400.84 193.84 195.01c5.15,5.18 9.33,7.83 12.15,7.83 1.99,0 5.84,-2.32 11.68,-6.84l54.33 -42.98c5.18,-4.18 7.67,-8.33 7.67,-12.18 0,-3.32 -2.16,-7.17 -6.84,-11.68l-164.01 -158.31 184.19 -221.69c3.82,-4.32 5.81,-8.33 5.81,-12.32z"
   id="glyph17" />
   <glyph
   unicode="m"
   horiz-adv-x="777"
   d="M714.99 16.99c0,-11.32 -5.65,-16.99 -17.16,-16.99l-92.66 0c-11.51,0 -17.16,5.67 -17.16,16.99l0 316.01c0,51.34 -15,77 -45,77 -24.69,0 -53.33,-15 -86.02,-44.84l0 -348.17c0,-11.32 -5.65,-16.99 -17.16,-16.99l-90.67 0c-11.49,0 -17.16,5.67 -17.16,17.16l0 307.68c0,28.17 -1.66,46.99 -4.84,56.82 -6.17,18.85 -19.98,28.34 -41.15,28.34 -25.02,0 -53.66,-14.34 -86.02,-43.01l0 -349.83c0,-11.49 -5.65,-17.16 -17.16,-17.16l-91.17 0c-11.15,0 -16.66,5.67 -16.66,16.99l0 335.85c0,40.99 -6.01,77 -17.99,107.99 -2.02,3.82 -3.02,7.67 -3.02,11.15 0,5.51 3.68,9.52 10.85,11.68l81.15 27.32c6.5,1.36 9.85,2.02 9.85,2.02 11.65,0 22.5,-24 32.16,-72.01 50.68,46.66 100.33,69.99 149.34,69.99 51.48,0 87.82,-23.33 108.99,-69.99 51.67,46.66 103.18,69.99 154.66,69.99 46.66,0 78.68,-16.83 95.84,-50.32 12.18,-23 18.16,-61.33 18.16,-114.66l0 -329.02z"
   id="glyph18" />
   <glyph
   unicode="n"
   horiz-adv-x="537"
   d="M472.99 16.99c0,-11.32 -5.65,-16.99 -17.16,-16.99l-93.16 0c-11.18,0 -16.66,5.67 -16.66,17.16l0 308.67c0,56.16 -19.01,84.16 -57.18,84.16 -25.99,0 -54.99,-13.67 -86.82,-41.15l0 -351.68c0,-11.49 -5.67,-17.16 -17.19,-17.16l-93.16 0c-11.15,0 -16.66,5.67 -16.66,17.16l0 335.85c0,42.82 -6.84,79.15 -20.67,108.82 -2.16,4.18 -3.32,7.67 -3.32,10.16 0,4.01 2.82,6.84 8.33,8.83l88.67 33.18c3.65,1.33 6.97,1.99 10.32,1.99 12.34,0 24.16,-23 35.67,-69.16 46.5,42.84 96.31,64.15 149.65,64.15 86.18,0 129.33,-52.67 129.33,-158.14l0 -335.85z"
   id="glyph19" />
   <glyph
   unicode="r"
   horiz-adv-x="351"
   d="M365.16 488.49c0,-1.83 -0.66,-5.48 -2.32,-10.66l-30.83 -80.84c-2.32,-5.81 -4.84,-8.83 -7.83,-8.83 -1,0 -3.35,0.66 -7.33,2.02 -15,5.15 -28.34,7.83 -39.99,7.83 -21.5,0 -46.86,-16.02 -75.83,-47.85l0 -333c0,-11.49 -5.67,-17.16 -17.19,-17.16l-93.16 0c-11.18,0 -16.66,5.67 -16.66,16.99l0 303.66c0,47.85 -10.02,94.18 -30,139.18 -1.33,3.82 -1.99,7 -1.99,9.16 0,4.32 3.32,7.5 9.83,9.83l81.01 28.67c5.81,2.32 9.99,3.49 12.15,3.49 13.34,0 26.02,-25.99 38.17,-77.83 7.83,9.33 19.01,22.33 33.68,38.83 25.99,26.02 56.49,39 91.33,39 14.67,0 27.81,-2.32 39.49,-6.81 11.65,-4.51 17.49,-9.69 17.49,-15.69z"
   id="glyph20" />
   <glyph
   unicode="s"
   horiz-adv-x="425"
   d="M393 145c0,-45.5 -15.33,-84.16 -45.83,-116.16 -29.5,-30.5 -70.49,-45.83 -122.66,-45.83 -58.84,0 -115.35,14 -169.52,41.98 -14.67,7.5 -22,13.84 -22,19.01 0,2.66 1,6.67 3.02,12.15l22.83 61c2.66,6.5 6.01,9.85 9.83,9.85 2.32,0 5.34,-1 9.33,-3.02 52.83,-28.64 98,-42.98 135.84,-42.98 38.83,0 58.18,17.16 58.18,51.67 0,14.31 -4.84,25.49 -14.34,33.32 -9.66,7.67 -30.5,17.66 -62.66,29.67 -52.5,20.15 -87.01,38.33 -104.01,54.16 -26.68,25.49 -39.99,58.18 -39.99,98.17 0,47.82 16.66,86.99 49.98,117.32 33.35,30.5 76,45.67 128,45.67 31.5,0 64.85,-5.31 99.99,-16.16 35.01,-10.66 52.67,-20.65 52.67,-30.17 0,-2.49 -1,-6.14 -2.99,-10.66l-24.66 -57.01c-2.68,-5.81 -6.01,-8.83 -10.18,-8.83 -1.33,0 -3.99,0.66 -7.83,2.02 -38.5,17.16 -71.99,25.82 -100.49,25.82 -42.34,0 -63.49,-16.99 -63.49,-50.84 0,-13.67 4.15,-24.16 12.32,-31.33 8.16,-7.33 25.85,-16.33 53,-26.65 60,-23.52 98.33,-43.51 115.02,-60 27.15,-26.85 40.66,-60.83 40.66,-102.18z"
   id="glyph21" />
   <glyph
   unicode="t"
   horiz-adv-x="370"
   d="M365.99 22c0,-8.16 -10.32,-15.33 -31.16,-22 -35.15,-11.32 -68.83,-16.99 -101.16,-16.99 -59.17,0 -99.5,21.5 -121,64.49 -9.16,18.85 -13.67,49.85 -13.67,92.69l0 260.82 -69.33 0c-11.18,0 -16.66,5.67 -16.66,16.99l0 59.01c0,11.32 5.48,16.99 16.66,16.99l69.33 0 0 126.18c0,10.49 5.34,16.5 16.16,18.16l91.83 12.68 8.83 0c6.84,0 10.18,-5.34 10.18,-16.16l0 -140.84 113.67 0c11.32,0 17.16,-3.32 17.16,-10.16 0,-4.01 -0.33,-6.84 -1,-8.83l-13.17 -58.84c-1.99,-10.16 -7.83,-15.17 -17.66,-15.17l-99 0 0 -243c0,-22.83 1.16,-37.5 3.49,-44.01 4.51,-13.34 15.66,-20.01 33.52,-20.01 15.66,0 37.67,5.67 65.98,16.85 3.18,1.33 6.17,1.99 8.69,1.99 4.65,0 8,-3.35 10.32,-9.83l15.66 -69.69c1.49,-5.98 2.32,-9.66 2.32,-11.32z"
   id="glyph22" />
  </font>
  <font
   id="FontID0"
   horiz-adv-x="537"
   font-variant="normal"
   style="fill-rule:nonzero"
   font-style="normal"
   font-weight="400">
	<font-face
   font-family="Officina Sans OS ITC TT"
   id="font-face22">
		<font-face-src>
			<font-face-name
   name="Officina Sans OS ITC TT" />
		</font-face-src>
	</font-face>
   <missing-glyph
   id="missing-glyph22"><path
     d="M0 0z"
     id="path22" /></missing-glyph>
   <glyph
   unicode="("
   horiz-adv-x="370"
   d="M316.84 -202.18c0,-3.82 -5.67,-9.49 -16.83,-16.83 -11.18,-7.33 -20.01,-10.99 -26.18,-10.99 -9.66,0 -32.66,26.98 -68.83,80.98 -82,122.86 -122.99,255.51 -122.99,398.01 0,153.66 48.32,296.66 145,429.18 24.49,33.16 39.99,49.82 46.83,49.82 3.68,0 7.67,-1.33 12.34,-3.82l23.83 -15.17c4.68,-3.02 6.84,-5.84 6.84,-8.86 0,-3.82 -2.85,-9.99 -8.83,-17.99 -96.01,-128 -144,-272.33 -144,-433.16 0,-159.83 47.99,-304.16 144,-433.16 5.98,-8 8.83,-14.17 8.83,-18.02z"
   id="glyph23" />
   <glyph
   unicode=")"
   horiz-adv-x="370"
   d="M289 249c0,-153.33 -48.32,-296.33 -145.16,-429.18 -24.33,-33.16 -39.99,-49.82 -46.83,-49.82 -3.51,0 -7.67,1.33 -12.18,3.82l-24 14.17c-4.51,3.68 -6.84,6.84 -6.84,9.83 0,3.85 3.02,10.02 8.83,18.02 96.18,129 144.17,273.33 144.17,433.16 0,159.83 -47.99,304.16 -144.17,433.16 -5.81,7.83 -8.83,13.84 -8.83,17.99 0,3.02 7.67,9.35 23,19.01 9.33,5.84 16.16,8.83 20.01,8.83 9.16,0 31.99,-26.98 68.83,-81.01 82.17,-120.5 123.16,-253.16 123.16,-397.99z"
   id="glyph24" />
   <glyph
   unicode="*"
   horiz-adv-x="500"
   d="M415.01 543.01c0,-4.35 -3.68,-7.17 -11.18,-8.83l-113.83 -26.35 77.16 -88.01c3.35,-3.82 5.01,-6.81 5.01,-8.83 0,-3.49 -2.82,-7.33 -8.33,-11.15l-34.68 -25.02c-4.98,-3.16 -8,-4.82 -9.33,-4.82 -3.16,0 -6.5,2.66 -9.83,7.83l-60 100.16 -60 -100.16c-3.32,-5.18 -6.5,-7.83 -9.83,-7.83 -2.19,0 -5.67,1.66 -10.18,4.82l-35.15 26.02c-5.34,3.82 -7.83,7 -7.83,9.16 0,1.99 1.99,5.34 5.84,9.83l76.17 88.01 -112.84 26.35c-8.16,1.66 -12.18,4.48 -12.18,8.83 0,1.16 0.66,3.82 1.99,7.83l14.17 41.98c2.19,7.5 5.18,11.18 8.66,11.18 0.33,0 3.18,-1 8.33,-3.02l108.02 -45.83 -11.35 121.5c0,6.17 4.84,9.35 14.17,9.35l44.01 0c8.83,0 13.17,-2.68 13.17,-7.83l0 -6.34 -10.18 -116.68 111.34 46.83c2.49,1.36 4.18,2.02 4.84,2.02 3.49,0 6.48,-3.68 8.83,-11.18l14.5 -46.5c0.33,-1.33 0.5,-2.32 0.5,-3.32z"
   id="glyph25" />
   <glyph
   unicode=","
   horiz-adv-x="295"
   d="M233.01 107.16c0,-1.66 -1.33,-4.82 -4.01,-9.83l-115.16 -212.5c-3.32,-5.84 -6.5,-8.83 -9.83,-8.83 -1,0 -2.68,0.33 -4.84,1l-2.99 1 -22 8.33c-7.5,2.49 -11.18,5.51 -11.18,8.66 0,0.66 0.66,3.35 2.02,7.83l57.98 200.51c1.99,7.17 7,10.66 15.17,10.66l81.17 0c8.99,0 13.67,-2.32 13.67,-6.84z"
   id="glyph26" />
   <glyph
   unicode="-"
   horiz-adv-x="351"
   d="M314.85 232.18c0,-9.52 -4.68,-14.17 -14.17,-14.17l-250 0c-9.19,0 -13.67,4.65 -13.67,14.17l0 46.66c0,9.49 4.48,14.17 13.67,14.17l250 0c9.49,0 14.17,-4.68 14.17,-14.17l0 -46.66z"
   id="glyph27" />
   <glyph
   unicode="."
   horiz-adv-x="295"
   d="M219.17 57.18c0,-19.51 -7,-36.17 -20.84,-50.18 -13.84,-14 -30.33,-21.01 -49.49,-21.01 -19.84,0 -36.67,6.84 -50.34,20.51 -13.67,13.67 -20.51,30.5 -20.51,50.68 0,19.48 7,36.15 21.01,49.65 14,13.51 31,20.18 50.84,20.18 18.49,0 34.65,-6.84 48.49,-20.67 13.84,-13.84 20.84,-30.17 20.84,-49.15z"
   id="glyph28" />
   <glyph
   unicode="0"
   horiz-adv-x="500"
   d="M456.99 292.18c0,-204.17 -69.16,-306.18 -207.49,-306.18 -57.68,0 -102.85,19.68 -135.5,59.01 -46,55.99 -69,134.34 -69,234.83 0,96.67 18.82,171.84 56.49,225.67 37.67,53.66 90.34,80.48 157.84,80.48 63.68,0 112.5,-25.32 146.52,-75.83 34.15,-50.65 51.15,-123.33 51.15,-217.98zm-82 -2.35c0,150.17 -40.49,225.17 -121.5,225.17 -39.99,0 -70.99,-20.18 -93.16,-60.33 -22.17,-40.16 -33.32,-96.34 -33.32,-168.66 0,-76.83 11.98,-136.17 36.01,-178.18 19.48,-33.82 48.65,-50.81 87.48,-50.81 44.84,0 76.33,19.32 94.85,58.15 19.82,42.01 29.64,100.16 29.64,174.67z"
   id="glyph29" />
   <glyph
   unicode="1"
   horiz-adv-x="500"
   d="M424.83 14.17c0,-9.49 -4.51,-14.17 -13.67,-14.17l-264.17 0c-9.49,0 -14.14,4.68 -14.14,14.17l0 37.67c0,9.49 4.65,14.17 14.14,14.17l102.01 0 0 426.16 -111.84 -67.34c-4.48,-2.66 -8,-3.99 -10.16,-3.99 -3.02,0 -5.34,2.49 -6.84,7.33l-13.17 24c-1.99,3.49 -2.99,6.5 -2.99,8.83 0,3.16 2.32,6.67 6.84,10.16l150.31 109.85 49.68 0c9.49,0 14.17,-4.68 14.17,-14.17l0 -500.83 86.16 0c8.99,0 13.67,-4.68 13.67,-14.17l0 -37.67z"
   id="glyph30" />
   <glyph
   unicode="3"
   horiz-adv-x="500"
   d="M433.99 109.82c0,-57.15 -19.65,-103.48 -58.81,-138.82 -39.19,-35.31 -90.67,-53 -154.68,-53 -34.32,0 -70.16,5.01 -107.99,15.17 -37.67,9.99 -56.52,19.68 -56.52,28.84 0,1.49 1.02,4.68 3.02,9.16l19.98 45c1.69,3.85 3.85,5.84 6.84,5.84 2.52,0 10.18,-2.99 23,-8.83 33.85,-16.16 70.52,-24.16 109.85,-24.16 88.84,0 133.32,41.32 133.32,123.99 0,82 -48.65,122.99 -145.99,122.99l-34.32 0c-9.02,0 -13.67,4.68 -13.67,14l0 39.99c0,9.35 4.65,14 13.84,14l33.16 0c39.33,0 70.82,10.85 93.99,32.49 23.36,21.67 35.01,50.68 35.01,87.18 0,29.34 -8.83,52.83 -26.32,70.16 -17.69,17.49 -41.35,26.18 -70.85,26.18 -36.51,0 -70.16,-17.02 -100.66,-50.84 -7.83,-8.66 -14.17,-13.17 -19.18,-13.17 -2.16,0 -4.98,1.33 -8.16,4.01l-32.82 27.81c-3.49,2.35 -5.34,5.01 -5.34,8.33 0,10.02 16.16,27.01 48.35,50.84 34.82,26.02 75,39 120.67,39 50.65,0 92,-14.83 123.66,-44.5 31.83,-29.48 47.66,-68.17 47.66,-115.66 0,-70.66 -34.32,-119.67 -102.98,-146.99 27.81,-8.5 49.32,-18.68 64.49,-30.67 41.02,-32.69 61.5,-78.68 61.5,-138.35z"
   id="glyph31" />
   <glyph
   unicode="7"
   horiz-adv-x="500"
   d="M426.66 538.83l-230.82 -605.67c-2.32,-6.67 -5.67,-10.16 -9.83,-10.16 -0.69,0 -2.02,0 -3.85,0l-1.99 0 -54.16 8.33c-8.16,1 -12.34,3.49 -12.34,7.83 0,1.99 1.16,5.01 3.49,9.33l215.85 555.52 -257.83 0c-9.49,0 -14.17,4.65 -14.17,14.14l0 43.67c0,9.49 4.68,14.17 14.17,14.17l337.84 0c9.16,0 13.64,-4.68 13.64,-14.17l0 -23z"
   id="glyph32" />
   <glyph
   unicode="8"
   horiz-adv-x="500"
   d="M460.01 167.16c0,-44.34 -14.34,-83 -43.01,-116.16 -37.67,-43.34 -93.16,-65.01 -166,-65.01 -64.15,0 -115.33,16.33 -153.66,48.85 -38.17,32.49 -57.35,76 -57.35,130.33 0,53.5 19.01,97.01 57.18,130.83 18.82,17.33 48.49,33.85 88.84,49.35 -78.68,30.67 -118.01,80.32 -118.01,148.98 0,42.34 15.33,78.68 45.83,108.85 33.82,33.16 79.85,49.82 138.16,49.82 53,0 96.01,-13.84 129.17,-41.65 33.18,-27.84 49.85,-64.02 49.85,-108.19 0,-67.83 -37.67,-119.64 -113.17,-155.82 94.82,-38.17 142.17,-98.17 142.17,-180.17zm-105 327.99c0,28.34 -9.66,51.17 -29,68.17 -19.51,17.19 -45,25.68 -77,25.68 -30.5,0 -55.16,-8.5 -74.01,-25.35 -18.65,-16.99 -28.01,-39.16 -28.01,-66.48 0,-46.69 35.34,-86.35 106,-119.17 68,27.68 102.01,66.67 102.01,117.15zm23 -332.84c0,63.68 -43.34,112.01 -130,144.86 -84,-34.51 -126.01,-82.84 -126.01,-144.86 0,-33.32 11.85,-59.97 35.67,-80.15 23.83,-20.18 55.16,-30.17 94.32,-30.17 37.67,0 68.17,10.16 91.33,30.5 23.17,20.34 34.68,46.83 34.68,79.82z"
   id="glyph33" />
   <glyph
   unicode="9"
   horiz-adv-x="500"
   d="M434.99 312.99c0,-123.66 -22.67,-220.5 -68.17,-290.32 -45.33,-69.83 -108.33,-104.67 -189,-104.67 -34.98,0 -61.83,4.35 -80.81,13.17 -6.84,2.99 -10.35,7.17 -10.35,12.68l0 6.31 5.01 41.02c0,5.34 2.66,7.83 8.16,7.83 0.66,0 3.35,-0.66 7.83,-1.83 24.83,-7.5 48.18,-11.18 69.99,-11.18 94.02,0 152.52,74.67 175.36,224.01 -31.36,-50.68 -74.67,-76 -130.02,-76 -50.48,0 -91.17,20.31 -122.33,61 -31.16,40.66 -46.66,93.99 -46.66,160.16 0,68.66 18.02,124.32 54.16,166.83 36.01,42.68 83.17,63.99 141.18,63.99 123.82,0 185.65,-91 185.65,-273zm-81.98 49.68c0,101.49 -35.67,152.33 -106.86,152.33 -34.15,0 -61.16,-14 -81.15,-42.01 -20.01,-27.98 -30,-65.98 -30,-114.16 0,-49.15 9.49,-87.65 28.51,-115.33 18.99,-27.68 45.67,-41.49 79.82,-41.49 73.18,0 109.68,53.5 109.68,160.66z"
   id="glyph34" />
   <glyph
   unicode=":"
   horiz-adv-x="295"
   d="M219.17 402.83c0,-19.48 -6.84,-36.01 -20.51,-49.49 -13.67,-13.51 -30.33,-20.34 -49.82,-20.34 -19.84,0 -36.67,6.84 -50.34,20.51 -13.67,13.64 -20.51,30.33 -20.51,50.32 0,19.51 7,36.01 21.01,49.68 14,13.67 31,20.51 50.84,20.51 18.49,0 34.65,-7 48.49,-21.01 13.84,-14 20.84,-30.67 20.84,-50.18zm0 -345.65c0,-19.51 -7,-36.17 -20.84,-50.18 -13.84,-14 -30.33,-21.01 -49.49,-21.01 -19.84,0 -36.67,6.84 -50.34,20.51 -13.67,13.67 -20.51,30.5 -20.51,50.68 0,19.48 7,36.15 21.01,49.65 14,13.51 31,20.18 50.84,20.18 18.49,0 34.65,-6.84 48.49,-20.67 13.84,-13.84 20.84,-30.17 20.84,-49.15z"
   id="glyph35" />
   <glyph
   unicode="A"
   horiz-adv-x="537"
   d="M517.16 7.83c0,-5.18 -4.82,-7.83 -14.17,-7.83l-63.99 0c-6.84,0 -11.85,3.65 -15.17,11.15l-54.66 194.84 -203.17 0 -56.18 -194.84c-1.83,-7.5 -6.81,-11.15 -14.64,-11.15l-60 0c-9.52,0 -14.17,2.32 -14.17,6.84 0,1.66 0.66,4.68 1.99,9.33l201.18 658.67c2.16,7.5 7.17,11.18 14.67,11.18l59.97 0c7.83,0 12.84,-3.68 15.17,-11.18l201.18 -658.67c1.33,-4.65 1.99,-7.33 1.99,-8.33zm-167 267.16l-60.17 220.16c-8.66,31.52 -16.33,63.52 -22.83,95.68 -4.65,-23.5 -12.32,-54.99 -23,-94.68l-60.17 -221.16 166.17 0z"
   id="glyph36" />
   <glyph
   unicode="C"
   horiz-adv-x="462"
   d="M441.16 63.99c0,-6.81 -9.33,-17.33 -27.81,-31.66 -39.69,-30.83 -84.86,-46.33 -135.34,-46.33 -73.51,0 -129.5,31 -168.19,93.16 -38.5,62.19 -57.82,152.52 -57.82,270.84 0,116.85 18.99,205.16 57.15,265 36.17,56.68 90.17,84.99 162.02,84.99 55.66,0 105.34,-18.65 148.98,-55.99 10.68,-9.16 16.19,-15.83 16.19,-20.01 0,-2.66 -0.66,-5.31 -2.02,-7.83l-29.34 -38c-1.33,-2.66 -3.99,-3.99 -7.83,-3.99 -1.99,0 -13.31,8 -34.15,24 -30,23.17 -60.33,34.84 -91,34.84 -45.67,0 -78.85,-21.84 -99.66,-65.51 -20.84,-43.67 -31.33,-113.17 -31.33,-208.68 0,-203.84 47.16,-305.82 141.32,-305.82 34.51,0 71.85,17.66 111.84,53 4.68,3.82 8.16,5.84 10.82,5.84 2.68,0 5.34,-2.35 8.36,-6.84l24.83 -33.18c1.99,-1.99 2.99,-4.48 2.99,-7.83z"
   id="glyph37" />
   <glyph
   unicode="E"
   horiz-adv-x="462"
   d="M432 679.18c0,-2.35 -0.66,-5.34 -1.99,-9.35l-15.17 -43.98c-2.68,-7.17 -7.67,-10.85 -15.17,-10.85l-221.69 0 0 -226 195.84 0c9.52,0 14.17,-4.65 14.17,-14l0 -38.5c0,-8.99 -4.65,-13.48 -14.17,-13.48l-195.84 0 0 -252.02 238.85 0c9.49,0 14.17,-4.48 14.17,-13.64l0 -43.18c0,-9.49 -4.68,-14.17 -14.17,-14.17l-307.18 0c-9.16,0 -13.64,4.68 -13.64,14.17l0 657.67c0,9.49 4.48,14.17 13.64,14.17l308.18 0c9.33,0 14.17,-2.35 14.17,-6.84z"
   id="glyph38" />
   <glyph
   unicode="F"
   horiz-adv-x="425"
   d="M432 679.18c0,-2.35 -0.33,-4.18 -1,-5.34l-1 -4.01 -15.17 -43.98c-2.68,-7.17 -7.67,-10.85 -15.17,-10.85l-221.69 0 0 -233.01 195.84 0c9.52,0 14.17,-4.48 14.17,-13.48l0 -38.5c0,-9.35 -4.65,-14 -14.17,-14l-195.84 0 0 -301.84c0,-9.49 -4.65,-14.17 -14.14,-14.17l-54.19 0c-9.16,0 -13.64,4.68 -13.64,14.17l0 657.67c0,9.49 4.48,14.17 13.64,14.17l308.18 0c9.33,0 14.17,-2.35 14.17,-6.84z"
   id="glyph39" />
   <glyph
   unicode="G"
   horiz-adv-x="537"
   d="M469 41.15c0,-7.17 -2.99,-12.15 -8.83,-15.17 -42.34,-26.65 -97.67,-39.99 -166,-39.99 -78.35,0 -138.16,30.17 -179.34,90.5 -41.15,60.33 -61.83,148.18 -61.83,263.34 0,117.15 20.84,206.49 62.49,267.99 41.68,61.5 102.18,92.16 181.67,92.16 51.34,0 99.5,-13.64 144,-40.99 13.34,-8.33 20.01,-15 20.01,-20.01 0,-2.16 -1,-4.98 -2.85,-8.16l-20.98 -42.98c-1.33,-2.52 -3.35,-3.85 -6.01,-3.85 -2.49,0 -13.01,6.01 -31.16,18.16 -31.66,20.51 -66.01,30.86 -103.18,30.86 -53.5,0 -92.66,-22.67 -117.65,-68 -24.85,-45.17 -37.34,-116.52 -37.34,-214.02 0,-105.17 12.98,-181.17 39,-227.83 25.99,-46.83 68.33,-70.16 127.01,-70.16 27.32,0 53.66,6.17 78.99,18.65l0 206.35 -77.66 0c-9.49,0 -14.17,4.65 -14.17,14.17l0 40.66c0,9.49 4.68,14.17 14.17,14.17l145.99 0c9.16,0 13.67,-4.68 13.67,-14.17l0 -291.68z"
   id="glyph40" />
   <glyph
   unicode="I"
   horiz-adv-x="333"
   d="M310.17 14.34c0,-9.49 -4.84,-14.34 -14.17,-14.34l-258.83 0c-9.49,0 -14.17,4.84 -14.17,14.34l0 37.34c0,9.49 4.68,14.34 14.17,14.34l87.82 0 0 554 -87.82 0c-9.49,0 -14.17,4.65 -14.17,13.84l0 37.83c0,9.49 4.68,14.34 14.17,14.34l258.83 0c9.33,0 14.17,-4.84 14.17,-14.34l0 -37.83c0,-9.19 -4.84,-13.84 -14.17,-13.84l-89.01 0 0 -554 89.01 0c9.33,0 14.17,-4.84 14.17,-14.34l0 -37.34z"
   id="glyph41" />
   <glyph
   unicode="K"
   horiz-adv-x="517"
   d="M503.65 37c0,-3.68 -2.16,-7 -6.81,-10.32l-45.83 -31.86c-4.01,-2.49 -7,-3.82 -9.35,-3.82 -2.82,0 -6.17,2.32 -9.66,6.84l-254.01 327.33 0 -311c0,-9.49 -4.65,-14.17 -14.14,-14.17l-54.19 0c-9.16,0 -13.64,4.68 -13.64,14.17l0 657.67c0,9.49 4.48,14.17 13.64,14.17l54.19 0c9.49,0 14.14,-4.68 14.14,-14.17l0 -324.67 256.84 340c4.01,5.15 7.17,7.83 9.85,7.83 2.32,0 5.31,-1.66 9.33,-4.84l37 -24.99c5.15,-3.51 7.83,-7 7.83,-10.18 0,-2.32 -1.66,-5.65 -4.84,-9.83l-235.33 -304.33 240.17 -295.17c3.32,-3.16 4.82,-6.17 4.82,-8.66z"
   id="glyph42" />
   <glyph
   unicode="L"
   horiz-adv-x="444"
   d="M444.68 64.15c0,-0.66 -0.66,-3.65 -2.02,-8.83l-16.16 -44.01c-2.49,-7.47 -7.33,-11.32 -14.5,-11.32l-302.34 0c-9.16,0 -13.64,4.68 -13.64,14.17l0 657.67c0,9.49 4.48,14.17 13.64,14.17l54.19 0c9.49,0 14.14,-4.68 14.14,-14.17l0 -600.85 253.02 0c9.16,0 13.67,-2.32 13.67,-6.84z"
   id="glyph43" />
   <glyph
   unicode="M"
   horiz-adv-x="666"
   d="M592.99 9.83c0,-6.5 -4.15,-9.83 -12.65,-9.83l-58.18 0c-9.16,0 -13.84,4.35 -14.17,13.17l-15 512.65c0,-5.81 1,11.35 2.82,51.34l1.02 20.01c-4.51,-31.16 -11.51,-60.67 -21.01,-88.34l-117.18 -337.98c-2.66,-7.17 -7.5,-10.68 -14.67,-10.68l-29.31 0c-7.5,0 -12.51,3.51 -15,10.68l-112.84 337.98c-8.86,26.35 -15.17,55.85 -19.01,88.34l0 -19.01 1.83 -38.17 0 -18.99 -14.67 -507.83c0,-8.83 -4.32,-13.17 -12.81,-13.17l-54.33 0c-6.34,0 -10.18,0.83 -11.68,2.49 -1.49,1.52 -2.16,4.01 -2.16,7.33l0 4.35 37.67 658.67c0.66,8.83 5.31,13.17 14.17,13.17l59.14 0c7.5,0 12.51,-3.68 15,-11.18l117.85 -344.82c6.84,-19.84 11.65,-40.52 14.17,-62.02 1.33,11.51 5.67,32.19 13.17,62.02l118.81 344.82c2.68,7.5 7.67,11.18 15.17,11.18l63.02 0c8.16,0 12.48,-4.35 13.15,-13.17l37.67 -663.01z"
   id="glyph44" />
   <glyph
   unicode="P"
   horiz-adv-x="482"
   d="M466.01 501.99c0,-91.83 -33.18,-155.15 -99.69,-190 -28.48,-14.67 -67.17,-22 -116.49,-22l-71.85 0 0 -275.82c0,-9.49 -4.65,-14.17 -14.14,-14.17l-54.19 0c-9.16,0 -13.64,4.68 -13.64,14.17l0 657.67c0,9.49 4.48,14.17 13.64,14.17l153.52 0c59.67,0 102.32,-7.67 128,-23 49.82,-29.84 74.84,-83.69 74.84,-161.02zm-84.03 -1c0,57.51 -18.65,93.49 -55.82,107.66 -13.67,5.51 -37.17,8.33 -70.33,8.33l-77.85 0 0 -254.98 66.01 0c43.67,0 75,7.67 94.02,23 29.31,23.66 43.98,62.33 43.98,115.99z"
   id="glyph45" />
   <glyph
   unicode="S"
   horiz-adv-x="482"
   d="M439 182.33c0,-58.67 -19.35,-106 -58.18,-142.17 -38.66,-36.15 -89.34,-54.16 -151.83,-54.16 -37.5,0 -78.32,7 -122.5,21.01 -44.34,14 -66.51,26.98 -66.51,39 0,1.99 0.66,4.68 2.02,8.33l18.99 47.66c1.33,3.35 3.51,5.01 6.84,5.01 2.99,0 8.66,-2.32 17.16,-6.84 51.01,-28.15 99.33,-42.15 145,-42.15 36.67,0 66.34,10.32 88.51,31 22.33,20.65 33.49,47.99 33.49,81.84 0,30.5 -8.5,55.99 -25.32,76.17 -16.99,20.15 -50.18,44.31 -99.66,72.65 -65.34,37.83 -107.33,67.17 -126.01,88.34 -26.65,30.33 -39.99,67.34 -39.99,110.82 0,53.19 18.32,96.51 54.99,130.36 36.51,33.82 83.83,50.81 141.84,50.81 33.49,0 69.66,-6.31 108.49,-19.15 39.02,-12.84 58.51,-24.49 58.51,-35.01 0,-1.83 -0.66,-4.48 -1.99,-7.67l-18.02 -45.33c-1.66,-3.99 -4.32,-5.84 -7.83,-5.84 -1.33,0 -15.66,6.67 -42.98,20.01 -30.33,14.67 -62.69,22 -97.17,22 -34.51,0 -61.5,-8.66 -80.84,-26.15 -19.32,-17.35 -29,-41.68 -29,-73.01 0,-35.67 13.34,-64.02 40.02,-84.83 7.17,-5.67 47.16,-30.5 120.17,-74.84 48.16,-28.51 80.98,-55.32 98.67,-80.01 22.14,-30.67 33.16,-66.48 33.16,-107.83z"
   id="glyph46" />
   <glyph
   unicode="T"
   horiz-adv-x="407"
   d="M422.01 679.18c0,-3.02 -0.33,-5.01 -1,-6.34l-1.02 -3.02 -15.17 -42.98c-2.32,-7.17 -7.17,-10.85 -14.64,-10.85l-144.19 0 0 -601.82c0,-9.49 -4.65,-14.17 -14.14,-14.17l-53.66 0c-9.52,0 -14.17,4.68 -14.17,14.17l0 601.82 -145.85 0c-9.49,0 -14.14,4.51 -14.14,13.67l0 42.18c0,9.49 4.65,14.17 14.14,14.17l390.18 0c8.99,0 13.67,-2.35 13.67,-6.84z"
   id="glyph47" />
   <glyph
   unicode="V"
   horiz-adv-x="482"
   d="M467.67 673l-1 -8.83 -176.85 -652.86c-1.83,-7.47 -7,-11.32 -15,-11.32l-69.83 0c-8.16,0 -13.34,3.65 -15.17,11.15l-173.83 652.19c-1.33,4.82 -1.99,7.33 -1.99,7.67 0,3.32 3.82,6.48 11.65,9.33l59.17 13.67c1.33,0.66 2.85,1 4.84,1 3.65,0 6.34,-3.85 8.33,-11.68l127.01 -529.5c2.82,-12.65 6.5,-31.16 10.66,-55.66l4.35 -23c6.34,35.84 11.15,61.5 14.67,76.83l131.32 532.16c1.66,7.17 4.68,10.85 8.83,10.85 4.01,0 6.5,-0.33 7.83,-1l54.16 -12.68c7.17,-1.99 10.85,-4.84 10.85,-8.33z"
   id="glyph48" />
   <glyph
   unicode="a"
   horiz-adv-x="462"
   d="M405.68 24.66c0,-1.99 -1.36,-3.49 -3.85,-4.82l-43.01 -26.85c-2.66,-1.99 -5.15,-2.99 -7.83,-2.99 -12.65,0 -25.32,20.98 -38.17,62.99 -42.82,-42.01 -90.67,-62.99 -143,-62.99 -40.32,0 -72.48,12.32 -96.15,36.84 -23.83,24.66 -35.67,57.98 -35.67,99.99 0,113 88.01,170.98 264,174l0 33.16c0,31.99 -7.17,54.83 -21.34,68.5 -14.17,13.67 -37.67,20.51 -70.66,20.51 -33.18,0 -73.01,-9.66 -119.17,-29 -2.66,-1.16 -5.01,-1.83 -6.84,-1.83 -3.65,0 -6.01,1.49 -6.84,4.82l-15.17 40.02 -1 7.67c0,4.98 8.83,11.32 26.85,18.99 41.32,18.18 85.82,27.34 133.32,27.34 103.84,0 155.85,-46.66 155.85,-140.18l0 -189c0,-55.32 8.83,-99 26.65,-131.32 1.33,-2.16 2.02,-4.18 2.02,-5.84zm-103.68 85.16l0 129.03c-124.68,-1.02 -187.01,-36.34 -187.01,-106 0,-23.52 6.84,-42.51 20.51,-57.35 13.67,-14.83 31.33,-22.33 52.67,-22.33 33.32,0 71.16,19.01 113.83,56.65z"
   id="glyph49" />
   <glyph
   unicode="b"
   horiz-adv-x="500"
   d="M449.99 272c0,-190.66 -60.83,-286.01 -182.66,-286.01 -46.33,0 -88.98,16.33 -128.17,49.18 -11.98,-30.17 -22.83,-45.17 -32.33,-45.17 -1.99,0 -4.48,1 -7.83,2.99l-43.01 26.85c-1.99,1.83 -2.99,3.49 -2.99,4.82 0.33,2.68 1.33,5.01 2.99,7.33 18.68,24.49 28.01,59.5 28.01,105l0 561.16c0,6.84 3.68,11.02 11.18,12.68l51.64 12.15c0.66,0.69 3.02,1.02 6.84,1.02 4.18,0 6.34,-3.68 6.34,-11.18l0 -267.99c47.33,32.82 91.83,49.15 133.34,49.15 104.51,0 156.65,-74.01 156.65,-221.99zm-81.98 -10.68c0,110.51 -29.84,165.67 -89.34,165.67 -32.52,0 -72.18,-16.33 -118.68,-48.82l0 -285.51c29.67,-25.82 64.35,-38.66 104.01,-38.66 69.33,0 104.01,69.16 104.01,207.32z"
   id="glyph50" />
   <glyph
   unicode="c"
   horiz-adv-x="408"
   d="M398.18 430.17l-1.02 -6.34 -21.97 -39c-2.52,-4.68 -5.18,-6.84 -7.86,-6.84 -2.82,0 -5.65,1.16 -8.16,3.82 -40.66,30.17 -74.98,45.17 -102.98,45.17 -80.84,0 -121.17,-61.99 -121.17,-185.82 0,-124.85 37.17,-187.17 111.34,-187.17 22.14,0 42.98,4.51 62.49,13.67 11.32,5.67 29.84,17.33 55.16,35.34 2.99,1.99 5.34,2.99 7.33,2.99 2.66,0 4.84,-1.99 6.84,-5.84l15.17 -38.17c1.66,-4.15 2.49,-7.5 2.82,-10.16 0,-4.51 -5.31,-10.68 -16,-18.52 -42.65,-31.5 -89.34,-47.33 -139.65,-47.33 -59.67,0 -106.17,21.5 -139.52,64.35 -33.32,42.98 -49.98,102.49 -49.98,178.65 0,82 18.16,146.68 54.49,194.01 36.17,47.33 85.82,70.99 148.68,70.99 44.14,0 84.99,-13.01 122,-39 14.67,-10.49 22,-18.65 22,-24.83z"
   id="glyph51" />
   <glyph
   unicode="d"
   horiz-adv-x="500"
   d="M448.49 23.66c0,-1.99 -1.83,-3.82 -5.34,-5.84l-44.97 -24.83c-2.02,-1.99 -4.51,-2.99 -7.83,-2.99 -12.01,0 -23.03,19.98 -33.18,59.84 -56.65,-42.51 -106.33,-63.85 -149.01,-63.85 -49.15,0 -87.48,23 -115.33,68.83 -27.81,45.83 -41.82,109.35 -41.82,190.33 0,76.66 16,137.33 48.16,182 31.99,44.5 75.67,66.84 130.99,66.84 34.51,0 71.18,-10.66 109.85,-31.99l0 236.16c0,6.17 3.32,10.35 10.16,12.68l51.67 12.15c1.33,0.69 3.51,1.02 6.34,1.02 4.48,0 6.84,-3.68 6.84,-11.18l0 -554.83c0,-52.17 8.33,-91.5 25.16,-118.18 5.51,-8.5 8.33,-13.84 8.33,-16.16zm-108.49 88.01l0 283.49c-37,21.17 -70.82,31.83 -101.52,31.83 -37.31,0 -64.15,-13.98 -80.65,-41.82 -16.5,-27.84 -24.83,-73.18 -24.83,-136.17 0,-69 7.17,-118.84 21.64,-149.34 14.34,-30.5 38.17,-45.67 71.18,-45.67 34.98,0 72.98,19.18 114.16,57.68z"
   id="glyph52" />
   <glyph
   unicode="e"
   horiz-adv-x="462"
   d="M432 241.01c0,-12.01 -3.65,-18.02 -11.15,-18.02l-287.83 0c5.15,-112.64 49.32,-168.99 132.32,-168.99 35.51,0 74.01,12.01 115.66,35.84 3.68,1.99 7,2.99 10.35,2.99 2.32,0 4.48,-1.66 6.84,-4.98l17.99 -39.02c1.33,-2.82 1.99,-5.15 1.99,-6.81 0,-7.33 -11.98,-16.69 -36.17,-27.68 -39.66,-18.85 -80.65,-28.34 -122.99,-28.34 -63.49,0 -114,22.83 -151.67,68.5 -37.5,45.83 -56.32,107.16 -56.32,184.35 0,77.99 17.82,139.99 53.5,186.15 35.84,46 83.83,69 144.17,69 83.67,0 139.82,-39.99 168.16,-120.17 10.16,-28.31 15.17,-72.48 15.17,-132.82zm-82 44.01c-2.32,98.67 -38,147.99 -107.33,147.99 -68.83,0 -105.34,-49.32 -109.65,-147.99l216.98 0z"
   id="glyph53" />
   <glyph
   unicode="f"
   horiz-adv-x="295"
   d="M341.66 688.84c0,-0.66 -0.66,-2.49 -1.99,-5.84l-16.5 -40.99c-1.36,-3.85 -3.85,-5.84 -7.33,-5.84 -2.68,0 -5.84,1 -9.85,2.99 -28.81,13.84 -54.49,20.84 -77,20.84 -24.99,0 -42.15,-9.83 -51.17,-29.34 -5.81,-11.65 -8.83,-36.17 -8.83,-73.65l0 -77.02 143.83 0c7.5,0 11.35,-2.32 11.35,-6.84 0,-2.66 -0.33,-4.65 -1,-6.31l-13.17 -40.02c-1.99,-5.81 -6.34,-8.83 -13.17,-8.83l-127.84 0 0 -405.82c0,-6.17 -1,-9.69 -2.99,-10.68 -1.83,-1 -4.51,-1.49 -7.83,-1.49l-53.33 0c-5.01,0 -8,0.83 -9.16,2.66 -1.19,1.85 -1.69,5.01 -1.69,9.52l0 405.82 -66.31 0c-5.84,0 -9.19,1 -10.18,3.02 -1,1.83 -1.49,4.65 -1.49,8.16l0 38.66c0,6.17 1.33,9.83 3.85,11.15 1.33,0.66 3.99,1 7.83,1l66.31 0 0 78.02c0,54.16 8.69,92.66 25.85,115.66 25.16,33.49 62.49,50.34 112.01,50.34 23.33,0 47.49,-4.01 72.48,-12.01 24.83,-7.83 37.34,-15.66 37.34,-23.17z"
   id="glyph54" />
   <glyph
   unicode="g"
   horiz-adv-x="500"
   d="M447 461.83c0,-2.16 -1.99,-6.5 -5.84,-12.68 -16.83,-26.32 -25.16,-60 -25.16,-100.99l0 -154.32c0,-47.19 1.66,-104.17 5.01,-171.01 1.33,-26.68 1.99,-45.67 1.99,-57.01 0,-117.82 -59.17,-176.82 -177.68,-176.82 -53.66,0 -103.65,12.34 -149.81,37.17 -12.18,6.17 -18.18,11.68 -18.18,16.5 0,1 0.66,3.51 1.99,7.33l18.02 40.19c1,3.82 2.99,5.81 5.84,5.81 2.32,0 4.98,-1 7.83,-2.99 47.16,-25.32 90.83,-38 131.16,-38 43.67,0 73.84,12.15 90.67,36.34 10.16,14 15.17,38.33 15.17,72.98 0,7 -0.33,24.16 -1,51.51l-1 52c-44.5,-36.51 -90.83,-54.83 -139.02,-54.83 -47.66,0 -85.49,19.82 -113.33,59.5 -27.81,39.83 -41.65,93.82 -41.65,162.16 0,83 16.5,146.99 49.32,191.99 32.85,44.84 79.51,67.34 140.18,67.34 40.66,0 80.84,-14 120.5,-41.82 12.15,30.5 21.5,45.83 28.34,45.83 2.99,0 5.48,-0.66 7.83,-2.02l46 -28.31c1.83,-0.83 2.82,-2.85 2.82,-5.84zm-106 -332l0 269.84c-37,18.82 -68,28.31 -93.32,28.31 -75.83,0 -113.67,-57.98 -113.67,-174.14 0,-60.86 7,-104.84 20.81,-132.02 14,-27.18 36.67,-40.82 68.17,-40.82 33.68,0 73.01,16.33 118.01,48.82z"
   id="glyph55" />
   <glyph
   unicode="h"
   horiz-adv-x="519"
   d="M436.01 12.18c0,-6.17 -1.02,-9.69 -3.02,-10.68 -1.83,-1 -4.65,-1.49 -8.16,-1.49l-52.67 0c-4.84,0 -8,0.83 -9.16,2.66 -1.33,1.85 -1.99,5.01 -1.99,9.52l0 332.14c0,31.19 -5.01,52.83 -14.83,65.18 -10.02,12.34 -28.01,18.49 -54.16,18.49 -36.84,0 -80.84,-20.98 -132.02,-62.83l0 -352.98c0,-6.17 -1.33,-9.85 -3.82,-11.18 -1.36,-0.66 -3.85,-1 -7.33,-1l-52.67 0c-4.84,0 -8,0.83 -9.19,2.66 -1.33,1.85 -1.99,5.01 -1.99,9.52l0 685.98c0,6.17 3.35,10.35 10.18,12.68l51.64 12.15c0.66,0.69 3.02,1.02 6.84,1.02 4.18,0 6.34,-3.68 6.34,-11.18l0 -284.65c48.52,43.81 100.16,65.81 154.85,65.81 53.5,0 89.48,-19.48 108.49,-58.51 8.5,-17.99 12.68,-48.82 12.68,-92.83l0 -330.48z"
   id="glyph56" />
   <glyph
   unicode="i"
   horiz-adv-x="258"
   d="M190.99 658.17c0,-16.83 -5.84,-31.33 -17.49,-43.34 -11.85,-11.82 -26.02,-17.82 -42.51,-17.82 -16.99,0 -31.33,5.84 -43.15,17.66 -11.85,11.68 -17.85,26.35 -17.85,43.51 0,16.66 6.01,30.83 18.02,42.48 12.15,11.51 26.65,17.35 43.98,17.35 16.19,0 30.17,-5.84 41.68,-17.69 11.49,-11.65 17.33,-25.82 17.33,-42.15zm-15 -645.99c0,-6.17 -0.83,-9.69 -2.66,-10.68 -1.83,-1 -4.51,-1.49 -8.16,-1.49l-53.33 0c-5.01,0 -8,0.83 -9.16,2.66 -1.19,1.85 -1.69,5.01 -1.69,9.52l0 405.82 -79.82 0c-5.84,0 -9.33,1 -10.52,3.02 -1.16,1.83 -1.66,4.65 -1.66,8.16l0 38.66c0,6.17 1.33,9.83 3.85,11.15 1.66,0.66 4.48,1 8.33,1l144.17 0c4.82,0 7.83,-0.83 8.99,-2.66 1.16,-1.83 1.66,-5.01 1.66,-9.49l0 -455.66z"
   id="glyph57" />
   <glyph
   unicode="k"
   horiz-adv-x="443"
   d="M429.18 36.01c0,-2.02 -1.69,-4.84 -5.34,-8.33l-40.99 -30.83c-3.35,-2.52 -5.84,-3.85 -7.86,-3.85 -1.33,0 -3.32,1.33 -5.81,3.85l-209.18 250.17 0 -234.83c0,-6.17 -1.33,-9.85 -3.82,-11.18 -1.36,-0.66 -3.85,-1 -7.33,-1l-52.67 0c-4.84,0 -8,0.83 -9.19,2.66 -1.33,1.85 -1.99,5.01 -1.99,9.52l0 685.98c0,6.17 3.35,10.35 10.18,12.68l51.64 12.15 6.84 1.02c4.18,0 6.34,-3.68 6.34,-11.18l0 -453.01 200.85 225.84c3.49,4.18 7,6.34 10.32,6.34 2.49,0 5.51,-1.49 8.66,-4.35l38.17 -24.99c3.35,-3.16 4.84,-6.17 4.84,-8.66 0,-2.66 -1.49,-5.84 -4.84,-9.33l-170.82 -186.01 178.65 -214.82c2.35,-1.99 3.35,-4.68 3.35,-7.83z"
   id="glyph58" />
   <glyph
   unicode="l"
   horiz-adv-x="258"
   d="M272.83 14c0,-5.18 -9.49,-10.52 -28.67,-16 -19.32,-5.34 -38,-8 -56.16,-8 -58.01,0 -92,23.33 -102.18,69.83 -3.16,15.33 -4.82,56.32 -4.82,122.99l0 516.33c0,6.84 3.65,10.68 10.82,11.68l51.51 12.15c0.5,0.69 2.82,1.02 6.84,1.02 3.82,0 5.84,-3.68 5.84,-11.18l0 -530.5c0,-51.84 0.83,-82.5 2.49,-92.33 3.16,-25.32 16.83,-38 40.82,-38 14,0 29,3.99 44.84,11.98 3.85,1.36 6.5,2.02 7.83,2.02 2.19,0 4.51,-2.35 6.84,-7l12.18 -37.17c1.16,-4.18 1.83,-6.84 1.83,-7.83z"
   id="glyph59" />
   <glyph
   unicode="m"
   horiz-adv-x="722"
   d="M641.01 12.18c0,-6.17 -1.02,-9.69 -3.18,-10.68 -2.16,-1 -5.15,-1.49 -8.99,-1.49l-50.68 0c-6.14,0 -9.83,1.33 -11.15,3.85 -0.66,1.66 -1,4.48 -1,8.33l0 342.83c0,48.65 -21.34,72.98 -64.02,72.98 -28.31,0 -62.33,-13.31 -101.99,-39.99l0 -375.82c0,-6.17 -1,-9.69 -3.02,-10.68 -1.83,-1 -4.48,-1.49 -7.83,-1.49l-52.34 0c-4.98,0 -8,0.83 -9.16,2.66 -1.16,1.85 -1.66,5.01 -1.66,9.52l0 341.83c0,49.32 -21.34,73.98 -63.99,73.98 -29.84,0 -63.18,-14.31 -100.02,-42.82l0 -372.99c0,-6.17 -1,-9.69 -3.16,-10.68 -2.16,-1 -5.18,-1.49 -8.99,-1.49l-50.68 0c-6.17,0 -9.66,1.33 -10.66,3.85 -1,1.66 -1.52,4.48 -1.52,8.33l0 358.82c0,28.01 -5.98,55.99 -17.99,83.83 -0.66,0.66 -1,2.32 -1,5.01 0,2.82 1.66,4.82 4.84,5.81l39.99 22.83c3.65,2.35 6.67,3.51 9.33,3.51 10.16,0 19.68,-19.01 28.84,-57.01 50.34,39.36 97.17,59.01 139.99,59.01 46.52,0 78.19,-19.65 94.68,-59.01 55.32,39.36 104.01,59.01 145.99,59.01 43.67,0 74.01,-14.67 91.33,-44.01 12.01,-20.48 18.02,-52.83 18.02,-96.98l0 -340.83z"
   id="glyph60" />
   <glyph
   unicode="n"
   horiz-adv-x="519"
   d="M437.01 12.18c0,-6.17 -1,-9.69 -3.02,-10.68 -1.83,-1 -4.65,-1.49 -8.16,-1.49l-52.67 0c-4.82,0 -8,0.83 -9.16,2.66 -1.33,1.85 -1.99,5.01 -1.99,9.52l0 333c0,55.16 -22,82.81 -66.01,82.81 -42.34,0 -86.32,-20.98 -131.99,-62.83l0 -352.98c0,-6.17 -1,-9.69 -3.02,-10.68 -1.83,-1 -4.65,-1.49 -8.16,-1.49l-52.67 0c-4.82,0 -8,0.83 -9.16,2.66 -1.33,1.85 -1.99,5.01 -1.99,9.52l0 342.66c0,36.51 -6.34,68.5 -19.01,96.18 -1,2.66 -1.66,4.48 -1.99,5.81 0,3.02 1.66,4.84 4.84,5.84l45.5 25.82c3.16,2.35 5.81,3.51 7.67,3.51 12.81,0 23,-22 30.83,-66.17 56.65,45.5 110.32,68.17 160.99,68.17 49.49,0 83.5,-16.16 102.15,-48.32 11.35,-19.18 17.02,-52.67 17.02,-100.49l0 -333z"
   id="glyph61" />
   <glyph
   unicode="o"
   horiz-adv-x="500"
   d="M449.99 243.16c0,-81.01 -18.16,-144.17 -54.33,-189.33 -36.17,-45.17 -86.49,-67.83 -151,-67.83 -61.33,0 -108.82,22.17 -142.84,66.34 -33.82,44.34 -50.81,106.17 -50.81,185.49 0,81.01 18.16,144 54.33,188.84 36.17,44.84 86.49,67.34 151,67.34 60.67,0 108.16,-22.17 142.34,-66.67 34.15,-44.31 51.31,-105.83 51.31,-184.16zm-81.98 1c0,124.52 -39.52,186.84 -118.51,186.84 -77.66,0 -116.49,-61 -116.49,-183 0,-68.83 10.32,-120.67 31,-155.18 17.49,-29.17 46.66,-43.84 87.48,-43.84 39.16,0 67.34,14 84.5,42.01 21.34,34.51 32.02,85.49 32.02,153.16z"
   id="glyph62" />
   <glyph
   unicode="p"
   horiz-adv-x="500"
   d="M449.99 250c0,-82 -14.83,-146.49 -44.48,-193.51 -29.84,-46.99 -70.35,-70.49 -122.02,-70.49 -37.5,0 -77,14.67 -118.48,43.84l0 -213.99c0,-7.17 -3.02,-11.35 -9.16,-12.68l-52.67 -14.17c-2.35,-0.66 -4.18,-1 -5.84,-1 -4.84,0 -7.33,3.49 -7.33,10.66l0 543.01c0,43.67 -6.67,76 -20.18,97.17 -6.5,10.82 -9.83,17.16 -9.83,19.15 0,2.19 1,3.85 2.99,4.84l43.01 30.17c1.99,1.99 4.51,2.99 7.83,2.99 10.82,0 23.17,-19.98 37.17,-59.97 50.51,38.66 98.67,57.98 144.33,57.98 58.18,0 98.5,-23.17 121.33,-69.33 22.17,-44.17 33.32,-102.49 33.32,-174.67zm-81.98 -1.99c0,57.15 -5.01,99.5 -15.17,127.17 -12.34,34.48 -36.34,51.81 -72.18,51.81 -29.67,0 -68.17,-16.33 -115.66,-48.82l0 -282.16c41.65,-28.01 77.99,-42.01 108.82,-42.01 34.18,0 58.34,14.83 72.68,44.5 14.34,29.67 21.5,79.49 21.5,149.51z"
   id="glyph63" />
   <glyph
   unicode="r"
   horiz-adv-x="333"
   d="M333.17 478c0,-1.66 -0.66,-3.99 -1.99,-6.84l-24 -56.16c-1.02,-1.83 -2.68,-2.85 -5.34,-2.85 -0.33,0 -5.84,1.69 -16.66,4.84 -6.84,1.33 -12.51,1.99 -17.02,1.99 -22.17,0 -55.16,-25.32 -99.16,-76.17l0 -330.65c0,-6.17 -1,-9.69 -2.99,-10.68 -1.83,-1 -4.51,-1.49 -7.83,-1.49l-53.33 0c-5.01,0 -8,0.83 -9.16,2.66 -1.19,1.85 -1.69,5.01 -1.69,9.52l0 299.82c0,34.68 -0.83,57.51 -2.32,68.33 -2.99,22.67 -10.16,44.5 -21.84,65.34 -2.49,4.82 -3.82,8.33 -3.82,10.32 0,3.85 1.66,6.84 4.82,8.66l42.01 26.35c3.32,1.99 6.01,2.99 8.33,2.99 5.84,0 12.84,-8.66 20.84,-25.99 7.83,-17.52 13.67,-36.34 17.33,-56.85 31.16,35.01 54.33,57.68 69.5,67.67 15.17,10.18 33.35,15.17 54.49,15.17 11.35,0 22.5,-1.83 33.35,-5.31 10.99,-3.68 16.5,-7.17 16.5,-10.68z"
   id="glyph64" />
   <glyph
   unicode="s"
   horiz-adv-x="389"
   d="M349 128c0,-42.34 -14.67,-76.5 -44.01,-102.68 -29.17,-26.15 -67.67,-39.33 -115.16,-39.33 -54.33,0 -103.68,13.01 -147.99,39 -3.85,2.35 -5.84,5.34 -5.84,9.35 0,0.83 0.33,2.16 1,3.82l18.99 43.84c1.02,2.66 3.02,3.99 5.84,3.99 1.33,0 4.01,-0.66 7.83,-1.99 45.67,-22.67 86.35,-33.99 122.16,-33.99 24.19,0 43.51,6.64 58.18,19.98 14.67,13.34 22,30.83 22,52.17 0,31 -21.34,56.35 -64.02,76.17 -55.82,25.68 -93.16,46.16 -111.65,61.5 -30.83,25.35 -46.33,57.01 -46.33,95.18 0,40.66 14.14,74.01 42.65,99.99 28.51,25.99 65.01,39 109.52,39 25.99,0 54,-4.82 83.83,-14.67 30,-9.66 45,-18.82 45,-27.32 0,-1.85 -0.66,-4.35 -2.02,-7.17l-17.99 -36.67c-2.49,-4.18 -5.67,-6.34 -9.16,-6.34 0,0 -2.68,0.66 -7.83,1.99 -36.34,17.52 -67.34,26.18 -93.16,26.18 -50.51,0 -75.86,-22.5 -75.86,-67.34 0,-20.18 6.67,-36.51 20.01,-48.85 8.99,-8.33 43.84,-27.48 104.34,-56.99 37,-17.99 62.83,-36.34 77.49,-55.49 14.83,-19.01 22.17,-43.51 22.17,-73.34z"
   id="glyph65" />
   <glyph
   unicode="t"
   horiz-adv-x="333"
   d="M342.99 29.67c0,-7.83 -15.17,-16.33 -45.67,-25.66 -30.5,-9.35 -58.48,-14 -84.33,-14 -62.49,0 -100.99,24.33 -115.66,72.82 -4.18,13.67 -6.34,38 -6.34,73.34l0 281.83 -70.82 0c-8.16,0 -12.18,3.68 -12.18,11.18l0 38.66c0,6.17 1.33,9.83 3.85,11.15 1.66,0.66 4.48,1 8.33,1l70.82 0 0 137.16c0,6.84 3.32,11.18 10.16,12.68l51.67 14.17c3.68,1.33 5.67,1.99 6.34,1.99 4.51,0 6.84,-3.99 6.84,-12.15l0 -153.85 150.17 0c6.17,0 9.16,-2.32 9.16,-6.84 0,-1.66 -0.33,-3.65 -1,-6.31l-11.18 -38.5c-1.99,-6.84 -6.67,-10.35 -14.17,-10.35l-132.98 0 0 -281.16c0,-31.83 3.32,-52.17 9.83,-60.83 10.35,-13.34 27.18,-20.01 50.34,-20.01 20.84,0 50.84,8 89.84,24.19 3.32,1.16 5.81,1.83 7.5,1.83 3.49,0 5.81,-1.99 6.84,-5.84l10.66 -41.15c1.33,-2.85 1.99,-4.68 1.99,-5.34z"
   id="glyph66" />
   <glyph
   unicode="u"
   horiz-adv-x="500"
   d="M451.01 23c-0.69,-0.83 -2.19,-2.49 -4.51,-4.84l-44.84 -29.14c-2.99,-2.02 -5.34,-3.02 -6.84,-3.02 -10.82,0 -22.5,20.01 -35.18,59.84 -51.81,-39.83 -101.82,-59.84 -149.98,-59.84 -91.17,0 -136.67,44.67 -136.67,134.17l0 344.49c0,6.84 3.32,11.35 9.83,13.17l52 14.17c2.49,0.66 4.65,1 6.34,1 4.48,0 6.84,-3.65 6.84,-11.15l0 -312.19c0,-43.81 5.15,-74.14 15.66,-90.83 10.32,-16.5 29.14,-24.83 56.49,-24.83 43.51,0 85.49,16.99 125.84,50.84l0 359.82c0,7.17 3.16,11.51 9.66,13.17l52.83 14.17c2.16,0.66 4.15,1 5.67,1 4.48,0 6.84,-3.65 6.84,-11.15l0 -349c0,-43.18 8.99,-77.52 26.98,-102.85 1.99,-2.66 3.02,-5.01 3.02,-7z"
   id="glyph67" />
   <glyph
   unicode="v"
   horiz-adv-x="425"
   d="M423 466.68c0,-1.36 -0.66,-3.68 -1.99,-6.84l-182.17 -458.02c-2.19,-5.84 -6.5,-8.83 -12.68,-8.83l-38.17 0c-6.5,0 -10.85,2.99 -13.17,8.83l-168.83 460.84c-1.33,2.66 -1.99,4.68 -1.99,6.34 0,3.82 3.49,6.5 10.32,7.83l59.01 13.17 2.99 0c3.16,0 5.84,-3.18 7.67,-9.35l107 -326.83c1.99,-4.32 4.35,-11.32 7.33,-20.98l11.68 -42.01c5.31,20.51 11.65,40.99 19.15,61.83l119.17 328.16c1.83,6.17 4.51,9.19 7.67,9.19 1.33,0 3.32,-0.33 6.01,-1l52.17 -14.17c5.81,-1.52 8.83,-4.35 8.83,-8.16z"
   id="glyph68" />
   <glyph
   unicode="w"
   horiz-adv-x="610"
   d="M600.16 469.5c0,-1.33 -0.33,-2.82 -1,-4.51l-1 -2.82 -132.35 -459.34c-1.83,-6.48 -5.81,-9.83 -11.65,-9.83l-39 0c-6.17,0 -10.35,3.35 -12.34,9.83l-78.49 303.33c-3.35,11.68 -6.01,26.02 -8.33,43.01l-2.02 14.67 -2.82 21.01c-3.32,-30 -8.33,-55.85 -15.17,-77.66l-93.82 -305.35c-1.85,-5.84 -6.34,-8.83 -13.17,-8.83l-37 0c-6.17,0 -10.16,3.35 -11.82,9.83l-115.19 458.85c-0.66,2.66 -1,4.51 -1,5.84 0,4.65 3.18,7.33 9.33,8.33l50.68 12.65c2.66,1.02 4.68,1.52 6.01,1.52 3.82,0 6.67,-3.35 8.16,-10.18l70.82 -346.98c0.66,-2.68 3.02,-15.53 6.84,-38.69 1,6.01 5.34,24.19 13.17,54.85l95.34 324.14c1.49,5.84 5.48,8.86 11.65,8.86l39.99 0c6.5,0 10.68,-3.02 12.18,-8.86l89.01 -375.98 2.82 13.67 4.84 25.49 84.99 343.82c1.66,5.84 4.51,8.86 8.33,8.86 1.66,0 3.49,-0.33 5.84,-1.02l46 -10.66c6.84,-1.66 10.16,-4.35 10.16,-7.83z"
   id="glyph69" />
   <glyph
   unicode="x"
   horiz-adv-x="444"
   d="M429.18 17.33c0,-2.66 -3.18,-4.98 -9.35,-7.33l-52.83 -19.48c-3.49,-1.66 -5.98,-2.52 -7.17,-2.52 -2.32,0 -4.98,2.52 -7.83,7.33l-102.15 155.68c-3.85,5.84 -6.84,10.49 -8.66,14l-10.35 16.16 -5.81 9.83c-6.5,-11.82 -14.5,-24.49 -24,-38.33l-110.35 -158.34c-1.83,-4.15 -4.51,-6.34 -7.83,-6.34l-6.84 1.52 -52.17 22c-5.18,2.32 -7.83,4.82 -7.83,7.83 0,1.83 1.33,4.15 3.85,6.81l164.15 218.5 -145.99 210.17c-1.99,1.99 -2.99,4.18 -2.99,6.84 0,4.15 2.66,7.33 7.83,9.33l52.34 19.01c0.66,0.66 2.49,1 5.81,1 3.18,0 6.17,-2.16 8.83,-6.34l86.85 -134.67c4.84,-7.5 10.82,-16.83 17.99,-28.17 1,-1.66 4.84,-7.5 11.35,-17.66 4.82,8.5 14.83,24.16 29.84,47.16l91.17 133.34c2.66,4.18 6.01,6.34 9.83,6.34 0.66,0 2.66,-0.83 5.84,-2.52l49.32 -19.98c5.18,-1.99 7.83,-4.18 7.83,-6.84 0,-3.35 -1.33,-6.17 -3.99,-8.83l-147.85 -198.49 156.68 -229.19c2.99,-3.99 4.51,-6.5 4.51,-7.83z"
   id="glyph70" />
   <glyph
   unicode="y"
   horiz-adv-x="425"
   d="M421.68 460.17c0,-1.66 -0.33,-3.51 -0.83,-5.84l-113.83 -392.67c-26.35,-90.17 -48.35,-153.99 -66.01,-191.66 -26.02,-54.66 -66.34,-82 -121,-82 -24.16,0 -51.17,6.01 -81.01,18.16 -30,12.01 -45,22.83 -45,32.69 0.33,3.32 1,5.31 1.99,6.34l20.01 39.66c1,3.49 3.18,5.34 6.84,5.34 2.32,-0.36 4.51,-1.36 6.84,-3.02 34.84,-24.16 64.32,-36.17 88.34,-36.17 32.16,0 57.82,28.67 76.66,86.02l20.98 62.99 -39.99 0c-5.84,0 -9.83,2.99 -11.65,8.83l-157.34 444.51c-1.33,2.66 -1.99,4.82 -1.99,6.84 0,3.32 3.16,5.84 9.33,7.83l53.66 18.99 8.33 1c2.32,0 4.51,-2.99 6.84,-8.83l128 -378c5.18,-15 11.82,-39.16 19.98,-72.32 3.18,15.33 9.02,38.66 17.02,70.16l98.17 381.16c2.66,5.18 5.81,7.83 9.83,7.83 0.33,0 1.99,-0.33 4.84,-1l52.34 -18.49c5.81,-2.32 8.66,-5.01 8.66,-8.33z"
   id="glyph71" />
   <glyph
   unicode="z"
   horiz-adv-x="407"
   d="M389.82 60c0,-2.32 -0.5,-5.01 -1.83,-8.33l-19.15 -42.68c-1.85,-6.01 -6.34,-8.99 -13.17,-8.99l-311.99 0c-7.83,0 -11.68,4.01 -11.68,12.18l0 39.66 253.02 365.16 -221.36 0c-7.17,0 -10.66,3.68 -10.66,11.18l0 41.15c0,7.17 3.49,10.66 10.66,10.66l304.36 0c4.82,0 7.83,-0.83 8.99,-2.49 1.16,-1.49 1.66,-4.35 1.66,-8.16l0 -42.51 -249 -360.82 249 0c4.84,0 8,-0.33 9.33,-1.16 1.33,-0.86 1.83,-2.52 1.83,-4.84z"
   id="glyph72" />
   <glyph
   unicode="ä"
   horiz-adv-x="462"
   d="M373.99 629.83c0,-14.34 -5.31,-26.65 -16,-37 -10.49,-10.49 -23.33,-15.66 -38.33,-15.66 -14.34,0 -26.65,5.18 -37,15.66 -10.49,10.35 -15.66,23 -15.66,38 0,14.67 5.18,27.18 15.66,37.5 10.35,10.52 23,15.66 38,15.66 14.67,0 27.18,-5.31 37.67,-15.83 10.35,-10.66 15.66,-23.33 15.66,-38.33zm-197.33 0c0,-14.34 -5.15,-26.65 -15.66,-37 -10.32,-10.49 -22.67,-15.66 -37,-15.66 -15,0 -27.81,5.18 -38.33,15.66 -10.66,10.35 -16,23 -16,38 0,14.67 5.34,27.18 16,37.5 10.52,10.52 23.33,15.66 38.33,15.66 14.67,0 27.01,-5.31 37.34,-15.83 10.18,-10.66 15.33,-23.33 15.33,-38.33zm229.02 -605.17c0,-1.99 -1.36,-3.49 -3.85,-4.82l-43.01 -26.85c-2.66,-1.99 -5.15,-2.99 -7.83,-2.99 -12.65,0 -25.32,20.98 -38.17,62.99 -42.82,-42.01 -90.67,-62.99 -143,-62.99 -40.32,0 -72.48,12.32 -96.15,36.84 -23.83,24.66 -35.67,57.98 -35.67,99.99 0,113 88.01,170.98 264,174l0 33.16c0,31.99 -7.17,54.83 -21.34,68.5 -14.17,13.67 -37.67,20.51 -70.66,20.51 -33.18,0 -73.01,-9.66 -119.17,-29 -2.66,-1.16 -5.01,-1.83 -6.84,-1.83 -3.65,0 -6.01,1.49 -6.84,4.82l-15.17 40.02 -1 7.67c0,4.98 8.83,11.32 26.85,18.99 41.32,18.18 85.82,27.34 133.32,27.34 103.84,0 155.85,-46.66 155.85,-140.18l0 -189c0,-55.32 8.83,-99 26.65,-131.32 1.33,-2.16 2.02,-4.18 2.02,-5.84zm-103.68 85.16l0 129.03c-124.68,-1.02 -187.01,-36.34 -187.01,-106 0,-23.52 6.84,-42.51 20.51,-57.35 13.67,-14.83 31.33,-22.33 52.67,-22.33 33.32,0 71.16,19.01 113.83,56.65z"
   id="glyph73" />
   <glyph
   unicode="ü"
   horiz-adv-x="500"
   d="M413.84 629.83c0,-14.34 -5.34,-26.65 -15.83,-37 -10.68,-10.49 -23.36,-15.66 -38.36,-15.66 -14.31,0 -26.65,5.18 -37.14,15.66 -10.35,10.35 -15.66,23 -15.66,38 0,14.67 5.31,27.18 15.66,37.5 10.49,10.52 23.17,15.66 38.17,15.66 14.5,0 27.15,-5.31 37.5,-15.83 10.49,-10.66 15.66,-23.33 15.66,-38.33zm-197.33 0c0,-14.34 -5.18,-26.65 -15.5,-37 -10.52,-10.49 -22.83,-15.66 -37.17,-15.66 -15,0 -27.84,5.18 -38.33,15.66 -10.68,10.35 -15.86,23 -15.86,38 0,14.67 5.18,27.18 15.86,37.5 10.49,10.52 23.33,15.66 38.33,15.66 14.67,0 26.98,-5.31 37.34,-15.83 10.32,-10.66 15.33,-23.33 15.33,-38.33zm234.5 -606.83c-0.69,-0.83 -2.19,-2.49 -4.51,-4.84l-44.84 -29.14c-2.99,-2.02 -5.34,-3.02 -6.84,-3.02 -10.82,0 -22.5,20.01 -35.18,59.84 -51.81,-39.83 -101.82,-59.84 -149.98,-59.84 -91.17,0 -136.67,44.67 -136.67,134.17l0 344.49c0,6.84 3.32,11.35 9.83,13.17l52 14.17c2.49,0.66 4.65,1 6.34,1 4.48,0 6.84,-3.65 6.84,-11.15l0 -312.19c0,-43.81 5.15,-74.14 15.66,-90.83 10.32,-16.5 29.14,-24.83 56.49,-24.83 43.51,0 85.49,16.99 125.84,50.84l0 359.82c0,7.17 3.16,11.51 9.66,13.17l52.83 14.17c2.16,0.66 4.15,1 5.67,1 4.48,0 6.84,-3.65 6.84,-11.15l0 -349c0,-43.18 8.99,-77.52 26.98,-102.85 1.99,-2.66 3.02,-5.01 3.02,-7z"
   id="glyph74" />
  </font>
</defs>
</svg>
