<?xml version="1.0" encoding="UTF-8" standalone="no"?>
<!-- Creator: CorelDRAW 2021 (64-Bit) -->

<svg
   xml:space="preserve"
   width="209.952mm"
   height="138.939mm"
   version="1.0"
   style="shape-rendering:geometricPrecision; text-rendering:geometricPrecision; image-rendering:optimizeQuality; fill-rule:evenodd; clip-rule:evenodd"
   viewBox="0 0 20990.46 13890.72"
   id="svg156"
   sodipodi:docname="internationale_beziehungen_und_entwicklungspolitik__m.a._.svg"
   inkscape:version="1.3-dev (77bc73e, 2022-05-18)"
   xmlns:inkscape="http://www.inkscape.org/namespaces/inkscape"
   xmlns:sodipodi="http://sodipodi.sourceforge.net/DTD/sodipodi-0.dtd"
   xmlns="http://www.w3.org/2000/svg"
   xmlns:svg="http://www.w3.org/2000/svg"><sodipodi:namedview
   id="namedview156"
   pagecolor="#ffffff"
   bordercolor="#000000"
   borderopacity="0.25"
   inkscape:showpageshadow="2"
   inkscape:pageopacity="0.0"
   inkscape:pagecheckerboard="0"
   inkscape:deskcolor="#d1d1d1"
   inkscape:document-units="mm"
   showgrid="false"
   inkscape:zoom="0.44941787"
   inkscape:cx="397.18047"
   inkscape:cy="262.56188"
   inkscape:window-width="1440"
   inkscape:window-height="900"
   inkscape:window-x="0"
   inkscape:window-y="0"
   inkscape:window-maximized="0"
   inkscape:current-layer="Ebene_x0020_1" />
 <defs
   id="defs76">
  <font
   id="FontID1"
   horiz-adv-x="556"
   font-variant="normal"
   style="fill-rule:nonzero"
   font-style="normal"
   font-weight="700">
	<font-face
   font-family="Officina Sans OS ITC TT"
   id="font-face1">
		<font-face-src>
			<font-face-name
   name="Officina Sans OS ITC TT Fett" />
		</font-face-src>
	</font-face>
   <missing-glyph
   id="missing-glyph1"><path
     d="M0 0z"
     id="path1" /></missing-glyph>
   <glyph
   unicode="1"
   horiz-adv-x="537"
   d="M459.99 21c0,-9.34 -1.17,-15.33 -3.33,-17.51 -2.34,-2.32 -8.17,-3.49 -17.67,-3.49l-292.99 0c-9,0 -14.83,1.17 -17.33,3.49 -2.34,2.18 -3.67,8.17 -3.67,17.51l0 51c0,12 3.17,18.66 9.34,19.99 2.5,0.67 6.5,1.01 11.66,1.01l95 0 0 347.98 -80.01 -44.48c-5.16,-3.01 -8.81,-4.34 -11.15,-4.34 -4.18,0 -8.68,4.15 -13.66,12.67l-26.35 45.33c-2.5,4.5 -3.83,8.84 -3.83,12.67 0,5.49 3.83,10.83 11.34,16.16l160 116 69.66 0c11.66,0 18.34,-3.01 19.99,-8.84 0.69,-2.5 1.01,-6.33 1.01,-11.15l0 -482.01 71.18 0c11.66,0 18.32,-3.01 19.83,-8.84 0.67,-2.5 0.99,-6.66 0.99,-12.16l0 -51z"
   id="glyph1" />
   <glyph
   unicode="2"
   horiz-adv-x="537"
   d="M471.01 435.34c0,-47.01 -13.34,-87.01 -40.01,-120.18 -12.35,-14.99 -24.67,-27.15 -37,-36.66 -12.35,-9.5 -40.01,-27.18 -83,-53.18 -40.67,-24.83 -67.18,-44.32 -79.67,-58.67 -12.67,-14.32 -19.67,-32.5 -21.35,-54.65l234 0c12,0 18.66,-3.01 20.01,-8.84 0.67,-2.5 0.99,-6.68 0.99,-12.16l0 -70.01c0,-11.66 -3.01,-18.34 -8.84,-19.99 -2.66,-0.67 -6.66,-1.01 -12.16,-1.01l-359.99 0c-9.34,0 -14.18,4.66 -14.18,14.16l0 7.83c0,62.84 9.18,111.18 27.34,145.01 25.5,47.83 75.33,95.16 149.83,142.17 45.01,28.32 72,47.67 81,58 14.67,16.98 22.01,37.32 22.01,61.17 0,49.83 -28,74.66 -84.01,74.66 -41.5,0 -74.32,-28.67 -98.01,-86 -4.15,-10.17 -9.32,-15.17 -15.15,-15.17 -2,0 -5.51,1.01 -10.67,3.01l-63.99 24.33c-8.17,3.01 -12.19,7.83 -12.19,14.67 0,11.5 5.51,28 16.69,49.67 10.99,21.67 23.16,40.17 36.49,55.5 37.83,43.33 91.33,65 160.51,65 57.66,0 103.81,-16.34 138.82,-48.84 35,-32.5 52.52,-75.84 52.52,-129.82z"
   id="glyph2" />
   <glyph
   unicode="3"
   horiz-adv-x="537"
   d="M465 117.17c0,-62.5 -23.66,-113.68 -70.83,-153.35 -42.32,-35.16 -95,-52.84 -158.17,-52.84 -57.66,0 -111.16,11.02 -160.67,32.68 -19.49,8.84 -29.33,16.16 -29.33,21.99 0,2 0.67,5.51 2,10.33l20.01 71.84c1.65,6.17 5.33,9.34 11.15,9.34 2.34,0 5.51,-1.01 9.85,-3.01 51,-24.83 96.49,-37.16 136.15,-37.16 73.84,0 110.84,35.67 110.84,106.98 0,66.68 -42,100 -126.01,100l-29.65 0c-12.16,0 -18.84,3.01 -20.01,8.84 -0.67,2.5 -0.99,6.68 -0.99,12.16l0 66.01c0,11.66 2.82,18.32 8.65,19.99 2.69,0.67 6.84,1.01 12.35,1.01l31.65 0c33.35,0 57.68,5.65 73.33,17.15 23.18,17.17 34.68,42.85 34.68,76.68 0,25.16 -7.51,45.33 -22.52,60.5 -14.99,15.15 -34.82,22.65 -59.49,22.65 -32.34,0 -62.16,-17.01 -90,-51 -5.51,-6.5 -9.82,-9.66 -13.17,-9.66 -1.81,0 -4.82,1.17 -8.65,3.83l-55.34 49.83c-3.17,3.01 -4.84,6.33 -4.84,10.33 0,7.18 7,18.34 21,33.67 41.02,45.33 93.85,68.01 158.17,68.01 59.01,0 106.5,-16.34 142.67,-49.16 36.17,-32.68 54.17,-75.51 54.17,-128.67 0,-68.67 -31.49,-118.34 -94.66,-149.01 78.5,-25.32 117.66,-81.99 117.66,-169.99z"
   id="glyph3" />
   <glyph
   unicode="4"
   horiz-adv-x="537"
   d="M500.34 63.99c0,-11.66 -3.17,-18.32 -9.34,-19.99 -2.66,-0.67 -6.5,-1.01 -11.84,-1.01l-57.15 0 0 -128.99c0,-9.5 -1.17,-15.33 -3.35,-17.49 -2.32,-2.34 -8.15,-3.51 -17.65,-3.51l-83 0c-11.68,0 -18.34,3.17 -20.01,9.34 -0.67,2.5 -0.99,6.5 -0.99,11.66l0 128.99 -245 0c-9.5,0 -15.36,1.01 -17.67,3.17 -2.18,2.18 -3.33,7.67 -3.33,16.85l0 104.99 248.99 416.84c5.16,8.84 10.01,13.17 14.16,13.17 2.66,0 7,-1.33 13.17,-3.83l60.16 -26.51c9.66,-4.15 14.51,-8.33 14.51,-12.67 0,-3.17 -1.84,-8.33 -5.83,-15.17l-232.83 -395.82 155.66 0 12.99 161.17c0.67,8.81 2.18,14.32 4.68,16.66 2.48,2.16 7.83,3.33 16.32,3.33l68.01 0c12,0 18.66,-3.01 19.99,-9.18 0.67,-2.66 1.01,-6.66 1.01,-11.82l0 -163.17 57.15 0c9.5,0 15.33,-1.33 17.67,-3.83 2.34,-2.66 3.51,-9.34 3.51,-19.99l0 -53.18z"
   id="glyph4" />
   <glyph
   unicode="B"
   horiz-adv-x="574"
   d="M525 193.83c0,-36.84 -9,-71.34 -27.15,-103.49 -18.02,-32.18 -41.18,-55.34 -69.5,-69.34 -28.35,-14 -79.19,-21 -152.34,-21l-170.01 0c-9.5,0 -15.33,1.17 -17.49,3.33 -2.34,2.34 -3.51,8.17 -3.51,17.67l0 644c0,11.66 3.17,18.32 9.34,19.99 2.5,0.67 6.5,1.01 11.66,1.01l162.16 0c41.02,0 68.83,-0.85 83.34,-2.5 32,-3.83 58.16,-12.67 78.68,-26.35 46.48,-31.49 69.82,-80.66 69.82,-147.49 0,-70.17 -33.67,-120.5 -100.99,-150.82 39.98,-10.35 70.99,-30 92.98,-59.01 22.01,-28.99 33.01,-64.34 33.01,-106zm-158.01 301.83c0,36.84 -12.99,63.17 -39,78.68 -12.33,7.16 -32.32,10.65 -59.84,10.65l-53.16 0 0 -183.99 41.84 0c36.82,0 62.82,5.67 77.99,16.98 21.51,15.52 32.16,41.5 32.16,77.67zm20.01 -293.33c0,34.5 -9.5,59.01 -28.35,73.68 -18.82,14.67 -50.34,21.99 -94.5,21.99l-49.16 0 0 -188.99 47.33 0c44.85,0 76.85,7.16 96.01,21.51 19.17,14.32 28.67,38.33 28.67,71.82z"
   id="glyph5" />
   <glyph
   unicode="E"
   horiz-adv-x="482"
   d="M459.99 674.83c0,-2 -0.67,-6.33 -2,-12.83l-19.99 -67.83c-3.17,-11.5 -10.51,-17.17 -22.01,-17.17l-194 0 0 -164 167.16 0c11.68,0 18.34,-3.17 20.01,-9.34 0.67,-2.5 0.99,-6.5 0.99,-11.66l0 -67c0,-12 -3.01,-18.68 -9.32,-20.01 -2.5,-0.67 -6.52,-0.99 -11.68,-0.99l-167.16 0 0 -195.01 210.18 0c11.66,0 18.32,-3.01 19.99,-8.84 0.67,-2.5 1.01,-6.66 1.01,-12.16l0 -67c0,-9.5 -1.17,-15.33 -3.51,-17.51 -2.16,-2.32 -7.99,-3.49 -17.49,-3.49l-326.18 0c-9.5,0 -15.33,1.17 -17.65,3.33 -2.18,2.34 -3.35,8.17 -3.35,17.67l0 644c0,9.5 1.17,15.33 3.51,17.65 2.16,2.18 7.99,3.35 17.49,3.35l334.01 0c13.34,0 19.99,-3.67 19.99,-11.18z"
   id="glyph6" />
   <glyph
   unicode="I"
   horiz-adv-x="352"
   d="M319.66 21c0,-11.66 -2.98,-18.34 -8.84,-19.99 -2.66,-0.67 -6.66,-1.01 -12.16,-1.01l-244.65 0c-9.85,0 -15.68,1.17 -17.83,3.33 -2.18,2.34 -3.17,8.17 -3.17,17.67l0 56.99c0,11.68 2.98,18.34 8.84,20.01 2.66,0.67 6.66,0.99 12.16,0.99l53.98 0 0 488 -53.98 0c-12,0 -18.68,3.17 -20.01,9.34 -0.67,2.5 -0.99,6.5 -0.99,11.66l0 57.01c0,9.5 0.99,15.33 3.17,17.65 2.16,2.18 7.99,3.35 17.83,3.35l244.65 0c12,0 18.68,-3.17 20.01,-9.34 0.67,-2.5 0.99,-6.5 0.99,-11.66l0 -57.01c0,-11.66 -2.98,-18.32 -8.84,-19.99 -2.66,-0.67 -6.66,-1.01 -12.16,-1.01l-53.66 0 0 -488 53.66 0c12,0 18.68,-3.17 20.01,-9.32 0.67,-2.5 0.99,-6.52 0.99,-11.68l0 -56.99z"
   id="glyph7" />
   <glyph
   unicode="S"
   horiz-adv-x="482"
   d="M452.01 194c0,-61.82 -20.17,-112.01 -60.35,-150.32 -40.15,-38.5 -92.67,-57.66 -157.82,-57.66 -40.34,0 -85.17,7.16 -134.69,21.48 -49.49,14.32 -74.15,27.18 -74.15,38.5 0,1.99 0.67,5.66 1.99,11.17l33.17 85.84c2.33,6 5.17,8.81 8.84,8.81 2.14,0 5.33,-0.98 9.15,-2.82 59.68,-32.68 110.66,-49 153.02,-49 59.83,0 89.82,27.67 89.82,83 0,25 -7.01,45.32 -20.99,60.99 -13.34,14.66 -51.35,37.67 -113.85,68.83 -59.83,29.99 -100.84,58.67 -123,86.18 -22.16,27.48 -33.17,63.32 -33.17,107.66 0,59.16 19.83,106.32 59.34,141.17 39.51,34.83 92.82,52.15 159.84,52.15 39.33,0 81.01,-7.16 124.98,-21.67 43.85,-14.51 65.83,-28.16 65.83,-41.16 0,-1.35 -0.98,-4.16 -2.82,-8.32l-36.17 -75.68c-2.33,-4.84 -5.33,-7.31 -8.84,-7.31 -2.33,0 -15.33,6.15 -39.14,18.15 -34.18,17.35 -67.51,26.01 -100.17,26.01 -28,0 -50.19,-6.52 -66.35,-19.49 -16.34,-13.01 -24.48,-30.85 -24.48,-53.19 0,-25.16 12.98,-46.15 38.99,-62.98 9.49,-6.33 44.5,-24.67 105,-55.33 51.51,-25.68 88.66,-54.69 111.49,-86.85 23.01,-32.16 34.52,-71.64 34.52,-118.16z"
   id="glyph8" />
   <glyph
   unicode="a"
   horiz-adv-x="482"
   d="M439.84 28c0,-4.66 -2.69,-7.83 -7.85,-9.85l-78.15 -31.15c-3.01,-2.02 -7,-3.01 -12.16,-3.01 -9.18,0 -19.17,19.67 -29.84,58.99 -37.16,-37.99 -79.67,-56.99 -128.01,-56.99 -45.84,0 -82.33,13.66 -109.32,40.99 -27.02,27.34 -40.51,64.18 -40.51,110.33 0,87.52 49.67,141 149.01,160.51 26.17,5.16 63.51,8.33 112.01,9.34l0 30.66c0,28.67 -4.68,48.34 -14.18,58.99 -9.5,10.83 -26.65,16.18 -51.83,16.18 -30,0 -67.34,-8.68 -112.01,-25.84 -4.15,-2.16 -7.99,-3.33 -11.15,-3.33 -4.18,0 -7.51,3.33 -9.82,10.17l-21 60c-1.68,3.49 -2.5,7.16 -2.5,10.67 0,10.83 18.66,21.16 55.82,31.15 37,10.17 75.67,15.17 115.68,15.17 80.49,0 132.32,-25.66 155.83,-77.17 9.5,-20.5 14.16,-47.99 14.16,-82.84l0 -204c0,-40.33 7.67,-76.32 22.84,-107.83 2,-4.32 3.01,-7.99 3.01,-11.15zm-144.83 85.66l0 110.49c-50.01,0 -86,-6.15 -107.51,-18.32 -21.67,-12.35 -32.5,-32.85 -32.5,-61.83 0,-19.67 6.17,-36.01 18.5,-49.16 12.33,-13.17 27.5,-19.83 45.33,-19.83 26.67,0 52.17,12.83 76.18,38.65z"
   id="glyph9" />
   <glyph
   unicode="c"
   horiz-adv-x="407"
   d="M405.5 454c0,-3.99 -0.83,-7.67 -2.85,-11.18l-34.66 -63.99c-2.66,-4.5 -5.67,-6.84 -9.34,-6.84 -2.82,0 -6.15,1.33 -9.66,4.02 -30.99,22.65 -59.17,33.99 -84.99,33.99 -66.01,0 -98.99,-56 -98.99,-167.83 0,-105.51 33.33,-158.17 100,-158.17 26.65,0 53.98,9.32 81.99,27.82 4.84,3.51 8.49,5.35 10.67,5.35 3.01,0 5.83,-2.34 8.33,-7.34l24.01 -60.99c1.81,-4.84 2.82,-8.68 2.82,-11.68 0,-12.67 -15.68,-24.83 -47.17,-36.66 -31.33,-11.68 -63.99,-17.51 -97.82,-17.51 -68.01,0 -120.85,22.17 -158.51,66.68 -37.5,44.32 -56.33,106.66 -56.33,187.16 0,84.83 20.66,151.83 61.83,200.67 41.15,49 97.5,73.49 169.16,73.49 30.5,0 61.83,-6.5 93.67,-19.33 32,-12.83 47.83,-25.34 47.83,-37.67z"
   id="glyph10" />
   <glyph
   unicode="d"
   horiz-adv-x="519"
   d="M465.66 30.83c0,-3.49 -3.01,-6.5 -8.84,-8.65l-83 -33.17c-5.16,-2 -8.65,-3.01 -10.17,-3.01 -11.15,0 -20.15,17.01 -26.99,51.16 -43.84,-36.15 -90.66,-54.17 -140.01,-54.17 -51.83,0 -91.83,22.17 -120.16,66.68 -28.32,44.32 -42.51,107.01 -42.51,188 0,95.32 19.51,166.5 58.67,213.32 33.83,40.01 76.5,60 127.66,60 32.18,0 65.19,-9.32 98.67,-28.16l0 203.18c0,9.98 5,16 15.17,17.99l102 19.99c6.5,0 9.82,-5.67 9.82,-16.98l0 -583.85c0,-30.32 5.83,-58.83 17.67,-85.82 0.67,-1.68 1.33,-3.83 2,-6.52zm-146.67 85.34l0 275.84c-23.82,11.98 -47.83,17.99 -71.82,17.99 -31.67,0 -54.01,-12.33 -66.84,-37.16 -12.83,-24.67 -19.35,-67.34 -19.35,-127.85 0,-57.84 6.17,-99.66 18.34,-125.5 12.16,-25.66 32,-38.49 59.49,-38.49 31.35,0 58,11.66 80.17,35.16z"
   id="glyph11" />
   <glyph
   unicode="e"
   horiz-adv-x="480"
   d="M450.01 237.84c0,-8.68 -1.33,-15.01 -3.83,-19 -2.69,-3.83 -8.68,-5.83 -18.02,-5.83l-268.16 0c2,-84.01 38.84,-126.01 110.49,-126.01 37.16,0 75.01,10.35 113.34,31.17 5.16,2.66 9.5,3.83 12.99,3.83 5,0 8.68,-2.98 11.34,-9.16l24.67 -59.49c2,-5 2.98,-8.68 2.98,-11.34 0,-8.68 -13.66,-19 -40.99,-30.66 -43.66,-18.84 -89.65,-28.35 -138.17,-28.35 -63.49,0 -113.16,16.5 -148.99,49.35 -49.83,45.49 -74.66,115.82 -74.66,210.82 0,80.33 19.99,145.01 60,194.18 40.17,49.16 93,73.65 158.83,73.65 132.16,0 198.17,-90.98 198.17,-273.16zm-133.01 68.17c-1.01,41.5 -7,70.83 -18.16,88 -11.02,17.33 -29.33,26.01 -54.67,26.01 -29.68,0 -51.35,-12.51 -64.68,-37.69 -8.81,-16.32 -14.99,-41.82 -18.5,-76.32l156.01 0z"
   id="glyph12" />
   <glyph
   unicode="g"
   horiz-adv-x="500"
   d="M464.68 473.99c0,-2.66 -2.02,-8.65 -5.85,-18.16 -14.48,-34.68 -21.83,-72.51 -21.83,-113.18l0 -148c0,-54.65 1.01,-108.82 3.01,-162.5 1.33,-36.15 2,-57.15 2,-62.98 0,-57.34 -16.16,-101.34 -48.66,-132 -32.34,-30.85 -78.84,-46.18 -139.51,-46.18 -42.32,0 -86.83,6.33 -133.33,18.84 -46.66,12.49 -69.84,24.65 -69.84,36.33 0,2.32 0.67,5.49 1.84,9.82l21.51 68.83c2,6.84 5.67,10.17 10.83,10.17 3.01,0 5.83,-0.83 8.84,-2.82 54.33,-24.83 104,-37.18 148.66,-37.18 27.66,0 47.33,6.33 58.99,19 11.84,12.67 17.67,33.99 17.67,64.01 0,14.32 -1.65,35.99 -4.82,64.98 -35.35,-24.65 -74,-37 -116.35,-37 -50.5,0 -90.5,21.85 -119.84,65.67 -29.33,43.68 -44,102.85 -44,177.33 0,80.33 16.5,144.17 49.35,191.33 32.82,47.17 77.33,70.67 133.33,70.67 40.65,0 79,-15.33 115.15,-46.16 13.34,32.82 25.18,49.16 35.16,49.16 4.02,0 7.18,-0.67 9.85,-2l79 -28.35c5.83,-2.82 8.84,-6.15 8.84,-9.66zm-150.68 -332.84l0 236c-25.66,19.17 -49.33,28.85 -70.83,28.85 -54.83,0 -82.17,-50.68 -82.17,-152.02 0,-97.98 24.67,-146.99 73.84,-146.99 31.01,0 57.34,11.34 79.16,34.15z"
   id="glyph13" />
   <glyph
   unicode="h"
   horiz-adv-x="537"
   d="M472 17.01c0,-11.34 -5.67,-17.01 -17.17,-17.01l-93.16 0c-11.15,0 -16.66,5.67 -16.66,17.17l0 308.67c0,30.32 -4.18,51.99 -12.67,64.84 -8.49,12.83 -22.65,19.33 -42.51,19.33 -27.31,0 -55.82,-13.68 -85.82,-41.18l0 -351.66c0,-11.5 -5.67,-17.17 -17.17,-17.17l-92.66 0c-11.5,0 -17.17,5.67 -17.17,17.17l0 668.84c0,9.98 4.82,16 14.67,17.99l93.33 19c1.84,0.67 4.84,0.99 8.84,0.99 6.84,0 10.17,-5.67 10.17,-16.98l0 -253.83c40.67,38.49 86.51,57.82 137.67,57.82 51.48,0 88.16,-17.99 110.33,-54.17 13.34,-21.83 19.99,-56.17 19.99,-102.99l0 -336.83z"
   id="glyph14" />
   <glyph
   unicode="i"
   horiz-adv-x="295"
   d="M236 641c0,-22.49 -7.83,-41.5 -23.5,-57.34 -15.65,-15.84 -34.82,-23.66 -57.66,-23.66 -22.68,0 -41.68,7.83 -57.34,23.66 -15.68,15.84 -23.5,35.16 -23.5,58.35 0,21.83 8.01,40.49 24.01,56.33 16,15.84 35.16,23.66 57.66,23.66 22.33,0 41.18,-7.99 56.83,-23.82 15.68,-16 23.5,-35 23.5,-57.17zm-14 -623.99c0,-11.34 -5.67,-17.01 -17.17,-17.01l-93.16 0c-11.15,0 -16.66,5.67 -16.66,17.17l0 383.84 -76 0c-11.34,0 -17.01,5.67 -17.01,16.98l0 59.01c0,11.34 5.67,17.01 17.01,17.01l185.99 0c11.34,0 17.01,-5.67 17.01,-17.01l0 -459.99z"
   id="glyph15" />
   <glyph
   unicode="k"
   horiz-adv-x="500"
   d="M502.82 42.99c0,-4.15 -3.33,-8.15 -9.82,-12.16l-79 -44c-5,-2.5 -8.33,-3.83 -10.33,-3.83 -3.83,0 -8.17,3.17 -12.67,9.34l-187 239.67 0 -214.84c0,-11.5 -5.67,-17.17 -17.17,-17.17l-92.66 0c-11.5,0 -17.17,5.67 -17.17,17.17l0 668.84c0,9.98 4.82,16 14.67,17.99l102.16 19.99c6.84,0 10.17,-5.67 10.17,-16.98l0 -400.84 193.83 195.01c5.16,5.16 9.32,7.83 12.16,7.83 2,0 5.83,-2.34 11.66,-6.84l54.33 -42.99c5.16,-4.18 7.67,-8.33 7.67,-12.16 0,-3.33 -2.16,-7.16 -6.82,-11.66l-164 -158.35 184.15 -221.65c3.83,-4.34 5.83,-8.33 5.83,-12.35z"
   id="glyph16" />
   <glyph
   unicode="l"
   horiz-adv-x="277"
   d="M289.16 11.34c0,-6.84 -10.99,-13.34 -32.82,-19.35 -21.67,-5.99 -44.51,-9 -68.33,-9 -59.52,0 -97.5,24.17 -113.66,72.35 -6.17,17.17 -9.34,57.66 -9.34,121.49l0 508.17c0,10.67 5,17.01 15.17,19l89.84 17.99c6.82,1.33 10.99,2 12.16,2 6.5,0 9.82,-5.67 9.82,-17.17l0 -520.82c0,-39.18 0.67,-61.17 2,-66.01 3.51,-13.34 12,-19.99 25.34,-19.99 9.16,0 19.99,2 32.66,5.99 2,0.67 4.34,1.01 6.84,1.01 4.66,0 7.32,-2 8.33,-6.01l21 -85.82c0.67,-1.33 0.99,-2.5 0.99,-3.83z"
   id="glyph17" />
   <glyph
   unicode="m"
   horiz-adv-x="777"
   d="M714.99 16.98c0,-11.32 -5.66,-16.98 -17.17,-16.98l-92.67 0c-11.48,0 -17.17,5.66 -17.17,16.98l0 316.01c0,51.32 -15,77 -44.99,77 -24.67,0 -53.34,-15 -86,-44.83l0 -348.18c0,-11.32 -5.66,-16.98 -17.17,-16.98l-90.68 0c-11.48,0 -17.17,5.66 -17.17,17.17l0 307.66c0,28.19 -1.65,47.01 -4.84,56.83 -6.15,18.85 -19.98,28.34 -41.16,28.34 -25,0 -53.65,-14.32 -86,-43l0 -349.83c0,-11.51 -5.66,-17.17 -17.17,-17.17l-91.17 0c-11.17,0 -16.65,5.66 -16.65,16.98l0 335.84c0,41.01 -6,77 -17.99,108 -2.02,3.83 -3,7.68 -3,11.17 0,5.51 3.64,9.49 10.8,11.66l81.19 27.33c6.49,1.35 9.82,2.02 9.82,2.02 11.66,0 22.49,-23.99 32.16,-72.01 50.68,46.67 100.35,69.99 149.35,69.99 51.51,0 87.83,-23.32 108.98,-69.99 51.69,46.67 103.16,69.99 154.67,69.99 46.67,0 78.68,-16.83 95.85,-50.31 12.15,-23.01 18.15,-61.33 18.15,-114.67l0 -329.02z"
   id="glyph18" />
   <glyph
   unicode="n"
   horiz-adv-x="537"
   d="M473.01 17.01c0,-11.34 -5.67,-17.01 -17.17,-17.01l-93.16 0c-11.18,0 -16.66,5.67 -16.66,17.17l0 308.67c0,56.17 -19,84.17 -57.17,84.17 -26.01,0 -54.99,-13.68 -86.83,-41.18l0 -351.66c0,-11.5 -5.67,-17.17 -17.17,-17.17l-93.16 0c-11.18,0 -16.66,5.67 -16.66,17.17l0 335.84c0,42.83 -6.84,79.16 -20.68,108.82 -2.16,4.18 -3.33,7.67 -3.33,10.17 0,3.99 2.82,6.84 8.33,8.84l88.67 33.17c3.67,1.33 7,2 10.33,2 12.35,0 24.17,-23 35.67,-69.16 46.5,42.83 96.33,64.15 149.67,64.15 86.16,0 129.34,-52.65 129.34,-158.17l0 -335.82z"
   id="glyph19" />
   <glyph
   unicode="o"
   horiz-adv-x="500"
   d="M468 248c0,-81.67 -19.33,-146.35 -58.16,-193.83 -38.84,-47.51 -91.67,-71.18 -158.83,-71.18 -68.51,0 -121.83,23.34 -160.35,69.84 -38.49,46.5 -57.66,111.16 -57.66,194.16 0,81 19.17,144.67 57.66,190.85 40.67,48.82 95.51,73.15 164.18,73.15 65.83,0 117.82,-23.66 155.99,-70.83 38.17,-47.17 57.17,-111.16 57.17,-192.16zm-135.01 -2c0,58.99 -6.5,100.99 -19.49,126.17 -13.01,25.16 -34.52,37.83 -64.52,37.83 -28.67,0 -49.33,-12.83 -62,-38.49 -12.67,-25.84 -19,-67.18 -19,-124.52 0,-57.82 6.52,-99.5 19.35,-125 12.83,-25.32 33.67,-37.99 62.66,-37.99 29.33,0 50.5,12.67 63.51,37.99 12.99,25.5 19.49,66.84 19.49,124.01z"
   id="glyph20" />
   <glyph
   unicode="p"
   horiz-adv-x="519"
   d="M486 254.84c0,-181.17 -61.01,-271.85 -182.84,-271.85 -36.15,0 -70.17,8.68 -102.16,25.84l0 -180.84c0,-9.98 -5,-16 -15.17,-17.99l-93.33 -19.99 -9.66 -1.01c-5.83,0 -8.84,5.35 -8.84,16.18l0 549.65c0,32.5 -6.5,65.51 -19.67,99.02 -1.49,3.33 -2.32,5.83 -2.32,7.83 0,3.33 3.49,6.33 10.33,9.34l86.83 36.49c4.82,2.32 7.99,3.49 9.34,3.49 9.32,0 18.66,-17.33 27.82,-51.99 38.33,34.66 80.68,51.99 126.84,51.99 115.18,0 172.83,-85.34 172.83,-256.15zm-127 -4.02c0,106.18 -26.67,159.18 -80.17,159.18 -25.16,0 -51.16,-12 -77.83,-36.17l0 -275.82c23.5,-12.67 46.85,-19 70.01,-19 32.5,0 55.34,12.67 68.49,37.99 13.01,25.5 19.51,70.01 19.51,133.84z"
   id="glyph21" />
   <glyph
   unicode="r"
   horiz-adv-x="352"
   d="M365.18 488.5c0,-1.84 -0.67,-5.51 -2.34,-10.67l-30.83 -80.84c-2.34,-5.83 -4.84,-8.81 -7.85,-8.81 -0.99,0 -3.33,0.67 -7.32,2 -15.01,5.16 -28.35,7.83 -40.01,7.83 -21.51,0 -46.82,-16 -75.84,-47.83l0 -333c0,-11.5 -5.67,-17.17 -17.17,-17.17l-93.16 0c-11.15,0 -16.66,5.67 -16.66,17.01l0 303.66c0,47.83 -10.01,94.15 -30,139.16 -1.33,3.83 -2,7 -2,9.16 0,4.34 3.33,7.51 9.82,9.85l81 28.67c5.83,2.32 10.01,3.49 12.16,3.49 13.34,0 26.01,-26.01 38.17,-77.83 7.83,9.34 19,22.33 33.67,38.84 26.01,26.01 56.51,39 91.33,39 14.67,0 27.84,-2.32 39.5,-6.82 11.66,-4.52 17.51,-9.69 17.51,-15.68z"
   id="glyph22" />
   <glyph
   unicode="s"
   horiz-adv-x="425"
   d="M392.99 144.99c0,-45.49 -15.33,-84.17 -45.84,-116.16 -29.49,-30.5 -70.49,-45.84 -122.66,-45.84 -58.83,0 -115.34,14 -169.51,42 -14.67,7.51 -21.99,13.84 -21.99,19 0,2.66 0.99,6.66 2.98,12.16l22.84 61.01c2.66,6.5 6.01,9.82 9.85,9.82 2.32,0 5.33,-0.99 9.32,-3.01 52.84,-28.67 98.01,-42.99 135.83,-42.99 38.84,0 58.16,17.17 58.16,51.67 0,14.32 -4.82,25.5 -14.32,33.33 -9.66,7.67 -30.5,17.67 -62.66,29.68 -52.52,20.15 -87.01,38.33 -104,54.17 -26.67,25.5 -40.01,58.16 -40.01,98.17 0,47.83 16.66,86.99 49.99,117.33 33.35,30.48 76.02,45.65 128.01,45.65 31.49,0 64.84,-5.33 100,-16.16 35,-10.67 52.65,-20.68 52.65,-30.16 0,-2.5 -0.99,-6.17 -2.98,-10.67l-24.67 -57.01c-2.66,-5.83 -5.99,-8.81 -10.17,-8.81 -1.33,0 -3.99,0.67 -7.83,2 -38.51,17.17 -72,25.82 -100.51,25.82 -42.32,0 -63.49,-16.98 -63.49,-50.82 0,-13.68 4.15,-24.17 12.33,-31.35 8.17,-7.32 25.84,-16.32 53,-26.65 60,-23.5 98.33,-43.52 114.99,-60 27.18,-26.85 40.67,-60.85 40.67,-102.19z"
   id="glyph23" />
   <glyph
   unicode="t"
   horiz-adv-x="370"
   d="M366 21.99c0,-8.15 -10.33,-15.33 -31.17,-21.99 -35.16,-11.34 -68.83,-17.01 -101.18,-17.01 -59.15,0 -99.5,21.51 -120.98,64.5 -9.18,18.84 -13.68,49.85 -13.68,92.68l0 260.83 -69.32 0c-11.18,0 -16.69,5.67 -16.69,16.98l0 59.01c0,11.34 5.51,17.01 16.69,17.01l69.32 0 0 126.15c0,10.51 5.35,16.5 16.18,18.18l91.83 12.67 8.81 0c6.84,0 10.17,-5.35 10.17,-16.18l0 -140.81 113.68 0c11.32,0 17.17,-3.35 17.17,-10.17 0,-4.02 -0.34,-6.84 -1.01,-8.84l-13.17 -58.83c-2,-10.17 -7.83,-15.17 -17.65,-15.17l-99.02 0 0 -243c0,-22.84 1.17,-37.5 3.51,-44 4.5,-13.34 15.65,-20.01 33.49,-20.01 15.68,0 37.67,5.67 66.01,16.85 3.17,1.33 6.17,2 8.65,2 4.68,0 8.01,-3.33 10.35,-9.82l15.65 -69.68c1.51,-5.99 2.34,-9.66 2.34,-11.34z"
   id="glyph24" />
   <glyph
   unicode="u"
   horiz-adv-x="537"
   d="M484.99 15.33c0,-3.99 -3.33,-6.66 -9.82,-8.33l-84.01 -19c-5.83,-1.33 -9.66,-2 -11.15,-2 -11.5,0 -21.35,18.34 -29.84,54.99 -40.67,-38.65 -86.83,-58 -138.17,-58 -50.15,0 -87.66,14.35 -112.84,43.01 -16.32,18.5 -26.49,42.67 -30.66,72.32 -2.32,14 -3.49,40.67 -3.49,80.01l0 293.15c0,9.66 5,15.52 15.17,17.51l92.82 19.99c1.33,0.67 4.02,1.01 8.33,1.01 7.18,0 10.67,-5.16 10.67,-15.68l0 -310.16c0,-37.5 3.17,-61.83 9.34,-73.33 9.32,-17.83 26.67,-26.83 51.67,-26.83 26.67,0 54.33,12 83,36.15l0 351.18c0,9.82 5,15.68 15.17,17.67l92.82 19.99 10.17 1.01c5.83,0 8.84,-5.16 8.84,-15.68l0 -368.16c0,-42.67 6.33,-76.66 19,-102 2,-3.01 2.98,-6.01 2.98,-8.84z"
   id="glyph25" />
   <glyph
   unicode="w"
   horiz-adv-x="667"
   d="M658.17 477.16c0,0 -1.17,-3.49 -3.49,-10.33l-137.67 -461.16c-2.85,-9.16 -9.34,-13.68 -19,-13.68l-83 0c-7.18,0 -11.68,0.69 -13.5,2.18 -1.68,1.49 -3.35,5.99 -4.68,13.5l-46.82 253.51c-1.01,4.5 -3.33,21.48 -7.34,50.82l-3.83 37.16 -2.98 23.85c-2.5,-22.84 -8.52,-60 -18.02,-111.83l-59.15 -254.52c-2.18,-9.82 -8.01,-14.67 -17.51,-14.67l-81.99 0c-9.5,0 -15.52,4.84 -18.18,14.67l-121.01 460.18c-1.33,5.16 -2,9 -2,11.18 0,5.33 5,8.49 15.17,9.82l87.84 13.17c0.67,0.67 3.33,0.99 7.83,0.99 6.17,0 10.33,-4.66 12.16,-14.16l47.01 -230.01c5.16,-25.32 12.16,-77.65 21,-156.84 6.15,68.67 12.16,116.67 17.99,144l49.83 233.84c2.16,10.17 8.33,15.17 17.99,15.17l89.84 0c10.17,0 16.18,-5 18.18,-15.17l45.33 -225c6.82,-35.16 13.34,-86 19.49,-152.84 8.84,84.35 16.34,139.67 22.52,166.18l50.82 220.67c2.18,9.5 5.83,14.16 10.67,14.16 5.51,0 8.68,-0.32 9.34,-0.99l81.99 -13.17c10.17,-1.33 15.17,-4.84 15.17,-10.67z"
   id="glyph26" />
   <glyph
   unicode="z"
   horiz-adv-x="425"
   d="M414.16 95.16c0,-2.5 -0.99,-6.33 -2.98,-11.15l-30.18 -70.83c-3.99,-8.84 -10.33,-13.17 -19.17,-13.17l-319.66 0c-11.5,0 -17.17,5.67 -17.17,17.01l0 68.65 232.83 307.34 -194.66 0c-11.5,0 -17.17,5.83 -17.17,17.33l0 66.52c0,11.5 5.67,17.17 17.17,17.17l314.84 0c7.83,0 12.67,-1.33 14.48,-4.18 1.68,-2.66 2.69,-7 2.69,-12.83l0 -73.33 -226.18 -298.66 229 0c10.83,0 16.16,-3.35 16.16,-9.85z"
   id="glyph27" />
  </font>
  <font
   id="FontID0"
   horiz-adv-x="537"
   font-variant="normal"
   style="fill-rule:nonzero"
   font-style="normal"
   font-weight="400">
	<font-face
   font-family="Officina Sans OS ITC TT"
   id="font-face27">
		<font-face-src>
			<font-face-name
   name="Officina Sans OS ITC TT" />
		</font-face-src>
	</font-face>
   <missing-glyph
   id="missing-glyph27"><path
     d="M0 0z"
     id="path27" /></missing-glyph>
   <glyph
   unicode="("
   horiz-adv-x="370"
   d="M316.84 -202.17c0,-3.83 -5.67,-9.5 -16.85,-16.82 -11.15,-7.34 -19.99,-11.02 -26.17,-11.02 -9.66,0 -32.66,27.02 -68.83,81 -81.99,122.84 -122.98,255.51 -122.98,398 0,153.67 48.32,296.69 144.99,429.17 24.49,33.17 40.01,49.85 46.82,49.85 3.67,0 7.67,-1.35 12.35,-3.86l23.82 -15.15c4.66,-3.01 6.84,-5.83 6.84,-8.84 0,-3.83 -2.85,-10.01 -8.84,-17.99 -96.01,-128.01 -144,-272.33 -144,-433.18 0,-159.82 47.99,-304.17 144,-433.16 5.99,-7.99 8.84,-14.16 8.84,-17.99z"
   id="glyph28" />
   <glyph
   unicode=")"
   horiz-adv-x="370"
   d="M289 248.99c0,-153.32 -48.34,-296.32 -145.15,-429.17 -24.35,-33.17 -40.01,-49.83 -46.85,-49.83 -3.49,0 -7.67,1.33 -12.16,3.83l-24.01 14.18c-4.5,3.65 -6.82,6.82 -6.82,9.82 0,3.83 2.98,10.01 8.84,17.99 96.15,128.99 144.17,273.34 144.17,433.16 0,159.84 -48.02,304.17 -144.17,433.18 -5.85,7.83 -8.84,13.82 -8.84,17.99 0,3.01 7.67,9.32 23,19 9.32,5.83 16.16,8.84 19.99,8.84 9.16,0 32,-27.02 68.83,-81.02 82.17,-120.48 123.16,-253.14 123.16,-398z"
   id="glyph29" />
   <glyph
   unicode="."
   horiz-adv-x="295"
   d="M219.17 57.17c0,-19.51 -7,-36.17 -20.84,-50.17 -13.84,-14 -30.34,-21 -49.51,-21 -19.83,0 -36.66,6.84 -50.34,20.5 -13.66,13.68 -20.5,30.5 -20.5,50.68 0,19.49 7,36.15 21,49.67 14,13.5 31.01,20.15 50.84,20.15 18.5,0 34.66,-6.84 48.5,-20.66 13.84,-13.84 20.84,-30.18 20.84,-49.16z"
   id="glyph30" />
   <glyph
   unicode="/"
   horiz-adv-x="443"
   d="M428 721.17c0,-2 -0.99,-5.35 -3.01,-10.33l-387.65 -931c-2.5,-5.83 -8.01,-8.84 -16.02,-8.84l-39.16 0c-8.84,0 -13.17,2.34 -13.17,6.84 0,2.98 1.17,5.99 3.51,9.32l386.66 930.68c2.85,6.82 8.33,10.17 16.18,10.17l39 0c9.16,0 13.66,-2.34 13.66,-6.84z"
   id="glyph31" />
   <glyph
   unicode="1"
   horiz-adv-x="500"
   d="M424.83 14.16c0,-9.5 -4.5,-14.16 -13.66,-14.16l-264.18 0c-9.48,0 -14.16,4.66 -14.16,14.16l0 37.67c0,9.5 4.68,14.16 14.16,14.16l102 0 0 426.18 -111.83 -67.34c-4.5,-2.66 -7.99,-3.99 -10.17,-3.99 -3.01,0 -5.33,2.5 -6.84,7.32l-13.15 24.01c-2,3.49 -3.01,6.5 -3.01,8.84 0,3.17 2.34,6.66 6.84,10.17l150.34 109.83 49.65 0c9.5,0 14.18,-4.66 14.18,-14.16l0 -500.85 86.16 0c9,0 13.66,-4.66 13.66,-14.16l0 -37.67z"
   id="glyph32" />
   <glyph
   unicode="2"
   horiz-adv-x="500"
   d="M431 14.16c0,-9.5 -4.68,-14.16 -14.16,-14.16l-335.68 0c-6.15,0 -9.66,1.49 -10.65,4.34 -1.01,2 -1.51,5.33 -1.51,9.82 0,65 13.34,119.67 40.17,163.51 26.83,44 70.83,83.32 132,118.16 45.84,26.33 74.5,46.66 85.84,61.01 14.67,18.5 21.99,41.15 21.99,67.83 0,28.32 -8.49,50.5 -25.66,66.33 -17.01,16 -40.51,24.01 -70.51,24.01 -28.16,0 -51,-7.34 -68.49,-22.17 -17.33,-14.83 -32.34,-39.85 -45.01,-74.85 -2.66,-6.5 -6.15,-9.82 -10.33,-9.82 -2,0 -5.16,0.67 -9.66,2l-40.99 11.66c-5.51,2.34 -8.33,5.67 -8.33,10.35 0,7.48 4.34,20.5 13.15,39 8.84,18.66 17.83,33.99 27.02,46 35.48,45.84 84.49,68.83 147.15,68.83 53.85,0 96.17,-14 127.18,-42 31.01,-28 46.5,-66.33 46.5,-114.83 0,-47.17 -14.67,-86.32 -44,-117.33 -12.83,-12.99 -24.51,-23 -35.35,-30.16 -9.16,-6.17 -39.66,-24.17 -91.49,-53.85 -68.83,-39.66 -106.5,-91.33 -113,-154.84l269.67 0c9.48,0 14.16,-4.66 14.16,-14.16l0 -44.67z"
   id="glyph33" />
   <glyph
   unicode="3"
   horiz-adv-x="500"
   d="M434.01 109.83c0,-57.15 -19.67,-103.49 -58.85,-138.82 -39.16,-35.35 -90.66,-53.02 -154.65,-53.02 -34.34,0 -70.17,5 -108.02,15.17 -37.67,10.01 -56.49,19.67 -56.49,28.83 0,1.51 0.99,4.68 3.01,9.18l19.99 44.99c1.65,3.83 3.83,5.83 6.84,5.83 2.5,0 10.17,-2.98 23,-8.81 33.83,-16.18 70.49,-24.17 109.83,-24.17 88.83,0 133.33,41.34 133.33,123.99 0,82.01 -48.66,123 -146,123l-34.34 0c-9,0 -13.66,4.66 -13.66,14l0 40.01c0,9.32 4.66,14 13.82,14l33.17 0c39.34,0 70.85,10.83 94.01,32.5 23.32,21.67 35,50.66 35,87.15 0,29.33 -8.84,52.84 -26.35,70.17 -17.65,17.51 -41.31,26.17 -70.83,26.17 -36.49,0 -70.17,-16.98 -100.65,-50.82 -7.85,-8.68 -14.18,-13.17 -19.19,-13.17 -2.16,0 -4.98,1.33 -8.15,3.99l-32.85 27.84c-3.49,2.34 -5.33,5 -5.33,8.33 0,10.01 16.16,26.99 48.34,50.84 34.82,25.98 74.99,39 120.66,39 50.66,0 91.99,-14.83 123.67,-44.51 31.84,-29.49 47.65,-68.17 47.65,-115.66 0,-70.67 -34.31,-119.67 -102.99,-147.01 27.84,-8.49 49.33,-18.66 64.5,-30.66 40.99,-32.66 61.51,-78.66 61.51,-138.34z"
   id="glyph34" />
   <glyph
   unicode="4"
   horiz-adv-x="500"
   d="M469.5 86.83c0,-9.16 -4.82,-13.84 -14.16,-13.84l-79.32 0 0 -140.81c0,-9.5 -4.68,-14.18 -14.18,-14.18l-46.66 0c-9.5,0 -14.16,4.68 -14.16,14.18l0 140.81 -257.83 0c-6.17,0 -9.85,1.84 -11.18,5.35 -0.67,2 -0.99,4.82 -0.99,8.33l0 56.17 259.32 430.34c3.17,5.16 8.84,7.83 17.01,7.83l49.83 -7.83c8.17,-1.33 12.16,-4.34 12.16,-9.18 0,-2.32 -1.33,-5.33 -3.83,-8.81l-255.33 -416.18 190.67 0 11.15 160.83c0.67,8.84 5.51,13.17 14.16,13.17l35.67 0c9.5,0 14.18,-4.68 14.18,-14.16l0 -159.84 79.32 0c9.34,0 14.16,-4.84 14.16,-14.35l0 -37.83z"
   id="glyph35" />
   <glyph
   unicode="5"
   horiz-adv-x="500"
   d="M434.01 150.84c0,-72 -21.19,-128.67 -63.35,-170.35 -42.32,-41.66 -99.66,-62.5 -171.98,-62.5 -36.17,0 -67.02,3.51 -92.52,10.35 -25.5,6.82 -38.15,14.99 -38.15,24.83l0 6.82 10.33 40.01c1.17,5.16 4.5,7.83 9.66,7.83 2,0 5.67,-0.67 11.15,-2 30.02,-11.15 64.68,-16.82 104.02,-16.82 99.16,0 148.82,53 148.82,159.15 0,40.01 -9.16,71.18 -27.34,93.35 -18.16,22.33 -43.66,33.49 -76.66,33.49 -41.5,0 -80.33,-18.34 -116,-54.83 -3.99,-4.15 -6.84,-6.33 -8.84,-6.33l-9.34 1.01 -34.66 12.16c-7.51,2.66 -11.15,5.67 -11.15,8.84l0 7.32 32.16 319.68c0.67,8.81 5.33,13.15 13.66,13.15l260.35 0c9.5,0 14.16,-4.66 14.16,-14.16l0 -41.66c0,-9.5 -4.66,-14.18 -14.16,-14.18l-209.01 0 -22.01 -202.83c38.84,28.51 79,42.85 120.5,42.85 50.52,0 91.67,-18.02 123.19,-54.17 31.49,-36.17 47.17,-83.18 47.17,-141z"
   id="glyph36" />
   <glyph
   unicode="6"
   horiz-adv-x="500"
   d="M443.01 224.16c0,-69.98 -18.02,-127.16 -53.85,-171.48 -35.99,-44.51 -82.49,-66.68 -139.67,-66.68 -67.83,0 -118.67,30.83 -152.34,92.34 -25.5,46.16 -38.15,106.66 -38.15,181.67 0,120 25,215.66 74.99,286.49 50.01,70.99 117.17,106.5 201.85,106.5 23.16,0 42.99,-2.16 59.33,-6.33 16.48,-4.34 24.65,-9.5 24.65,-15.68 0,-2.66 -0.32,-4.66 -0.99,-5.83l-10.67 -42.16c-1.33,-4.5 -3.83,-6.84 -7.32,-6.84l-6.84 0.85c-20.18,6.66 -40.51,9.98 -61.01,9.98 -54.17,0 -98.01,-23.16 -131.84,-69.5 -27.98,-37.99 -46.16,-86.16 -54.33,-144.49 38.01,43.33 80.49,65 127.5,65 51.35,0 92.34,-19.51 122.84,-58.51 30.5,-39.16 45.84,-90.82 45.84,-155.34zm-82.01 -1.15c0,97.32 -37.16,146 -111.5,146 -34.34,0 -60.99,-12.51 -79.99,-37.67 -19,-25.02 -28.51,-60.5 -28.51,-106.34 0,-112.01 36.49,-168.01 109.51,-168.01 73.65,0 110.49,55.34 110.49,166.02z"
   id="glyph37" />
   <glyph
   unicode="7"
   horiz-adv-x="500"
   d="M426.67 538.84l-230.83 -605.67c-2.34,-6.66 -5.67,-10.17 -9.82,-10.17 -0.67,0 -2,0 -3.83,0l-2 0 -54.17 8.33c-8.17,1.01 -12.35,3.51 -12.35,7.85 0,2 1.17,4.98 3.51,9.32l215.82 555.5 -257.83 0c-9.5,0 -14.16,4.68 -14.16,14.16l0 43.68c0,9.5 4.66,14.16 14.16,14.16l337.84 0c9.16,0 13.66,-4.66 13.66,-14.16l0 -23z"
   id="glyph38" />
   <glyph
   unicode="8"
   horiz-adv-x="500"
   d="M459.99 167.16c0,-44.32 -14.32,-83 -42.99,-116.16 -37.67,-43.33 -93.16,-65 -165.99,-65 -64.18,0 -115.34,16.34 -153.67,48.84 -38.17,32.5 -57.34,76 -57.34,130.33 0,53.5 19,97 57.15,130.83 18.84,17.33 48.5,33.83 88.85,49.33 -78.68,30.69 -118,80.33 -118,149.01 0,42.32 15.33,78.66 45.81,108.84 33.86,33.17 79.85,49.83 138.17,49.83 53,0 96.01,-13.84 129.18,-41.66 33.17,-27.84 49.83,-64.01 49.83,-108.18 0,-67.83 -37.67,-119.67 -113.18,-155.83 94.84,-38.17 142.17,-98.17 142.17,-180.18zm-104.99 327.99c0,28.35 -9.69,51.18 -29.01,68.17 -19.49,17.17 -44.99,25.68 -77.01,25.68 -30.48,0 -55.16,-8.52 -74,-25.34 -18.66,-17.01 -28,-39.18 -28,-66.49 0,-46.69 35.35,-86.35 106.02,-119.17 67.99,27.66 102,66.65 102,117.15zm23 -332.81c0,63.65 -43.33,111.99 -130,144.83 -84.01,-34.5 -126.01,-82.84 -126.01,-144.83 0,-33.35 11.84,-60.02 35.67,-80.17 23.85,-20.18 55.18,-30.16 94.34,-30.16 37.67,0 68.17,10.15 91.33,30.48 23.18,20.34 34.68,46.85 34.68,79.85z"
   id="glyph39" />
   <glyph
   unicode=":"
   horiz-adv-x="295"
   d="M219.17 402.84c0,-19.51 -6.84,-36.01 -20.5,-49.51 -13.68,-13.5 -30.34,-20.34 -49.85,-20.34 -19.83,0 -36.66,6.84 -50.34,20.5 -13.66,13.68 -20.5,30.34 -20.5,50.34 0,19.51 7,36.01 21,49.67 14,13.68 31.01,20.5 50.84,20.5 18.5,0 34.66,-7 48.5,-21 13.84,-14 20.84,-30.66 20.84,-50.15zm0 -345.67c0,-19.51 -7,-36.17 -20.84,-50.17 -13.84,-14 -30.34,-21 -49.51,-21 -19.83,0 -36.66,6.84 -50.34,20.5 -13.66,13.68 -20.5,30.5 -20.5,50.68 0,19.49 7,36.15 21,49.67 14,13.5 31.01,20.15 50.84,20.15 18.5,0 34.66,-6.84 48.5,-20.66 13.84,-13.84 20.84,-30.18 20.84,-49.16z"
   id="glyph40" />
   <glyph
   unicode="A"
   horiz-adv-x="537"
   d="M517.17 7.83c0,-5.16 -4.84,-7.83 -14.16,-7.83l-64.01 0c-6.82,0 -11.82,3.67 -15.15,11.18l-54.67 194.82 -203.18 0 -56.17 -194.82c-1.84,-7.51 -6.82,-11.18 -14.67,-11.18l-60 0c-9.5,0 -14.16,2.34 -14.16,6.84 0,1.65 0.67,4.66 2,9.32l201.16 658.67c2.18,7.51 7.18,11.18 14.67,11.18l60.02 0c7.83,0 12.83,-3.67 15.15,-11.18l201.18 -658.67c1.33,-4.66 2,-7.32 2,-8.33zm-167 267.17l-60.16 220.16c-8.68,31.51 -16.34,63.51 -22.84,95.67 -4.66,-23.48 -12.33,-54.99 -23,-94.66l-60.16 -221.17 166.15 0z"
   id="glyph41" />
   <glyph
   unicode="B"
   horiz-adv-x="556"
   d="M500 188.99c0,-42 -10.33,-78.82 -30.83,-110.33 -20.5,-31.65 -48.68,-53.5 -84.51,-65.48 -25,-8.84 -68.33,-13.17 -129.82,-13.17l-145.18 0c-9.16,0 -13.66,4.66 -13.66,14.16l0 657.66c0,9.5 4.5,14.18 13.66,14.18l163.17 0c62.82,0 108.15,-9 136.15,-26.83 42.67,-27.68 64.01,-73.52 64.01,-137.19 0,-77.17 -32.68,-131.5 -98.17,-163.15 32.66,-9 56.49,-20.68 71.82,-34.68 35.51,-32.82 53.34,-77.99 53.34,-135.17zm-116 324.34c0,38.68 -8.49,66.17 -25.66,82.33 -17.17,16.16 -46.34,24.33 -87.33,24.33l-93 0 0 -238 72 0c39,0 67.5,5.99 84.99,18.16 32.68,22.68 49,60.34 49,113.18zm26.99 -321.84c0,51.35 -18.98,87.33 -57.15,108.34 -19.17,10.83 -46.5,16.16 -82.01,16.16l-93.83 0 0 -250 97.66 0c41.02,0 71.84,8.01 92.34,24.01 28.67,22.49 42.99,56.33 42.99,101.5z"
   id="glyph42" />
   <glyph
   unicode="C"
   horiz-adv-x="462"
   d="M441.17 63.99c0,-6.82 -9.34,-17.33 -27.84,-31.65 -39.66,-30.85 -84.83,-46.34 -135.33,-46.34 -73.49,0 -129.5,31.01 -168.17,93.16 -38.49,62.18 -57.82,152.5 -57.82,270.84 0,116.83 18.98,205.17 57.15,264.99 36.17,56.67 90.18,85.02 162,85.02 55.66,0 105.33,-18.68 149.01,-56 10.67,-9.18 16.16,-15.84 16.16,-20.01 0,-2.66 -0.67,-5.33 -2,-7.83l-29.33 -37.99c-1.33,-2.69 -3.99,-4.02 -7.83,-4.02 -2,0 -13.34,8.01 -34.18,24.01 -30,23.16 -60.32,34.84 -91.01,34.84 -45.65,0 -78.82,-21.85 -99.66,-65.51 -20.82,-43.68 -31.33,-113.18 -31.33,-208.66 0,-203.84 47.17,-305.84 141.34,-305.84 34.5,0 71.82,17.67 111.83,53 4.66,3.83 8.17,5.83 10.83,5.83 2.66,0 5.33,-2.32 8.33,-6.82l24.83 -33.17c2,-2.02 3.01,-4.5 3.01,-7.85z"
   id="glyph43" />
   <glyph
   unicode="E"
   horiz-adv-x="462"
   d="M431.99 679.17c0,-2.34 -0.67,-5.33 -2,-9.34l-15.17 -44c-2.66,-7.16 -7.67,-10.83 -15.15,-10.83l-221.68 0 0 -225.99 195.83 0c9.5,0 14.16,-4.66 14.16,-14l0 -38.49c0,-9 -4.66,-13.52 -14.16,-13.52l-195.83 0 0 -252 238.85 0c9.48,0 14.16,-4.5 14.16,-13.66l0 -43.17c0,-9.5 -4.68,-14.16 -14.16,-14.16l-307.17 0c-9.16,0 -13.66,4.66 -13.66,14.16l0 657.66c0,9.5 4.5,14.18 13.66,14.18l308.16 0c9.34,0 14.16,-2.34 14.16,-6.84z"
   id="glyph44" />
   <glyph
   unicode="F"
   horiz-adv-x="425"
   d="M431.99 679.17c0,-2.34 -0.32,-4.18 -0.99,-5.33l-1.01 -4.02 -15.17 -44c-2.66,-7.16 -7.67,-10.83 -15.15,-10.83l-221.68 0 0 -232.99 195.83 0c9.5,0 14.16,-4.5 14.16,-13.5l0 -38.51c0,-9.32 -4.66,-14 -14.16,-14l-195.83 0 0 -301.83c0,-9.5 -4.66,-14.16 -14.16,-14.16l-54.17 0c-9.16,0 -13.66,4.66 -13.66,14.16l0 657.66c0,9.5 4.5,14.18 13.66,14.18l308.16 0c9.34,0 14.16,-2.34 14.16,-6.84z"
   id="glyph45" />
   <glyph
   unicode="G"
   horiz-adv-x="537"
   d="M468.99 41.18c0,-7.18 -2.98,-12.19 -8.81,-15.17 -42.35,-26.67 -97.69,-40.01 -166.02,-40.01 -78.34,0 -138.15,30.16 -179.33,90.5 -41.15,60.34 -61.83,148.16 -61.83,263.34 0,117.17 20.84,206.5 62.5,267.99 41.66,61.51 102.16,92.18 181.67,92.18 51.32,0 99.5,-13.68 144,-41.02 13.34,-8.33 19.99,-14.99 19.99,-19.99 0,-2.16 -0.99,-5 -2.82,-8.17l-21 -42.99c-1.33,-2.5 -3.33,-3.83 -6.01,-3.83 -2.5,0 -12.99,5.99 -31.17,18.16 -31.65,20.5 -65.99,30.85 -103.15,30.85 -53.5,0 -92.68,-22.68 -117.68,-68.01 -24.83,-45.17 -37.32,-116.51 -37.32,-214.01 0,-105.17 12.99,-181.17 39,-227.83 26.01,-46.82 68.33,-70.17 127,-70.17 27.34,0 53.66,6.17 79,18.66l0 206.34 -77.67 0c-9.5,0 -14.16,4.66 -14.16,14.16l0 40.67c0,9.5 4.66,14.16 14.16,14.16l146 0c9.16,0 13.66,-4.66 13.66,-14.16l0 -291.66z"
   id="glyph46" />
   <glyph
   unicode="I"
   horiz-adv-x="332"
   d="M310.16 14.32c0,-9.48 -4.82,-14.32 -14.16,-14.32l-258.84 0c-9.5,0 -14.16,4.84 -14.16,14.32l0 37.34c0,9.5 4.66,14.32 14.16,14.32l87.84 0 0 554.01 -87.84 0c-9.5,0 -14.16,4.66 -14.16,13.84l0 37.83c0,9.5 4.66,14.35 14.16,14.35l258.84 0c9.34,0 14.16,-4.84 14.16,-14.35l0 -37.83c0,-9.18 -4.82,-13.84 -14.16,-13.84l-88.99 0 0 -554.01 88.99 0c9.34,0 14.16,-4.82 14.16,-14.32l0 -37.34z"
   id="glyph47" />
   <glyph
   unicode="K"
   horiz-adv-x="517"
   d="M503.67 37c0,-3.67 -2.18,-7 -6.84,-10.33l-45.84 -31.84c-3.99,-2.5 -7,-3.83 -9.32,-3.83 -2.85,0 -6.17,2.34 -9.69,6.84l-253.99 327.33 0 -311.01c0,-9.5 -4.66,-14.16 -14.16,-14.16l-54.17 0c-9.16,0 -13.66,4.66 -13.66,14.16l0 657.66c0,9.5 4.5,14.18 13.66,14.18l54.17 0c9.5,0 14.16,-4.68 14.16,-14.18l0 -324.66 256.84 340c3.99,5.19 7.16,7.85 9.82,7.85 2.34,0 5.35,-1.68 9.34,-4.84l37 -25c5.16,-3.51 7.83,-7 7.83,-10.17 0,-2.34 -1.65,-5.67 -4.82,-9.82l-235.33 -304.35 240.15 -295.15c3.33,-3.17 4.84,-6.17 4.84,-8.68z"
   id="glyph48" />
   <glyph
   unicode="M"
   horiz-adv-x="667"
   d="M593 9.82c0,-6.5 -4.18,-9.82 -12.67,-9.82l-58.16 0c-9.18,0 -13.84,4.34 -14.16,13.17l-15.01 512.67c0,-5.85 1.01,11.32 2.82,51.32l1.01 19.99c-4.5,-31.17 -11.5,-60.66 -21,-88.32l-117.17 -338c-2.66,-7.16 -7.48,-10.67 -14.67,-10.67l-29.33 0c-7.48,0 -12.49,3.51 -14.99,10.67l-112.84 338c-8.84,26.33 -15.17,55.82 -19,88.32l0 -18.98 1.84 -38.17 0 -19 -14.67 -507.83c0,-8.84 -4.34,-13.17 -12.83,-13.17l-54.33 0c-6.33,0 -10.17,0.83 -11.68,2.5 -1.49,1.49 -2.16,3.99 -2.16,7.32l0 4.34 37.67 658.67c0.67,8.84 5.33,13.17 14.16,13.17l59.17 0c7.51,0 12.51,-3.67 15.01,-11.18l117.82 -344.84c6.84,-19.83 11.68,-40.49 14.18,-62 1.33,11.5 5.65,32.18 13.15,62l118.85 344.84c2.66,7.51 7.67,11.18 15.15,11.18l63 0c8.17,0 12.51,-4.34 13.17,-13.17l37.67 -663.01z"
   id="glyph49" />
   <glyph
   unicode="P"
   horiz-adv-x="482"
   d="M466.01 502c0,-91.83 -33.17,-155.16 -99.68,-190 -28.48,-14.67 -67.16,-21.99 -116.48,-21.99l-71.84 0 0 -275.84c0,-9.5 -4.66,-14.16 -14.16,-14.16l-54.17 0c-9.16,0 -13.66,4.66 -13.66,14.16l0 657.66c0,9.5 4.5,14.18 13.66,14.18l153.51 0c59.65,0 102.32,-7.67 127.98,-23 49.83,-29.84 74.85,-83.69 74.85,-161.01zm-84.01 -0.99c0,57.5 -18.66,93.49 -55.84,107.65 -13.66,5.51 -37.16,8.33 -70.33,8.33l-77.83 0 0 -254.98 66.01 0c43.66,0 74.99,7.67 93.99,23 29.33,23.66 44,62.32 44,116z"
   id="glyph50" />
   <glyph
   unicode="R"
   horiz-adv-x="519"
   d="M504.66 8.49c0,-2.82 -3.83,-5.16 -11.66,-6.82l-61.01 -11.68 -5.49 0c-4.5,0 -8.01,2.69 -10.67,7.85l-162.16 313.17 -75.67 0 0 -296.85c0,-9.5 -4.66,-14.16 -14.16,-14.16l-54.17 0c-9.16,0 -13.66,4.66 -13.66,14.16l0 657.66c0,9.5 4.5,14.18 13.66,14.18l153.51 0c56.99,0 98.99,-7 125.99,-21 49.83,-26.01 74.85,-76 74.85,-150 0,-102.19 -43.33,-168.01 -130.19,-197.35l167 -297.83c2.5,-5 3.83,-8.65 3.83,-11.34zm-124.66 499.68c0,58.99 -21.51,94.66 -64.5,107.01 -11.5,3.17 -30.66,4.82 -57.84,4.82l-79.67 0 0 -246.01 76.85 0c36.15,0 63.49,7.67 82.15,22.84 28.67,23.34 43.01,60.5 43.01,111.34z"
   id="glyph51" />
   <glyph
   unicode="S"
   horiz-adv-x="482"
   d="M438.99 182.34c0,-58.67 -19.33,-106 -58.16,-142.17 -38.65,-36.17 -89.33,-54.17 -151.83,-54.17 -37.5,0 -78.34,7 -122.5,21 -44.34,14 -66.49,26.99 -66.49,39 0,2 0.67,4.66 2,8.33l19 47.67c1.33,3.33 3.49,5 6.82,5 3.01,0 8.68,-2.34 17.17,-6.84 51,-28.16 99.34,-42.16 145.01,-42.16 36.66,0 66.33,10.33 88.48,31.01 22.33,20.66 33.51,47.99 33.51,81.83 0,30.5 -8.49,56 -25.34,76.16 -16.98,20.18 -50.15,44.34 -99.66,72.67 -65.35,37.85 -107.33,67.18 -126.01,88.34 -26.65,30.32 -39.98,67.32 -39.98,110.84 0,53.16 18.32,96.49 54.99,130.33 36.49,33.83 83.82,50.84 141.82,50.84 33.51,0 69.68,-6.33 108.5,-19.17 39.02,-12.85 58.51,-24.51 58.51,-35 0,-1.84 -0.67,-4.5 -2,-7.67l-17.99 -45.33c-1.68,-4.02 -4.34,-5.85 -7.85,-5.85 -1.33,0 -15.65,6.68 -42.99,20.01 -30.32,14.67 -62.66,21.99 -97.16,21.99 -34.5,0 -61.51,-8.65 -80.84,-26.17 -19.33,-17.33 -29.01,-41.66 -29.01,-72.99 0,-35.67 13.34,-64.01 40.01,-84.83 7.16,-5.67 47.17,-30.5 120.18,-74.85 48.15,-28.48 81,-55.32 98.65,-79.99 22.17,-30.66 33.17,-66.49 33.17,-107.83z"
   id="glyph52" />
   <glyph
   unicode="a"
   horiz-adv-x="462"
   d="M405.66 24.67c0,-2 -1.33,-3.51 -3.83,-4.84l-42.99 -26.83c-2.69,-2 -5.16,-3.01 -7.85,-3.01 -12.65,0 -25.32,21 -38.15,63 -42.85,-42 -90.69,-63 -143.02,-63 -40.33,0 -72.48,12.35 -96.15,36.84 -23.85,24.67 -35.67,58 -35.67,100 0,113 88,171 264,174l0 33.17c0,32 -7.18,54.83 -21.35,68.49 -14.16,13.68 -37.67,20.5 -70.67,20.5 -33.17,0 -72.99,-9.66 -119.17,-28.99 -2.66,-1.17 -4.98,-1.84 -6.82,-1.84 -3.67,0 -6.01,1.49 -6.84,4.82l-15.17 40.01 -0.99 7.67c0,5 8.81,11.34 26.83,19 41.34,18.18 85.82,27.34 133.33,27.34 103.84,0 155.83,-46.66 155.83,-140.17l0 -188.99c0,-55.34 8.84,-98.99 26.67,-131.33 1.33,-2.18 2,-4.18 2,-5.83zm-103.65 85.15l0 128.99c-124.68,-0.99 -187.02,-36.31 -187.02,-106 0,-23.5 6.84,-42.49 20.5,-57.34 13.68,-14.83 31.35,-22.33 52.68,-22.33 33.33,0 71.18,19 113.85,56.67z"
   id="glyph53" />
   <glyph
   unicode="b"
   horiz-adv-x="500"
   d="M450.01 271.99c0,-190.64 -60.85,-285.99 -182.68,-285.99 -46.32,0 -88.99,16.34 -128.17,49.16 -12,-30.16 -22.84,-45.17 -32.32,-45.17 -2.02,0 -4.52,1.01 -7.85,3.01l-42.99 26.83c-2,1.84 -3.01,3.51 -3.01,4.84 0.34,2.66 1.33,5 3.01,7.32 18.66,24.51 28,59.49 28,105.01l0 561.17c0,6.82 3.65,10.99 11.15,12.67l51.67 12.16c0.67,0.67 3.01,0.99 6.84,0.99 4.15,0 6.33,-3.67 6.33,-11.15l0 -268.02c47.33,32.85 91.83,49.19 133.33,49.19 104.5,0 156.67,-74 156.67,-222.02zm-82.01 -10.65c0,110.49 -29.84,165.67 -89.33,165.67 -32.5,0 -72.16,-16.34 -118.67,-48.84l0 -285.51c29.65,-25.82 64.34,-38.65 104,-38.65 69.34,0 104,69.16 104,207.33z"
   id="glyph54" />
   <glyph
   unicode="c"
   horiz-adv-x="408"
   d="M398.16 430.18l-0.99 -6.33 -22.01 -39.02c-2.5,-4.66 -5.16,-6.82 -7.83,-6.82 -2.82,0 -5.67,1.17 -8.17,3.83 -40.67,30.16 -74.99,45.17 -102.99,45.17 -80.84,0 -121.17,-62.02 -121.17,-185.85 0,-124.84 37.16,-187.16 111.32,-187.16 22.17,0 43.01,4.5 62.5,13.66 11.34,5.67 29.84,17.33 55.18,35.35 2.98,2 5.33,2.98 7.32,2.98 2.66,0 4.84,-2 6.84,-5.83l15.17 -38.17c1.65,-4.15 2.5,-7.51 2.82,-10.17 0,-4.5 -5.33,-10.65 -16,-18.5 -42.67,-31.49 -89.33,-47.33 -139.67,-47.33 -59.65,0 -106.16,21.51 -139.51,64.34 -33.33,42.99 -49.99,102.51 -49.99,178.66 0,82.01 18.16,146.67 54.49,194 36.17,47.33 85.84,71.02 148.69,71.02 44.16,0 84.99,-13.01 121.99,-39.02 14.67,-10.49 21.99,-18.66 21.99,-24.81z"
   id="glyph55" />
   <glyph
   unicode="d"
   horiz-adv-x="500"
   d="M448.49 23.66c0,-2 -1.84,-3.83 -5.33,-5.83l-45.01 -24.83c-2,-2 -4.5,-3.01 -7.83,-3.01 -12,0 -23,20.01 -33.17,59.84 -56.67,-42.51 -106.34,-63.83 -149.01,-63.83 -49.16,0 -87.5,23 -115.31,68.83 -27.84,45.84 -41.84,109.32 -41.84,190.32 0,76.68 16,137.35 48.15,182.01 32.02,44.51 75.67,66.84 131.01,66.84 34.5,0 71.15,-10.67 109.83,-32.02l0 236.18c0,6.15 3.33,10.33 10.17,12.67l51.67 12.16c1.33,0.67 3.51,0.99 6.33,0.99 4.5,0 6.84,-3.67 6.84,-11.15l0 -554.83c0,-52.17 8.33,-91.51 25.16,-118.18 5.51,-8.49 8.33,-13.82 8.33,-16.16zm-108.5 88l0 283.51c-37,21.16 -70.83,31.84 -101.5,31.84 -37.34,0 -64.18,-14 -80.68,-41.84 -16.48,-27.84 -24.81,-73.17 -24.81,-136.18 0,-69 7.16,-118.83 21.67,-149.33 14.32,-30.5 38.15,-45.65 71.15,-45.65 35,0 73.01,19.17 114.17,57.66z"
   id="glyph56" />
   <glyph
   unicode="e"
   horiz-adv-x="462"
   d="M431.99 241c0,-12 -3.65,-17.99 -11.15,-17.99l-287.83 0c5.16,-112.67 49.33,-169 132.32,-169 35.51,0 74,11.98 115.66,35.83 3.67,2 7,3.01 10.35,3.01 2.32,0 4.5,-1.68 6.82,-5l18.02 -39c1.33,-2.85 2,-5.19 2,-6.84 0,-7.34 -12,-16.66 -36.17,-27.68 -39.66,-18.82 -80.68,-28.32 -123,-28.32 -63.49,0 -114.01,22.84 -151.67,68.49 -37.5,45.84 -56.33,107.17 -56.33,184.33 0,78.02 17.83,140.01 53.5,186.17 35.83,46.02 83.82,69.02 144.17,69.02 83.66,0 139.83,-40.01 168.17,-120.18 10.17,-28.32 15.15,-72.51 15.15,-132.83zm-81.99 44c-2.34,98.67 -38.01,148 -107.33,148 -68.83,0 -105.35,-49.33 -109.67,-148l216.99 0z"
   id="glyph57" />
   <glyph
   unicode="f"
   horiz-adv-x="295"
   d="M341.67 688.83c0,-0.67 -0.67,-2.5 -2,-5.83l-16.5 -40.99c-1.33,-3.83 -3.83,-5.83 -7.34,-5.83 -2.66,0 -5.83,0.99 -9.82,2.98 -28.83,13.84 -54.51,20.84 -77.01,20.84 -25,0 -42.16,-9.85 -51.16,-29.33 -5.83,-11.66 -8.84,-36.17 -8.84,-73.68l0 -76.98 143.84 0c7.48,0 11.32,-2.34 11.32,-6.84 0,-2.66 -0.32,-4.66 -0.99,-6.33l-13.17 -40.01c-2,-5.83 -6.33,-8.84 -13.17,-8.84l-127.82 0 0 -405.83c0,-6.17 -1.01,-9.66 -3.01,-10.67 -1.84,-0.99 -4.5,-1.49 -7.83,-1.49l-53.34 0c-4.98,0 -7.99,0.83 -9.16,2.66 -1.17,1.84 -1.68,5 -1.68,9.5l0 405.83 -66.33 0c-5.83,0 -9.16,1.01 -10.17,3.01 -0.99,1.84 -1.49,4.66 -1.49,8.17l0 38.68c0,6.15 1.33,9.82 3.83,11.15 1.33,0.67 3.99,1.01 7.83,1.01l66.33 0 0 77.99c0,54.17 8.68,92.66 25.84,115.66 25.16,33.51 62.5,50.34 112.01,50.34 23.32,0 47.49,-3.99 72.48,-12 24.83,-7.83 37.34,-15.65 37.34,-23.16z"
   id="glyph58" />
   <glyph
   unicode="g"
   horiz-adv-x="500"
   d="M447 461.83c0,-2.16 -2,-6.5 -5.83,-12.67 -16.85,-26.33 -25.18,-60 -25.18,-100.99l0 -154.33c0,-47.17 1.68,-104.16 5,-171 1.33,-26.67 2,-45.68 2,-57.01 0,-117.82 -59.17,-176.83 -177.65,-176.83 -53.66,0 -103.68,12.33 -149.83,37.16 -12.16,6.17 -18.18,11.68 -18.18,16.5 0,1.01 0.67,3.51 2,7.34l18.02 40.17c0.99,3.83 2.98,5.83 5.83,5.83 2.32,0 5,-1.01 7.83,-3.01 47.17,-25.32 90.82,-37.99 131.17,-37.99 43.66,0 73.82,12.16 90.66,36.33 10.17,14 15.17,38.33 15.17,72.99 0,7 -0.34,24.17 -1.01,51.51l-0.99 51.99c-44.51,-36.49 -90.85,-54.83 -139,-54.83 -47.67,0 -85.5,19.83 -113.34,59.52 -27.84,39.82 -41.66,93.83 -41.66,162.16 0,83 16.48,146.99 49.33,192 32.82,44.83 79.51,67.34 140.17,67.34 40.65,0 80.82,-14 120.5,-41.84 12.16,30.5 21.48,45.84 28.32,45.84 3.01,0 5.51,-0.67 7.83,-2l46 -28.35c1.84,-0.83 2.85,-2.82 2.85,-5.83zm-106 -331.99l0 269.83c-37,18.82 -68.01,28.32 -93.35,28.32 -75.84,0 -113.66,-58 -113.66,-174.16 0,-60.82 7,-104.82 20.84,-132 14,-27.18 36.66,-40.83 68.17,-40.83 33.65,0 72.99,16.34 118,48.84z"
   id="glyph59" />
   <glyph
   unicode="h"
   horiz-adv-x="519"
   d="M436.01 12.16c0,-6.17 -1.01,-9.66 -3.01,-10.67 -1.84,-0.99 -4.66,-1.49 -8.17,-1.49l-52.65 0c-4.84,0 -8.01,0.83 -9.18,2.66 -1.33,1.84 -2,5 -2,9.5l0 332.17c0,31.17 -5,52.84 -14.83,65.16 -10.01,12.33 -28,18.5 -54.17,18.5 -36.84,0 -80.84,-21 -132,-62.82l0 -353.01c0,-6.17 -1.33,-9.82 -3.83,-11.15 -1.33,-0.67 -3.83,-1.01 -7.34,-1.01l-52.65 0c-4.84,0 -8.01,0.83 -9.18,2.66 -1.33,1.84 -2,5 -2,9.5l0 686.01c0,6.15 3.35,10.33 10.17,12.67l51.67 12.16c0.67,0.67 3.01,0.99 6.84,0.99 4.15,0 6.33,-3.67 6.33,-11.15l0 -284.68c48.5,43.84 100.17,65.85 154.84,65.85 53.5,0 89.49,-19.51 108.5,-58.51 8.49,-17.99 12.67,-48.84 12.67,-92.84l0 -330.49z"
   id="glyph60" />
   <glyph
   unicode="i"
   horiz-adv-x="258"
   d="M190.99 658.17c0,-16.82 -5.83,-31.33 -17.49,-43.33 -11.84,-11.82 -26.01,-17.83 -42.51,-17.83 -16.98,0 -31.33,5.83 -43.15,17.67 -11.84,11.66 -17.83,26.33 -17.83,43.5 0,16.66 5.99,30.83 17.99,42.51 12.16,11.5 26.67,17.33 44,17.33 16.16,0 30.16,-5.83 41.66,-17.67 11.5,-11.66 17.33,-25.82 17.33,-42.16zm-14.99 -646c0,-6.17 -0.83,-9.66 -2.66,-10.67 -1.84,-0.99 -4.5,-1.49 -8.17,-1.49l-53.34 0c-4.98,0 -7.99,0.83 -9.16,2.66 -1.17,1.84 -1.68,5 -1.68,9.5l0 405.83 -79.83 0c-5.83,0 -9.32,1.01 -10.49,3.01 -1.17,1.84 -1.68,4.66 -1.68,8.17l0 38.68c0,6.15 1.33,9.82 3.83,11.15 1.68,0.67 4.5,1.01 8.33,1.01l144.17 0c4.84,0 7.85,-0.85 9,-2.69 1.17,-1.81 1.68,-4.98 1.68,-9.48l0 -455.68z"
   id="glyph61" />
   <glyph
   unicode="k"
   horiz-adv-x="443"
   d="M429.17 35.99c0,-2 -1.68,-4.82 -5.33,-8.33l-41.02 -30.83c-3.33,-2.5 -5.83,-3.83 -7.83,-3.83 -1.33,0 -3.33,1.33 -5.83,3.83l-209.17 250.16 0 -234.83c0,-6.17 -1.33,-9.82 -3.83,-11.15 -1.33,-0.67 -3.83,-1.01 -7.34,-1.01l-52.65 0c-4.84,0 -8.01,0.83 -9.18,2.66 -1.33,1.84 -2,5 -2,9.5l0 686.01c0,6.15 3.35,10.33 10.17,12.67l51.67 12.16 6.84 0.99c4.15,0 6.33,-3.67 6.33,-11.15l0 -453.02 200.84 225.85c3.49,4.15 7,6.31 10.33,6.31 2.5,0 5.51,-1.49 8.68,-4.32l38.15 -25.02c3.35,-3.17 4.84,-6.15 4.84,-8.65 0,-2.66 -1.49,-5.83 -4.84,-9.34l-170.81 -185.99 178.66 -214.84c2.32,-2 3.33,-4.68 3.33,-7.85z"
   id="glyph62" />
   <glyph
   unicode="l"
   horiz-adv-x="258"
   d="M272.84 14c0,-5.16 -9.5,-10.51 -28.67,-16 -19.33,-5.33 -38.01,-8.01 -56.17,-8.01 -58,0 -91.99,23.34 -102.16,69.84 -3.17,15.33 -4.84,56.33 -4.84,123l0 516.32c0,6.84 3.67,10.67 10.83,11.68l51.51 12.16c0.5,0.67 2.82,0.99 6.82,0.99 3.83,0 5.85,-3.67 5.85,-11.15l0 -530.5c0,-51.83 0.83,-82.49 2.5,-92.34 3.14,-25.34 16.82,-37.99 40.83,-37.99 14,0 28.99,3.99 44.83,11.98 3.83,1.33 6.5,2 7.83,2 2.18,0 4.5,-2.32 6.84,-6.98l12.16 -37.18c1.17,-4.15 1.84,-6.82 1.84,-7.83z"
   id="glyph63" />
   <glyph
   unicode="m"
   horiz-adv-x="722"
   d="M641 12.16c0,-6.17 -0.99,-9.66 -3.17,-10.67 -2.16,-0.99 -5.16,-1.49 -9,-1.49l-50.66 0c-6.17,0 -9.85,1.33 -11.18,3.83 -0.67,1.68 -1.01,4.5 -1.01,8.33l0 342.84c0,48.66 -21.32,72.99 -63.99,72.99 -28.32,0 -62.34,-13.34 -102,-40.01l0 -375.83c0,-6.17 -0.99,-9.66 -3.01,-10.67 -1.81,-0.99 -4.5,-1.49 -7.83,-1.49l-52.33 0c-5,0 -7.99,0.83 -9.16,2.66 -1.17,1.84 -1.68,5 -1.68,9.5l0 341.83c0,49.33 -21.32,74 -63.99,74 -29.84,0 -63.17,-14.32 -100,-42.83l0 -373c0,-6.17 -1.01,-9.66 -3.17,-10.67 -2.16,-0.99 -5.16,-1.49 -9,-1.49l-50.68 0c-6.15,0 -9.66,1.33 -10.65,3.83 -1.01,1.68 -1.51,4.5 -1.51,8.33l0 358.84c0,28 -5.99,56 -17.99,83.82 -0.67,0.67 -0.99,2.34 -0.99,5 0,2.82 1.65,4.84 4.82,5.83l40.01 22.84c3.67,2.34 6.66,3.49 9.34,3.49 10.15,0 19.65,-18.98 28.83,-56.99 50.34,39.34 97.16,59.01 139.99,59.01 46.5,0 78.18,-19.67 94.68,-59.01 55.32,39.34 104,59.01 146,59.01 43.66,0 74,-14.67 91.33,-44 12,-20.52 17.99,-52.84 17.99,-97l0 -340.85z"
   id="glyph64" />
   <glyph
   unicode="n"
   horiz-adv-x="519"
   d="M437 12.16c0,-6.17 -0.99,-9.66 -2.98,-10.67 -1.84,-0.99 -4.68,-1.49 -8.17,-1.49l-52.68 0c-4.82,0 -7.99,0.83 -9.16,2.66 -1.33,1.84 -2,5 -2,9.5l0 333c0,55.18 -22.01,82.84 -66.01,82.84 -42.32,0 -86.32,-21 -132,-62.82l0 -353.01c0,-6.17 -0.99,-9.66 -3.01,-10.67 -1.81,-0.99 -4.66,-1.49 -8.15,-1.49l-52.68 0c-4.84,0 -7.99,0.83 -9.16,2.66 -1.33,1.84 -2,5 -2,9.5l0 342.66c0,36.52 -6.33,68.51 -19,96.17 -1.01,2.66 -1.68,4.5 -2,5.83 0,3.01 1.65,4.84 4.82,5.83l45.52 25.84c3.17,2.34 5.83,3.49 7.67,3.49 12.83,0 23,-21.99 30.83,-66.15 56.67,45.49 110.33,68.17 160.99,68.17 49.51,0 83.5,-16.18 102.19,-48.34 11.32,-19.17 16.98,-52.68 16.98,-100.51l0 -333z"
   id="glyph65" />
   <glyph
   unicode="o"
   horiz-adv-x="500"
   d="M450.01 243.16c0,-81 -18.18,-144.17 -54.35,-189.34 -36.15,-45.15 -86.49,-67.83 -150.98,-67.83 -61.35,0 -108.84,22.17 -142.83,66.33 -33.83,44.34 -50.84,106.18 -50.84,185.5 0,81 18.16,144 54.33,188.83 36.17,44.83 86.51,67.34 151.01,67.34 60.66,0 108.18,-22.17 142.33,-66.68 34.18,-44.32 51.35,-105.83 51.35,-184.17zm-82.01 1.01c0,124.5 -39.5,186.83 -118.5,186.83 -77.67,0 -116.48,-61.01 -116.48,-183 0,-68.83 10.33,-120.66 30.99,-155.16 17.51,-29.17 46.66,-43.84 87.5,-43.84 39.18,0 67.34,14 84.51,42 21.32,34.5 32,85.5 32,153.16z"
   id="glyph66" />
   <glyph
   unicode="p"
   horiz-adv-x="500"
   d="M450.01 250c0,-82.01 -14.85,-146.51 -44.51,-193.49 -29.84,-47.01 -70.33,-70.51 -121.99,-70.51 -37.5,0 -77.01,14.67 -118.5,43.84l0 -214.01c0,-7.16 -3.01,-11.34 -9.18,-12.67l-52.65 -14.16c-2.34,-0.67 -4.18,-0.99 -5.83,-0.99 -4.84,0 -7.34,3.49 -7.34,10.65l0 543.01c0,43.66 -6.66,76 -20.18,97.16 -6.5,10.83 -9.82,17.17 -9.82,19.17 0,2.18 1.01,3.83 3.01,4.84l42.99 30.16c2,2 4.5,3.01 7.83,3.01 10.83,0 23.18,-20.01 37.18,-60 50.5,38.65 98.65,58 144.33,58 58.16,0 98.51,-23.18 121.33,-69.34 22.17,-44.16 33.35,-102.51 33.35,-174.67zm-82.01 -2c0,57.17 -5,99.5 -15.17,127.16 -12.33,34.5 -36.33,51.85 -72.16,51.85 -29.65,0 -68.17,-16.34 -115.66,-48.84l0 -282.16c41.66,-28 77.99,-42 108.82,-42 34.18,0 58.35,14.83 72.67,44.48 14.35,29.68 21.51,79.51 21.51,149.51z"
   id="glyph67" />
   <glyph
   unicode="q"
   horiz-adv-x="500"
   d="M441.17 460.84c0,-1.35 -2,-6.33 -6.01,-15.17 -14.83,-31.84 -22.15,-64.68 -22.15,-98.67l0 -530.32c0,-8.68 -3.01,-14.18 -9.18,-16.02l-53.66 -15.65c-2.34,-0.67 -4.34,-1.01 -6.33,-1.01 -4.5,0 -6.84,3.67 -6.84,10.67l0 250.34c-42.32,-39.34 -86.16,-59.01 -131.82,-59.01 -47.17,0 -84.51,22.17 -112.01,66.68 -27.5,44.32 -41.15,104.48 -41.15,180.32 0,81.85 15.33,145.84 46.16,192 30.66,46.02 73.49,69.02 128.17,69.02 43.66,0 87.5,-16 131.84,-48.18 10.65,33.51 21.16,50.17 31.15,50.17 1.35,-0.34 3.01,-1.01 5,-2l42 -24.83c3.17,-2.34 4.84,-5 4.84,-8.33zm-104.18 -350.17l0 278.64c-38.15,25.18 -72.99,37.69 -104.32,37.69 -65.83,0 -98.67,-61.67 -98.67,-184.84 0,-69.34 9,-119.51 27.18,-150.5 14.67,-25.18 36.15,-37.67 64.66,-37.67 31.67,0 68.83,18.82 111.16,56.67z"
   id="glyph68" />
   <glyph
   unicode="r"
   horiz-adv-x="332"
   d="M333.16 478.01c0,-1.68 -0.67,-4.02 -2,-6.84l-23.99 -56.17c-1.01,-1.84 -2.69,-2.85 -5.35,-2.85 -0.32,0 -5.83,1.68 -16.66,4.84 -6.84,1.33 -12.49,2 -17.01,2 -22.15,0 -55.16,-25.34 -99.16,-76.16l0 -330.68c0,-6.17 -1.01,-9.66 -3.01,-10.67 -1.84,-0.99 -4.5,-1.49 -7.83,-1.49l-53.34 0c-4.98,0 -7.99,0.83 -9.16,2.66 -1.17,1.84 -1.68,5 -1.68,9.5l0 299.83c0,34.68 -0.83,57.5 -2.32,68.33 -3.01,22.68 -10.17,44.51 -21.85,65.35 -2.48,4.82 -3.83,8.33 -3.83,10.33 0,3.83 1.68,6.84 4.84,8.68l42 26.33c3.33,2 5.99,3.01 8.33,3.01 5.83,0 12.83,-8.68 20.84,-26.01 7.83,-17.51 13.66,-36.33 17.33,-56.83 31.17,35 54.33,57.66 69.5,67.66 15.17,10.17 33.33,15.17 54.49,15.17 11.34,0 22.52,-1.84 33.35,-5.35 10.99,-3.67 16.48,-7.16 16.48,-10.65z"
   id="glyph69" />
   <glyph
   unicode="s"
   horiz-adv-x="389"
   d="M348.99 128.01c0,-42.35 -14.67,-76.5 -44,-102.67 -29.15,-26.17 -67.66,-39.34 -115.15,-39.34 -54.35,0 -103.68,12.99 -148,39 -3.83,2.34 -5.85,5.35 -5.85,9.34 0,0.83 0.34,2.16 1.01,3.83l19 43.84c0.99,2.66 3.01,3.99 5.83,3.99 1.33,0 3.99,-0.67 7.83,-2 45.68,-22.68 86.35,-34.02 122.18,-34.02 24.17,0 43.5,6.68 58.16,20.01 14.67,13.34 21.99,30.83 21.99,52.17 0,30.99 -21.32,56.33 -63.99,76.16 -55.82,25.66 -93.16,46.16 -111.66,61.49 -30.83,25.34 -46.34,57.01 -46.34,95.18 0,40.65 14.18,74 42.67,99.98 28.51,26.01 65,39.02 109.51,39.02 26.01,0 54.01,-4.84 83.82,-14.67 30,-9.69 45.01,-18.84 45.01,-27.34 0,-1.84 -0.67,-4.34 -2,-7.18l-17.99 -36.66c-2.5,-4.18 -5.67,-6.33 -9.18,-6.33 0,0 -2.66,0.67 -7.83,2 -36.33,17.51 -67.34,26.17 -93.16,26.17 -50.5,0 -75.84,-22.49 -75.84,-67.32 0,-20.18 6.66,-36.52 19.99,-48.84 9,-8.33 43.84,-27.5 104.34,-56.99 37,-18.02 62.82,-36.33 77.49,-55.5 14.85,-19 22.17,-43.52 22.17,-73.33z"
   id="glyph70" />
   <glyph
   unicode="t"
   horiz-adv-x="332"
   d="M343 29.68c0,-7.85 -15.17,-16.34 -45.68,-25.68 -30.5,-9.32 -58.51,-14 -84.33,-14 -62.5,0 -100.99,24.33 -115.66,72.85 -4.18,13.66 -6.33,37.99 -6.33,73.33l0 281.81 -70.83 0c-8.17,0 -12.16,3.67 -12.16,11.18l0 38.68c0,6.15 1.33,9.82 3.83,11.15 1.65,0.67 4.5,1.01 8.33,1.01l70.83 0 0 137.16c0,6.82 3.33,11.15 10.17,12.67l51.67 14.16c3.65,1.33 5.67,2 6.33,2 4.5,0 6.82,-3.99 6.82,-12.16l0 -153.83 150.18 0c6.15,0 9.16,-2.34 9.16,-6.84 0,-1.68 -0.32,-3.67 -0.99,-6.33l-11.18 -38.49c-2,-6.84 -6.66,-10.35 -14.16,-10.35l-133.01 0 0 -281.15c0,-31.84 3.35,-52.17 9.85,-60.85 10.33,-13.34 27.15,-19.99 50.34,-19.99 20.82,0 50.82,7.99 89.81,24.17 3.35,1.17 5.85,1.84 7.51,1.84 3.51,0 5.83,-2.02 6.84,-5.85l10.67 -41.15c1.33,-2.85 2,-4.66 2,-5.33z"
   id="glyph71" />
   <glyph
   unicode="u"
   horiz-adv-x="500"
   d="M451 23c-0.67,-0.83 -2.16,-2.5 -4.5,-4.84l-44.83 -29.15c-3.01,-2 -5.35,-3.01 -6.84,-3.01 -10.83,0 -22.49,19.99 -35.16,59.84 -51.83,-39.85 -101.84,-59.84 -150,-59.84 -91.17,0 -136.68,44.67 -136.68,134.16l0 344.52c0,6.82 3.35,11.32 9.85,13.15l51.99 14.16c2.5,0.69 4.68,1.01 6.33,1.01 4.5,0 6.84,-3.67 6.84,-11.15l0 -312.18c0,-43.84 5.16,-74.16 15.68,-90.82 10.33,-16.5 29.15,-24.83 56.49,-24.83 43.5,0 85.5,16.98 125.85,50.82l0 359.85c0,7.16 3.14,11.5 9.66,13.15l52.84 14.16c2.16,0.69 4.15,1.01 5.65,1.01 4.5,0 6.84,-3.67 6.84,-11.15l0 -349.02c0,-43.15 9,-77.49 26.99,-102.83 2.02,-2.66 3.01,-5 3.01,-7z"
   id="glyph72" />
   <glyph
   unicode="v"
   horiz-adv-x="425"
   d="M422.99 466.67c0,-1.33 -0.67,-3.67 -2,-6.84l-182.17 -458c-2.16,-5.83 -6.5,-8.84 -12.65,-8.84l-38.17 0c-6.5,0 -10.83,3.01 -13.17,8.84l-168.84 460.82c-1.33,2.69 -2,4.68 -2,6.33 0,3.83 3.51,6.52 10.33,7.85l59.01 13.15 3.01 0c3.17,0 5.83,-3.17 7.67,-9.32l106.98 -326.85c2.02,-4.34 4.34,-11.34 7.34,-21l11.66 -42c5.35,20.52 11.68,41.02 19.17,61.83l119.17 328.18c1.84,6.17 4.5,9.16 7.67,9.16 1.33,0 3.33,-0.32 6.01,-0.99l52.15 -14.16c5.85,-1.51 8.84,-4.34 8.84,-8.17z"
   id="glyph73" />
   <glyph
   unicode="w"
   horiz-adv-x="610"
   d="M600.17 469.5c0,-1.33 -0.32,-2.82 -1.01,-4.5l-0.99 -2.82 -132.34 -459.35c-1.81,-6.5 -5.83,-9.82 -11.66,-9.82l-39 0c-6.17,0 -10.33,3.33 -12.33,9.82l-78.5 303.34c-3.35,11.66 -6.01,26.01 -8.35,42.99l-2 14.67 -2.82 21c-3.33,-30 -8.33,-55.82 -15.17,-77.65l-93.83 -305.34c-1.84,-5.83 -6.33,-8.84 -13.17,-8.84l-37 0c-6.15,0 -10.17,3.33 -11.82,9.82l-115.18 458.85c-0.67,2.66 -0.99,4.5 -0.99,5.83 0,4.66 3.17,7.34 9.32,8.33l50.68 12.67c2.66,1.01 4.66,1.49 5.99,1.49 3.83,0 6.68,-3.33 8.17,-10.17l70.83 -347c0.67,-2.66 3.01,-15.49 6.84,-38.65 0.99,5.99 5.33,24.17 13.15,54.83l95.35 324.16c1.49,5.83 5.49,8.84 11.66,8.84l40.01 0c6.5,0 10.67,-3.01 12.16,-8.84l88.99 -376.01 2.85 13.68 4.82 25.5 85.02 343.83c1.65,5.83 4.5,8.84 8.33,8.84 1.65,0 3.49,-0.34 5.83,-1.01l46 -10.67c6.84,-1.65 10.17,-4.32 10.17,-7.83z"
   id="glyph74" />
   <glyph
   unicode="x"
   horiz-adv-x="444"
   d="M429.17 17.33c0,-2.66 -3.17,-5 -9.34,-7.32l-52.84 -19.51c-3.49,-1.68 -5.99,-2.5 -7.16,-2.5 -2.32,0 -5,2.5 -7.83,7.34l-102.16 155.66c-3.83,5.83 -6.84,10.49 -8.68,14l-10.33 16.16 -5.83 9.82c-6.5,-11.82 -14.51,-24.49 -24.01,-38.33l-110.33 -158.33c-1.84,-4.15 -4.5,-6.33 -7.83,-6.33l-6.84 1.51 -52.17 21.99c-5.16,2.34 -7.83,4.84 -7.83,7.83 0,1.84 1.33,4.18 3.83,6.84l164.18 218.51 -146 210.15c-2.02,2 -3.01,4.18 -3.01,6.84 0,4.15 2.66,7.32 7.83,9.34l52.33 18.98c0.67,0.67 2.5,1.01 5.83,1.01 3.17,0 6.17,-2.18 8.84,-6.33l86.83 -134.66c4.84,-7.51 10.83,-16.85 18.02,-28.16 0.99,-1.68 4.82,-7.51 11.32,-17.67 4.84,8.49 14.85,24.17 29.84,47.17l91.17 133.33c2.66,4.15 6.01,6.33 9.85,6.33 0.67,0 2.66,-0.83 5.83,-2.5l49.33 -19.99c5.16,-2.02 7.83,-4.18 7.83,-6.84 0,-3.33 -1.33,-6.17 -3.99,-8.84l-147.84 -198.49 156.67 -229.18c3.01,-3.99 4.5,-6.5 4.5,-7.83z"
   id="glyph75" />
   <glyph
   unicode="z"
   horiz-adv-x="407"
   d="M389.83 60c0,-2.34 -0.5,-5 -1.84,-8.33l-19.17 -42.67c-1.84,-5.99 -6.33,-9 -13.15,-9l-312.02 0c-7.83,0 -11.66,3.99 -11.66,12.16l0 39.66 253.01 365.18 -221.33 0c-7.16,0 -10.67,3.67 -10.67,11.15l0 41.18c0,7.16 3.51,10.67 10.67,10.67l304.33 0c4.84,0 7.83,-0.85 9,-2.5 1.17,-1.51 1.68,-4.34 1.68,-8.17l0 -42.51 -249.01 -360.84 249.01 0c4.82,0 7.99,-0.32 9.32,-1.15 1.33,-0.85 1.84,-2.5 1.84,-4.84z"
   id="glyph76" />
  </font>
</defs>
</svg>
