<?xml version="1.0" encoding="UTF-8" standalone="no"?>
<!-- Creator: CorelDRAW 2021 (64-Bit) -->

<svg
   xml:space="preserve"
   width="209.959mm"
   height="181.965mm"
   version="1.0"
   style="shape-rendering:geometricPrecision; text-rendering:geometricPrecision; image-rendering:optimizeQuality; fill-rule:evenodd; clip-rule:evenodd"
   viewBox="0 0 20991.86 18192.98"
   id="svg212"
   sodipodi:docname="kommunikationswissenschaft__2-fach-b.a._.svg"
   inkscape:version="1.3-dev (77bc73e, 2022-05-18)"
   xmlns:inkscape="http://www.inkscape.org/namespaces/inkscape"
   xmlns:sodipodi="http://sodipodi.sourceforge.net/DTD/sodipodi-0.dtd"
   xmlns="http://www.w3.org/2000/svg"
   xmlns:svg="http://www.w3.org/2000/svg"><sodipodi:namedview
   id="namedview212"
   pagecolor="#ffffff"
   bordercolor="#000000"
   borderopacity="0.25"
   inkscape:showpageshadow="2"
   inkscape:pageopacity="0.0"
   inkscape:pagecheckerboard="0"
   inkscape:deskcolor="#d1d1d1"
   inkscape:document-units="mm"
   showgrid="false"
   inkscape:zoom="0.34315208"
   inkscape:cx="397.78282"
   inkscape:cy="343.87086"
   inkscape:window-width="1440"
   inkscape:window-height="900"
   inkscape:window-x="0"
   inkscape:window-y="0"
   inkscape:window-maximized="0"
   inkscape:current-layer="Ebene_x0020_1" />
 <defs
   id="defs86">
  <font
   id="FontID6"
   horiz-adv-x="537"
   font-variant="normal"
   style="fill-rule:nonzero"
   font-weight="400">
	<font-face
   font-family="Officina Sans ITC TT"
   id="font-face1">
		<font-face-src>
			<font-face-name
   name="Officina Sans ITC TT" />
		</font-face-src>
	</font-face>
   <missing-glyph
   id="missing-glyph1"><path
     d="M0 0z"
     id="path1" /></missing-glyph>
   <glyph
   unicode="0"
   horiz-adv-x="500"
   d="M457.02 328.18c0,-111.03 -17.85,-195.85 -53.35,-254.37 -35.5,-58.48 -86.99,-87.83 -154.16,-87.83 -57.68,0 -102.83,22.02 -135.52,65.84 -45.98,62.84 -68.99,150.52 -68.99,262.99 0,107.84 18.83,191.68 56.5,251.86 37.67,60.15 90.33,90.33 157.84,90.33 63.68,0 112.51,-28.33 146.49,-85.17 34.17,-56.84 51.18,-138.02 51.18,-243.66zm-82.02 -2.01c0,173.15 -40.51,259.83 -121.51,259.83 -39.98,0 -71.01,-23.35 -93.14,-69.83 -22.17,-46.67 -33.34,-111.67 -33.34,-195.36 0,-88.32 12,-156.82 36,-205.65 18.83,-38.84 48,-58.17 87.48,-58.17 44.84,0 76.32,22.33 94.85,67.02 19.82,48.83 29.66,116.15 29.66,202.16z"
   id="glyph1" />
   <glyph
   unicode="1"
   horiz-adv-x="500"
   d="M424.67 14.16c0,-9.49 -4.67,-14.16 -13.67,-14.16l-265.15 0c-9.53,0 -14.16,4.67 -14.16,14.16l0 37.67c0,9.49 4.63,14.16 14.16,14.16l102.14 0 0 489.18 -140.15 -80.99c-3.68,-2.7 -6.99,-4.02 -9.83,-4.02 -3,0 -5.66,3 -8.35,8.85l-11.66 21.99c-1.97,2.85 -3,6.34 -3,10.18 0,2.66 2.66,5.35 7.82,7.82l176.68 125 50.35 0c9.49,0 14.16,-4.67 14.16,-14.16l0 -563.83 86.99 0c9,0 13.67,-4.67 13.67,-14.16l0 -37.67z"
   id="glyph2" />
   <glyph
   unicode="2"
   horiz-adv-x="500"
   d="M431.01 14.16c0,-9.49 -4.67,-14.16 -14.16,-14.16l-335.66 0c-6.19,0 -9.68,1.52 -10.67,4.33 -1.03,2.01 -1.52,5.35 -1.52,9.83 0,71.69 13.33,132.18 39.83,181.65 26.5,49.51 69.83,94.85 130.01,136.2 45.49,30.98 73.82,53.99 85.32,68.99 16.52,21.99 24.83,48.49 24.83,78.98 0,32.69 -8.81,58.36 -26.66,77.5 -17.66,19.02 -41.5,28.52 -71.35,28.52 -51.49,0 -89,-33.34 -112.66,-100.17 -2.01,-5.16 -4.82,-7.82 -8.32,-7.82 -2.01,0 -4.52,0.65 -7.86,1.97l-43.82 13.18c-5.51,2.01 -8.32,4.82 -8.32,8.85 0,7.97 4.33,21.34 13.14,39.83 8.85,18.64 17.85,33.83 27,45.98 35.5,46.17 84.18,69.18 146.19,69.18 53.84,0 96.33,-16.33 127.66,-49.02 31.33,-32.81 47.01,-76.82 47.01,-132.14 0,-38.35 -8.51,-71.35 -25.67,-98.69 -17.16,-27.34 -48,-56.5 -92.84,-87.33 -52.51,-36.49 -90.18,-70.51 -113,-101.99 -22.82,-31.67 -36.83,-69.83 -42.15,-114.82l259.49 0c9.49,0 14.16,-4.67 14.16,-14.2l0 -44.65z"
   id="glyph3" />
   <glyph
   unicode=":"
   horiz-adv-x="295"
   d="M219.17 402.83c0,-19.52 -6.83,-36 -20.5,-49.51 -13.67,-13.48 -30.34,-20.31 -49.82,-20.31 -19.86,0 -36.68,6.83 -50.35,20.5 -13.67,13.67 -20.5,30.34 -20.5,50.31 0,19.52 7.02,36 21,49.67 14.01,13.67 31.02,20.5 50.84,20.5 18.49,0 34.67,-6.99 48.49,-21 13.86,-13.97 20.85,-30.64 20.85,-50.16zm0 -345.65c0,-19.52 -6.99,-36.19 -20.85,-50.2 -13.82,-13.97 -30.34,-21 -49.48,-21 -19.86,0 -36.68,6.83 -50.35,20.5 -13.67,13.67 -20.5,30.49 -20.5,50.69 0,19.48 7.02,36.15 21,49.67 14.01,13.48 31.02,20.16 50.84,20.16 18.49,0 34.67,-6.83 48.49,-20.69 13.86,-13.82 20.85,-30.15 20.85,-49.13z"
   id="glyph4" />
   <glyph
   unicode="M"
   horiz-adv-x="666"
   d="M592.99 9.83c0,-6.49 -4.14,-9.83 -12.64,-9.83l-58.17 0c-9.19,0 -13.86,4.33 -14.16,13.18l-15 512.64c0,-5.81 0.99,11.35 2.81,51.34l1.03 20.01c-4.52,-31.17 -11.51,-60.68 -21,-88.32l-117.18 -338.02c-2.66,-7.18 -7.52,-10.67 -14.66,-10.67l-29.35 0c-7.48,0 -12.49,3.49 -15,10.67l-112.85 338.02c-8.81,26.31 -15.15,55.82 -18.99,88.32l0 -18.99 1.82 -38.2 0 -18.99 -14.66 -507.82c0,-8.85 -4.33,-13.18 -12.83,-13.18l-54.34 0c-6.34,0 -10.18,0.84 -11.66,2.51 -1.52,1.48 -2.16,3.99 -2.16,7.33l0 4.33 37.67 658.68c0.65,8.81 5.32,13.14 14.16,13.14l59.16 0c7.52,0 12.49,-3.65 15,-11.16l117.82 -344.81c6.83,-19.82 11.7,-40.51 14.2,-62.01 1.33,11.51 5.66,32.16 13.14,62.01l118.85 344.81c2.66,7.52 7.67,11.16 15.15,11.16l63.03 0c8.16,0 12.49,-4.33 13.14,-13.14l37.67 -663.01z"
   id="glyph5" />
   <glyph
   unicode="S"
   horiz-adv-x="482"
   d="M439.02 182.34c0,-58.66 -19.37,-106.01 -58.17,-142.16 -38.69,-36.19 -89.35,-54.18 -151.85,-54.18 -37.52,0 -78.33,7.02 -122.49,21 -44.35,14.01 -66.52,27 -66.52,39 0,2.01 0.68,4.67 2.01,8.35l18.99 47.65c1.37,3.34 3.53,5.01 6.83,5.01 3,0 8.7,-2.32 17.2,-6.83 50.99,-28.17 99.33,-42.19 144.97,-42.19 36.68,0 66.34,10.37 88.51,31.02 22.33,20.66 33.49,48 33.49,81.83 0,30.49 -8.51,56.01 -25.33,76.17 -17.01,20.16 -50.16,44.35 -99.67,72.68 -65.31,37.82 -107.31,67.17 -125.99,88.32 -26.66,30.34 -40.02,67.32 -40.02,110.84 0,53.16 18.34,96.48 55.02,130.32 36.49,33.83 83.84,50.84 141.82,50.84 33.53,0 69.68,-6.34 108.52,-19.18 39,-12.83 58.48,-24.49 58.48,-34.97 0,-1.86 -0.65,-4.52 -1.97,-7.67l-18 -45.34c-1.67,-3.99 -4.33,-5.85 -7.86,-5.85 -1.33,0 -15.64,6.68 -42.98,20.01 -30.34,14.66 -62.65,21.99 -97.17,21.99 -34.52,0 -61.51,-8.66 -80.84,-26.16 -19.33,-17.31 -29.01,-41.65 -29.01,-72.98 0,-35.69 13.37,-64.02 40.02,-84.83 7.18,-5.7 47.16,-30.53 120.18,-74.84 48.15,-28.52 80.99,-55.36 98.65,-80 22.17,-30.68 33.19,-66.52 33.19,-107.84z"
   id="glyph6" />
   <glyph
   unicode="a"
   horiz-adv-x="462"
   d="M405.68 24.68c0,-2.01 -1.33,-3.53 -3.84,-4.86l-43.02 -26.81c-2.66,-2.01 -5.16,-3 -7.82,-3 -12.68,0 -25.33,21 -38.16,62.99 -42.83,-42 -90.67,-62.99 -143,-62.99 -40.33,0 -72.52,12.3 -96.18,36.83 -23.85,24.64 -35.65,57.98 -35.65,99.98 0,113 87.98,171.02 263.97,174.02l0 33.15c0,32.01 -7.14,54.83 -21.3,68.5 -14.16,13.67 -37.67,20.5 -70.66,20.5 -33.19,0 -73.02,-9.64 -119.19,-29.01 -2.66,-1.14 -4.97,-1.82 -6.83,-1.82 -3.65,0 -6,1.52 -6.83,4.82l-15.15 40.02 -1.03 7.67c0,4.97 8.85,11.32 26.85,18.99 41.35,18.19 85.85,27.34 133.35,27.34 103.81,0 155.83,-46.67 155.83,-140.15l0 -189.02c0,-55.32 8.81,-98.99 26.66,-131.34 1.33,-2.16 2.01,-4.14 2.01,-5.81zm-103.7 85.17l0 128.99c-124.66,-0.99 -186.97,-36.34 -186.97,-106.01 0,-23.5 6.83,-42.49 20.5,-57.34 13.63,-14.81 31.33,-22.33 52.67,-22.33 33.3,0 71.16,19.02 113.8,56.69z"
   id="glyph7" />
   <glyph
   unicode="d"
   horiz-adv-x="500"
   d="M448.51 23.66c0,-1.97 -1.86,-3.84 -5.35,-5.81l-45 -24.83c-2.01,-2.01 -4.48,-3 -7.82,-3 -12,0 -23.01,19.97 -33.19,59.8 -56.65,-42.49 -106.32,-63.83 -149,-63.83 -49.17,0 -87.48,23.01 -115.32,68.84 -27.83,45.83 -41.84,109.32 -41.84,190.35 0,76.66 16.02,137.34 48.18,181.99 31.97,44.5 75.64,66.83 131,66.83 34.48,0 71.16,-10.67 109.81,-32.01l0 236.18c0,6.15 3.34,10.33 10.18,12.68l51.68 12.15c1.33,0.65 3.49,0.99 6.3,0.99 4.52,0 6.83,-3.65 6.83,-11.16l0 -554.83c0,-52.17 8.35,-91.51 25.17,-118.17 5.51,-8.51 8.35,-13.82 8.35,-16.18zm-108.52 88.02l0 283.49c-36.98,21.19 -70.82,31.82 -101.5,31.82 -37.33,0 -64.17,-13.97 -80.65,-41.81 -16.52,-27.83 -24.83,-73.17 -24.83,-136.16 0,-69.03 7.14,-118.85 21.64,-149.34 14.35,-30.49 38.16,-45.68 71.2,-45.68 34.97,0 72.98,19.18 114.14,57.68z"
   id="glyph8" />
   <glyph
   unicode="i"
   horiz-adv-x="258"
   d="M190.99 658.15c0,-16.82 -5.81,-31.33 -17.5,-43.32 -11.81,-11.81 -25.97,-17.81 -42.49,-17.81 -17.01,0 -31.33,5.81 -43.17,17.66 -11.81,11.66 -17.81,26.31 -17.81,43.48 0,16.67 6,30.87 18,42.53 12.15,11.51 26.66,17.31 43.97,17.31 16.18,0 30.19,-5.81 41.69,-17.66 11.51,-11.66 17.31,-25.82 17.31,-42.19zm-15 -646c0,-6.15 -0.84,-9.64 -2.66,-10.63 -1.82,-1.03 -4.52,-1.52 -8.16,-1.52l-53.35 0c-4.97,0 -7.97,0.84 -9.15,2.66 -1.18,1.86 -1.67,5.01 -1.67,9.49l0 405.83 -79.85 0c-5.81,0 -9.3,1.03 -10.48,3 -1.18,1.86 -1.67,4.67 -1.67,8.2l0 38.65c0,6.15 1.33,9.83 3.84,11.16 1.67,0.68 4.48,0.99 8.32,0.99l144.18 0c4.86,0 7.86,-0.84 9,-2.66 1.18,-1.82 1.67,-5.01 1.67,-9.49l0 -455.69z"
   id="glyph9" />
   <glyph
   unicode="n"
   horiz-adv-x="518"
   d="M437.01 12.15c0,-6.15 -1.03,-9.64 -3,-10.63 -1.82,-1.03 -4.67,-1.52 -8.16,-1.52l-52.67 0c-4.86,0 -8.01,0.84 -9.19,2.66 -1.33,1.86 -1.97,5.01 -1.97,9.49l0 333c0,55.17 -22.02,82.85 -66.03,82.85 -42.3,0 -86.31,-21 -131.99,-62.84l0 -353.01c0,-6.15 -0.99,-9.64 -3,-10.63 -1.82,-1.03 -4.67,-1.52 -8.16,-1.52l-52.67 0c-4.82,0 -8.01,0.84 -9.15,2.66 -1.37,1.86 -2.01,5.01 -2.01,9.49l0 342.69c0,36.49 -6.34,68.5 -18.99,96.18 -1.03,2.66 -1.67,4.48 -2.01,5.81 0,3 1.67,4.82 4.82,5.85l45.49 25.82c3.19,2.35 5.85,3.49 7.67,3.49 12.83,0 23.01,-21.99 30.83,-66.15 56.69,45.49 110.34,68.16 161,68.16 49.51,0 83.54,-16.18 102.18,-48.34 11.35,-19.18 17.01,-52.67 17.01,-100.51l0 -333z"
   id="glyph10" />
   <glyph
   unicode="t"
   horiz-adv-x="333"
   d="M342.99 29.66c0,-7.82 -15.15,-16.33 -45.64,-25.67 -30.53,-9.3 -58.51,-13.97 -84.33,-13.97 -62.5,0 -101,24.3 -115.7,72.83 -4.14,13.67 -6.3,38.01 -6.3,73.32l0 281.82 -70.85 0c-8.16,0 -12.15,3.68 -12.15,11.2l0 38.65c0,6.15 1.33,9.83 3.84,11.16 1.67,0.68 4.48,0.99 8.32,0.99l70.85 0 0 137.19c0,6.83 3.3,11.16 10.14,12.64l51.68 14.16c3.68,1.33 5.66,2.01 6.34,2.01 4.48,0 6.83,-3.99 6.83,-12.15l0 -153.86 150.17 0c6.15,0 9.15,-2.32 9.15,-6.83 0,-1.67 -0.34,-3.65 -0.99,-6.3l-11.16 -38.5c-2.01,-6.83 -6.68,-10.37 -14.2,-10.37l-132.97 0 0 -281.14c0,-31.86 3.34,-52.17 9.83,-60.83 10.33,-13.37 27.15,-20.01 50.31,-20.01 20.85,0 50.84,8.01 89.84,24.15 3.34,1.18 5.85,1.86 7.52,1.86 3.49,0 5.81,-2.01 6.83,-5.85l10.67 -41.16c1.33,-2.85 1.97,-4.67 1.97,-5.35z"
   id="glyph11" />
  </font>
  <font
   id="FontID1"
   horiz-adv-x="537"
   font-variant="normal"
   style="fill-rule:nonzero"
   font-style="normal"
   font-weight="400">
	<font-face
   font-family="Officina Sans OS ITC TT"
   id="font-face11">
		<font-face-src>
			<font-face-name
   name="Officina Sans OS ITC TT" />
		</font-face-src>
	</font-face>
   <missing-glyph
   id="missing-glyph11"><path
     d="M0 0z"
     id="path11" /></missing-glyph>
   <glyph
   unicode="("
   horiz-adv-x="370"
   d="M316.84 -202.16c0,-3.85 -5.67,-9.49 -16.83,-16.83 -11.16,-7.34 -20,-11.01 -26.18,-11.01 -9.67,0 -32.66,27.01 -68.83,81.01 -81.99,122.83 -123,255.5 -123,398 0,153.68 48.35,296.66 145,429.18 24.5,33.16 40,49.82 46.83,49.82 3.67,0 7.67,-1.32 12.33,-3.82l23.85 -15.16c4.66,-3.01 6.83,-5.85 6.83,-8.83 0,-3.85 -2.84,-10 -8.83,-18 -95.99,-128.02 -144.01,-272.33 -144.01,-433.18 0,-159.84 48.02,-304.15 144.01,-433.16 6,-8 8.83,-14.18 8.83,-18z"
   id="glyph12" />
   <glyph
   unicode=")"
   horiz-adv-x="370"
   d="M288.99 248.99c0,-153.33 -48.33,-296.33 -145.15,-429.16 -24.33,-33.16 -40,-49.84 -46.83,-49.84 -3.49,0 -7.67,1.34 -12.18,3.85l-24 14.15c-4.51,3.67 -6.83,6.83 -6.83,9.85 0,3.82 3.01,10 8.83,18 96.17,129 144.17,273.32 144.17,433.16 0,159.84 -48,304.18 -144.17,433.18 -5.82,7.82 -8.83,13.82 -8.83,18 0,2.99 7.67,9.32 23.01,18.99 9.32,5.85 16.15,8.83 20,8.83 9.16,0 32,-26.99 68.83,-81.01 82.17,-120.5 123.16,-253.15 123.16,-398z"
   id="glyph13" />
   <glyph
   unicode="*"
   horiz-adv-x="500"
   d="M415.01 543.01c0,-4.34 -3.68,-7.17 -11.18,-8.84l-113.82 -26.34 77.16 -88c3.34,-3.83 5.01,-6.83 5.01,-8.84 0,-3.49 -2.86,-7.32 -8.35,-11.15l-34.66 -25c-4.98,-3.19 -7.99,-4.86 -9.33,-4.86 -3.16,0 -6.5,2.67 -9.84,7.84l-59.99 100.18 -59.99 -100.18c-3.34,-5.16 -6.5,-7.84 -9.84,-7.84 -2.16,0 -5.65,1.67 -10.18,4.86l-35.15 25.97c-5.35,3.86 -7.84,7.02 -7.84,9.17 0,2 2,5.35 5.83,9.84l76.15 88 -112.82 26.34c-8.17,1.67 -12.18,4.5 -12.18,8.84 0,1.15 0.67,3.83 2,7.81l14.16 42.01c2.19,7.5 5.19,11.18 8.69,11.18 0.33,0 3.16,-1 8.32,-3.01l107.99 -45.84 -11.33 121.51c0,6.17 4.86,9.33 14.19,9.33l43.99 0c8.84,0 13.18,-2.67 13.18,-7.84l0 -6.32 -10.18 -116.68 111.33 46.84c2.49,1.34 4.16,2 4.83,2 3.49,0 6.5,-3.68 8.84,-11.18l14.49 -46.51c0.33,-1.34 0.52,-2.34 0.52,-3.31z"
   id="glyph14" />
   <glyph
   unicode="-"
   horiz-adv-x="351"
   d="M314.84 232.16c0,-9.49 -4.66,-14.15 -14.18,-14.15l-250.01 0c-9.16,0 -13.64,4.66 -13.64,14.15l0 46.68c0,9.49 4.48,14.15 13.64,14.15l250.01 0c9.52,0 14.18,-4.66 14.18,-14.15l0 -46.68z"
   id="glyph15" />
   <glyph
   unicode="."
   horiz-adv-x="295"
   d="M219.17 57.16c0,-19.49 -7.01,-36.15 -20.83,-50.15 -13.85,-14.02 -30.33,-21.01 -49.52,-21.01 -19.82,0 -36.66,6.83 -50.33,20.5 -13.67,13.67 -20.5,30.5 -20.5,50.65 0,19.52 7.01,36.17 21.01,49.67 14,13.52 30.98,20.18 50.83,20.18 18.5,0 34.66,-6.83 48.5,-20.68 13.82,-13.82 20.83,-30.15 20.83,-49.16z"
   id="glyph16" />
   <glyph
   unicode="1"
   horiz-adv-x="500"
   d="M424.83 14.18c0,-9.52 -4.51,-14.18 -13.67,-14.18l-264.16 0c-9.49,0 -14.18,4.66 -14.18,14.18l0 37.67c0,9.49 4.68,14.15 14.18,14.15l101.99 0 0 426.17 -111.84 -67.34c-4.48,-2.66 -8,-4 -10.15,-4 -3.01,0 -5.34,2.51 -6.83,7.34l-13.16 24c-2,3.49 -3.01,6.51 -3.01,8.83 0,3.16 2.33,6.66 6.83,10.15l150.34 109.84 49.67 0c9.49,0 14.15,-4.66 14.15,-14.15l0 -500.85 86.17 0c9.01,0 13.67,-4.66 13.67,-14.15l0 -37.67z"
   id="glyph17" />
   <glyph
   unicode="2"
   horiz-adv-x="500"
   d="M431.01 14.18c0,-9.52 -4.68,-14.18 -14.18,-14.18l-335.67 0c-6.15,0 -9.67,1.49 -10.66,4.33 -1.01,2 -1.49,5.34 -1.49,9.85 0,64.98 13.32,119.66 40.15,163.48 26.83,44 70.86,83.34 132.02,118.17 45.82,26.35 74.5,46.68 85.82,61.01 14.68,18.5 22.02,41.16 22.02,67.84 0,28.33 -8.51,50.5 -25.67,66.32 -17.01,16 -40.5,24 -70.5,24 -28.18,0 -51.01,-7.34 -68.5,-22.18 -17.34,-14.83 -32.35,-39.82 -45.01,-74.83 -2.66,-6.51 -6.18,-9.82 -10.33,-9.82 -2,0 -5.16,0.66 -9.67,2l-41.01 11.67c-5.49,2.33 -8.33,5.67 -8.33,10.33 0,7.49 4.33,20.5 13.16,38.98 8.83,18.68 17.85,34.02 27.01,46.02 35.49,45.82 84.5,68.83 147.15,68.83 53.84,0 96.17,-14 127.18,-42 30.98,-28 46.5,-66.35 46.5,-114.85 0,-47.16 -14.68,-86.32 -44,-117.33 -12.83,-12.99 -24.5,-22.99 -35.34,-30.15 -9.16,-6.18 -39.67,-24.18 -91.51,-53.84 -68.83,-39.67 -106.5,-91.33 -112.98,-154.82l269.65 0c9.49,0 14.18,-4.68 14.18,-14.18l0 -44.65z"
   id="glyph18" />
   <glyph
   unicode="3"
   horiz-adv-x="500"
   d="M433.99 109.84c0,-57.19 -19.67,-103.51 -58.83,-138.85 -39.16,-35.31 -90.65,-52.98 -154.67,-52.98 -34.33,0 -70.15,4.99 -107.99,15.16 -37.67,10 -56.5,19.67 -56.5,28.83 0,1.49 1.01,4.66 3.01,9.16l20 45.01c1.67,3.82 3.82,5.82 6.83,5.82 2.48,0 10.15,-2.99 22.99,-8.83 33.85,-16.18 70.5,-24.18 109.84,-24.18 88.83,0 133.33,41.34 133.33,124.02 0,81.99 -48.65,123 -145.99,123l-34.35 0c-8.99,0 -13.67,4.66 -13.67,14l0 40c0,9.34 4.68,14 13.85,14l33.16 0c39.34,0 70.83,10.83 93.99,32.5 23.34,21.67 35.01,50.65 35.01,87.16 0,29.34 -8.83,52.83 -26.33,70.17 -17.67,17.49 -41.34,26.18 -70.83,26.18 -36.5,0 -70.17,-17.01 -100.68,-50.86 -7.82,-8.66 -14.18,-13.16 -19.16,-13.16 -2.18,0 -5.01,1.34 -8.18,4l-32.83 27.85c-3.49,2.33 -5.32,4.99 -5.32,8.33 0,10 16.15,27.01 48.33,50.83 34.83,26 75.01,39.01 120.67,39.01 50.65,0 91.99,-14.83 123.66,-44.5 31.82,-29.49 47.67,-68.17 47.67,-115.66 0,-70.68 -34.35,-119.66 -103,-147 27.82,-8.51 49.34,-18.68 64.5,-30.68 40.98,-32.66 61.49,-78.65 61.49,-138.32z"
   id="glyph19" />
   <glyph
   unicode="6"
   horiz-adv-x="500"
   d="M443 224.16c0,-69.99 -18,-127.15 -53.84,-171.51 -36,-44.48 -82.5,-66.65 -139.66,-66.65 -67.84,0 -118.67,30.83 -152.34,92.32 -25.49,46.17 -38.15,106.68 -38.15,181.68 0,119.99 24.99,215.65 74.98,286.48 50.02,71.01 117.18,106.5 201.83,106.5 23.19,0 43.01,-2.15 59.34,-6.33 16.51,-4.33 24.68,-9.49 24.68,-15.67 0,-2.66 -0.33,-4.66 -1.01,-5.82l-10.66 -42.17c-1.34,-4.51 -3.85,-6.83 -7.34,-6.83l-6.83 0.84c-20.15,6.68 -40.5,10 -61.01,10 -54.15,0 -97.99,-23.16 -131.81,-69.49 -28,-38 -46.17,-86.17 -54.35,-144.5 38,43.31 80.5,64.98 127.51,64.98 51.34,0 92.32,-19.49 122.83,-58.5 30.5,-39.16 45.84,-90.83 45.84,-155.33zm-81.99 -1.16c0,97.33 -37.19,146.01 -111.51,146.01 -34.33,0 -61.01,-12.51 -79.99,-37.67 -19.01,-25.01 -28.5,-60.5 -28.5,-106.35 0,-111.99 36.5,-167.99 109.51,-167.99 73.67,0 110.5,55.34 110.5,165.99z"
   id="glyph20" />
   <glyph
   unicode="8"
   horiz-adv-x="500"
   d="M459.99 167.18c0,-44.35 -14.33,-83.01 -42.98,-116.17 -37.67,-43.34 -93.18,-65.01 -166.01,-65.01 -64.17,0 -115.33,16.33 -153.66,48.83 -38.17,32.5 -57.34,75.99 -57.34,130.34 0,53.49 19.01,96.98 57.16,130.83 18.83,17.34 48.5,33.82 88.85,49.34 -78.68,30.66 -118.02,80.32 -118.02,149 0,42.33 15.34,78.65 45.84,108.83 33.82,33.16 79.82,49.82 138.17,49.82 52.98,0 95.99,-13.82 129.15,-41.64 33.16,-27.85 49.84,-64.02 49.84,-108.17 0,-67.84 -37.67,-119.69 -113.18,-155.84 94.85,-38.17 142.17,-98.17 142.17,-180.16zm-104.98 328c0,28.33 -9.67,51.16 -29.01,68.15 -19.49,17.16 -45.01,25.67 -77.01,25.67 -30.5,0 -55.16,-8.51 -73.99,-25.31 -18.66,-17.01 -28,-39.19 -28,-66.5 0,-46.68 35.34,-86.35 105.99,-119.18 67.99,27.67 102.02,66.68 102.02,117.18zm22.99 -332.84c0,63.67 -43.34,111.99 -129.99,144.82 -84.02,-34.5 -126.02,-82.83 -126.02,-144.82 0,-33.34 11.85,-60.02 35.67,-80.17 23.85,-20.18 55.19,-30.17 94.35,-30.17 37.67,0 68.17,10.18 91.33,30.5 23.16,20.33 34.66,46.83 34.66,79.84z"
   id="glyph21" />
   <glyph
   unicode="9"
   horiz-adv-x="500"
   d="M435 312.99c0,-123.66 -22.68,-220.49 -68.17,-290.33 -45.34,-69.82 -108.32,-104.65 -189,-104.65 -35.01,0 -61.84,4.33 -80.83,13.16 -6.83,2.99 -10.33,7.16 -10.33,12.66l0 6.33 4.99 41.01c0,5.34 2.66,7.82 8.18,7.82 0.66,0 3.32,-0.66 7.82,-1.82 24.83,-7.49 48.17,-11.16 69.99,-11.16 94.02,0 152.52,74.68 175.35,224.01 -31.34,-50.68 -74.68,-76.02 -130.02,-76.02 -50.5,0 -91.16,20.35 -122.32,61.01 -31.19,40.68 -46.68,93.99 -46.68,160.17 0,68.68 18,124.34 54.17,166.85 36,42.65 83.16,64 141.15,64 123.84,0 185.68,-91.01 185.68,-273.02zm-81.99 49.67c0,101.51 -35.67,152.34 -106.85,152.34 -34.15,0 -61.16,-14 -81.16,-42 -20,-28 -30,-65.99 -30,-114.17 0,-49.16 9.49,-87.66 28.5,-115.33 18.99,-27.67 45.67,-41.49 79.82,-41.49 73.18,0 109.69,53.49 109.69,160.65z"
   id="glyph22" />
   <glyph
   unicode="A"
   horiz-adv-x="537"
   d="M517.18 7.82c0,-5.16 -4.84,-7.82 -14.18,-7.82l-64 0c-6.83,0 -11.85,3.67 -15.16,11.16l-54.68 194.85 -203.17 0 -56.15 -194.85c-1.85,-7.49 -6.83,-11.16 -14.68,-11.16l-60 0c-9.49,0 -14.15,2.33 -14.15,6.83 0,1.67 0.66,4.66 2,9.34l201.15 658.66c2.18,7.49 7.16,11.16 14.68,11.16l60 0c7.82,0 12.83,-3.67 15.16,-11.16l201.17 -658.66c1.32,-4.68 2,-7.34 2,-8.35zm-167 267.17l-60.17 220.19c-8.66,31.49 -16.33,63.49 -22.83,95.66 -4.66,-23.52 -12.33,-55.01 -23.01,-94.68l-60.15 -221.17 166.16 0z"
   id="glyph23" />
   <glyph
   unicode="B"
   horiz-adv-x="556"
   d="M500.01 189c0,-42 -10.35,-78.83 -30.86,-110.32 -20.48,-31.67 -48.65,-53.51 -84.5,-65.51 -24.99,-8.83 -68.32,-13.16 -129.81,-13.16l-145.18 0c-9.16,0 -13.67,4.66 -13.67,14.18l0 657.65c0,9.52 4.51,14.18 13.67,14.18l163.18 0c62.83,0 108.17,-8.99 136.17,-26.83 42.65,-27.67 64,-73.49 64,-137.15 0,-77.18 -32.68,-131.51 -98.17,-163.18 32.66,-9.01 56.5,-20.66 71.84,-34.66 35.49,-32.83 53.34,-78.02 53.34,-135.18zm-116.02 324.33c0,38.68 -8.51,66.17 -25.67,82.35 -17.16,16.15 -46.33,24.33 -87.34,24.33l-92.98 0 0 -238.01 71.99 0c38.98,0 67.49,6 85.01,18.18 32.66,22.66 48.98,60.32 48.98,113.16zm27.01 -321.82c0,51.34 -19.01,87.34 -57.19,108.32 -19.16,10.83 -46.48,16.18 -81.99,16.18l-93.82 0 0 -250.01 97.66 0c40.98,0 71.82,8 92.32,24 28.68,22.5 43.01,56.35 43.01,101.51z"
   id="glyph24" />
   <glyph
   unicode="C"
   horiz-adv-x="462"
   d="M441.16 64c0,-6.83 -9.32,-17.34 -27.82,-31.67 -39.67,-30.83 -84.83,-46.33 -135.33,-46.33 -73.51,0 -129.51,31.01 -168.16,93.16 -38.5,62.17 -57.84,152.52 -57.84,270.84 0,116.83 19.01,205.17 57.16,264.99 36.17,56.68 90.17,85.01 162.01,85.01 55.67,0 105.33,-18.66 149,-56 10.66,-9.16 16.15,-15.85 16.15,-20 0,-2.66 -0.66,-5.34 -2,-7.85l-29.31 -38c-1.34,-2.66 -4,-4 -7.85,-4 -2,0 -13.32,8 -34.15,24 -30.02,23.19 -60.35,34.83 -91.01,34.83 -45.67,0 -78.83,-21.82 -99.66,-65.49 -20.83,-43.67 -31.34,-113.16 -31.34,-208.67 0,-203.83 47.16,-305.82 141.33,-305.82 34.5,0 71.84,17.67 111.84,52.98 4.66,3.85 8.15,5.85 10.83,5.85 2.66,0 5.32,-2.33 8.33,-6.83l24.83 -33.16c2,-2 2.99,-4.51 2.99,-7.85z"
   id="glyph25" />
   <glyph
   unicode="E"
   horiz-adv-x="462"
   d="M431.99 679.16c0,-2.33 -0.66,-5.34 -2,-9.34l-15.16 -44c-2.66,-7.16 -7.67,-10.83 -15.16,-10.83l-221.65 0 0 -225.98 195.83 0c9.49,0 14.15,-4.68 14.15,-14l0 -38.5c0,-9.01 -4.66,-13.52 -14.15,-13.52l-195.83 0 0 -251.98 238.82 0c9.49,0 14.18,-4.51 14.18,-13.67l0 -43.16c0,-9.52 -4.68,-14.18 -14.18,-14.18l-307.17 0c-9.16,0 -13.67,4.66 -13.67,14.18l0 657.65c0,9.52 4.51,14.18 13.67,14.18l308.18 0c9.32,0 14.15,-2.33 14.15,-6.83z"
   id="glyph26" />
   <glyph
   unicode="F"
   horiz-adv-x="425"
   d="M431.99 679.16c0,-2.33 -0.33,-4.15 -0.99,-5.34l-1.01 -4 -15.16 -44c-2.66,-7.16 -7.67,-10.83 -15.16,-10.83l-221.65 0 0 -232.99 195.83 0c9.49,0 14.15,-4.51 14.15,-13.49l0 -38.5c0,-9.34 -4.66,-14 -14.15,-14l-195.83 0 0 -301.83c0,-9.52 -4.68,-14.18 -14.18,-14.18l-54.17 0c-9.16,0 -13.67,4.66 -13.67,14.18l0 657.65c0,9.52 4.51,14.18 13.67,14.18l308.18 0c9.32,0 14.15,-2.33 14.15,-6.83z"
   id="glyph27" />
   <glyph
   unicode="G"
   horiz-adv-x="537"
   d="M469 41.16c0,-7.16 -3.01,-12.15 -8.83,-15.16 -42.33,-26.66 -97.66,-40 -166.01,-40 -78.32,0 -138.17,30.17 -179.33,90.5 -41.16,60.32 -61.82,148.17 -61.82,263.32 0,117.18 20.83,206.52 62.5,268 41.67,61.51 102.14,92.17 181.66,92.17 51.34,0 99.51,-13.67 143.99,-41.01 13.34,-8.33 20,-14.99 20,-20 0,-2.15 -0.99,-4.99 -2.81,-8.15l-21.01 -43.01c-1.34,-2.51 -3.34,-3.82 -6,-3.82 -2.51,0 -13.01,6 -31.16,18.15 -31.67,20.5 -65.99,30.83 -103.18,30.83 -53.49,0 -92.65,-22.66 -117.66,-67.99 -24.83,-45.16 -37.34,-116.5 -37.34,-213.98 0,-105.18 13.01,-181.18 39.01,-227.86 26,-46.83 68.32,-70.15 127,-70.15 27.34,0 53.67,6.15 79.01,18.66l0 206.34 -77.66 0c-9.52,0 -14.18,4.66 -14.18,14.15l0 40.68c0,9.49 4.66,14.18 14.18,14.18l145.99 0c9.16,0 13.67,-4.68 13.67,-14.18l0 -291.67z"
   id="glyph28" />
   <glyph
   unicode="H"
   horiz-adv-x="610"
   d="M516.01 14.18c0,-9.52 -4.68,-14.18 -14.18,-14.18l-53.67 0c-9.49,0 -14.18,4.66 -14.18,14.18l0 307.82 -255.98 0 0 -307.82c0,-9.52 -4.68,-14.18 -14.18,-14.18l-54.17 0c-9.16,0 -13.67,4.66 -13.67,14.18l0 657.65c0,9.52 4.51,14.18 13.67,14.18l54.17 0c9.49,0 14.18,-4.66 14.18,-14.18l0 -280.81 255.98 0 0 280.81c0,9.52 4.68,14.18 14.18,14.18l53.67 0c9.49,0 14.18,-4.66 14.18,-14.18l0 -657.65z"
   id="glyph29" />
   <glyph
   unicode="I"
   horiz-adv-x="332"
   d="M310.18 14.33c0,-9.49 -4.84,-14.33 -14.18,-14.33l-258.84 0c-9.49,0 -14.15,4.84 -14.15,14.33l0 37.34c0,9.49 4.66,14.33 14.15,14.33l87.84 0 0 554.01 -87.84 0c-9.49,0 -14.15,4.66 -14.15,13.82l0 37.85c0,9.49 4.66,14.33 14.15,14.33l258.84 0c9.34,0 14.18,-4.84 14.18,-14.33l0 -37.85c0,-9.16 -4.84,-13.82 -14.18,-13.82l-89.01 0 0 -554.01 89.01 0c9.34,0 14.18,-4.84 14.18,-14.33l0 -37.34z"
   id="glyph30" />
   <glyph
   unicode="K"
   horiz-adv-x="518"
   d="M503.66 37.01c0,-3.67 -2.15,-7.01 -6.83,-10.35l-45.82 -31.82c-4,-2.51 -7.01,-3.85 -9.34,-3.85 -2.84,0 -6.15,2.35 -9.67,6.83l-253.98 327.34 0 -310.99c0,-9.52 -4.68,-14.18 -14.18,-14.18l-54.17 0c-9.16,0 -13.67,4.66 -13.67,14.18l0 657.65c0,9.52 4.51,14.18 13.67,14.18l54.17 0c9.49,0 14.18,-4.66 14.18,-14.18l0 -324.66 256.82 340c4,5.16 7.16,7.85 9.85,7.85 2.33,0 5.32,-1.67 9.32,-4.84l37.01 -25.01c5.16,-3.49 7.82,-6.99 7.82,-10.18 0,-2.33 -1.65,-5.65 -4.84,-9.82l-235.32 -304.33 240.16 -295.17c3.34,-3.16 4.84,-6.18 4.84,-8.66z"
   id="glyph31" />
   <glyph
   unicode="M"
   horiz-adv-x="667"
   d="M592.99 9.82c0,-6.48 -4.15,-9.82 -12.66,-9.82l-58.17 0c-9.16,0 -13.82,4.33 -14.15,13.16l-15.01 512.67c0,-5.82 0.99,11.34 2.84,51.34l0.99 20c-4.48,-31.16 -11.49,-60.68 -20.99,-88.35l-117.18 -338c-2.66,-7.16 -7.49,-10.66 -14.66,-10.66l-29.34 0c-7.49,0 -12.51,3.49 -14.99,10.66l-112.85 338c-8.81,26.35 -15.16,55.84 -18.99,88.35l0 -19.01 1.82 -38.15 0 -19.01 -14.66 -507.83c0,-8.83 -4.33,-13.16 -12.83,-13.16l-54.32 0c-6.35,0 -10.18,0.84 -11.67,2.51 -1.49,1.49 -2.18,4 -2.18,7.32l0 4.35 37.67 658.66c0.68,8.83 5.34,13.16 14.18,13.16l59.16 0c7.49,0 12.51,-3.67 15.01,-11.16l117.81 -344.83c6.83,-19.82 11.67,-40.5 14.18,-62 1.34,11.49 5.67,32.15 13.16,62l118.83 344.83c2.68,7.49 7.67,11.16 15.19,11.16l62.98 0c8.18,0 12.51,-4.33 13.16,-13.16l37.67 -663.01z"
   id="glyph32" />
   <glyph
   unicode="P"
   horiz-adv-x="481"
   d="M465.99 502.01c0,-91.84 -33.16,-155.18 -99.66,-190.01 -28.5,-14.66 -67.16,-22 -116.5,-22l-71.82 0 0 -275.83c0,-9.52 -4.68,-14.18 -14.18,-14.18l-54.17 0c-9.16,0 -13.67,4.66 -13.67,14.18l0 657.65c0,9.52 4.51,14.18 13.67,14.18l153.51 0c59.67,0 102.32,-7.67 127.99,-23.01 49.84,-29.82 74.83,-83.66 74.83,-160.98zm-83.99 -1.01c0,57.49 -18.66,93.51 -55.82,107.66 -13.67,5.49 -37.19,8.33 -70.35,8.33l-77.82 0 0 -254.99 65.99 0c43.67,0 74.98,7.67 93.99,23.01 29.34,23.67 44,62.32 44,115.99z"
   id="glyph33" />
   <glyph
   unicode="S"
   horiz-adv-x="481"
   d="M439 182.34c0,-58.68 -19.34,-106.02 -58.17,-142.17 -38.66,-36.17 -89.33,-54.17 -151.84,-54.17 -37.49,0 -78.32,6.99 -122.5,21.01 -44.33,14 -66.5,26.99 -66.5,38.98 0,2 0.66,4.66 2,8.33l19.01 47.67c1.32,3.34 3.49,5.01 6.83,5.01 2.99,0 8.66,-2.33 17.16,-6.83 50.98,-28.18 99.33,-42.17 145,-42.17 36.66,0 66.32,10.33 88.5,31.01 22.33,20.66 33.49,48 33.49,81.82 0,30.5 -8.51,56.02 -25.34,76.17 -16.99,20.18 -50.15,44.35 -99.66,72.68 -65.34,37.82 -107.33,67.16 -125.99,88.32 -26.68,30.33 -40,67.34 -40,110.83 0,53.19 18.33,96.52 54.98,130.34 36.5,33.85 83.84,50.83 141.84,50.83 33.52,0 69.67,-6.33 108.5,-19.16 39.01,-12.83 58.5,-24.5 58.5,-35.01 0,-1.82 -0.66,-4.48 -2,-7.67l-18 -45.31c-1.67,-4 -4.33,-5.85 -7.82,-5.85 -1.34,0 -15.67,6.68 -43.01,20 -30.33,14.68 -62.65,22 -97.16,22 -34.5,0 -61.51,-8.66 -80.83,-26.15 -19.34,-17.34 -29.01,-41.67 -29.01,-73.01 0,-35.67 13.34,-64 40,-84.83 7.16,-5.67 47.16,-30.5 120.17,-74.83 48.17,-28.5 81.01,-55.34 98.68,-80.02 22.15,-30.66 33.16,-66.48 33.16,-107.81z"
   id="glyph34" />
   <glyph
   unicode="T"
   horiz-adv-x="407"
   d="M421.99 679.16c0,-2.99 -0.33,-4.99 -0.99,-6.33l-1.01 -3.01 -15.16 -42.98c-2.33,-7.16 -7.16,-10.83 -14.66,-10.83l-144.17 0 0 -601.83c0,-9.52 -4.68,-14.18 -14.18,-14.18l-53.67 0c-9.49,0 -14.18,4.66 -14.18,14.18l0 601.83 -145.81 0c-9.52,0 -14.18,4.51 -14.18,13.67l0 42.15c0,9.52 4.66,14.18 14.18,14.18l390.15 0c9.01,0 13.67,-2.33 13.67,-6.83z"
   id="glyph35" />
   <glyph
   unicode="V"
   horiz-adv-x="481"
   d="M467.68 673l-1 -8.84 -176.85 -652.83c-1.82,-7.5 -6.99,-11.33 -14.98,-11.33l-69.84 0c-8.17,0 -13.34,3.68 -15.19,11.18l-173.82 652.16c-1.34,4.83 -2,7.32 -2,7.65 0,3.34 3.83,6.5 11.66,9.36l59.17 13.64c1.34,0.67 2.83,1 4.83,1 3.68,0 6.32,-3.83 8.32,-11.66l127 -529.5c2.83,-12.67 6.5,-31.17 10.66,-55.65l4.34 -23.03c6.32,35.84 11.15,61.51 14.67,76.85l131.32 532.17c1.67,7.17 4.68,10.81 8.84,10.81 4.01,0 6.5,-0.33 7.84,-1l54.16 -12.67c7.17,-1.97 10.84,-4.83 10.84,-8.32z"
   id="glyph36" />
   <glyph
   unicode="W"
   horiz-adv-x="685"
   d="M663.16 672c0,-0.99 -0.33,-2.33 -0.99,-3.82l0 -4 -138.17 -652c-1.67,-8.18 -6.68,-12.18 -15.19,-12.18l-65.99 0c-8,0 -12.66,4 -13.67,12.18l-86.32 552.82 -103.99 -552.82c-1.34,-8.18 -6.18,-12.18 -14.68,-12.18l-60.98 0c-8.51,0 -13.52,4 -15.19,12.18l-124.98 653.82c-0.68,3.67 -1.01,6.18 -1.01,7.82 0,4 4,6.68 12.18,8.35l51.82 9.82c3.52,0.66 6.33,1.01 8.33,1.01 3.85,0 6.51,-3.85 7.67,-11.67l86.02 -494.34c4.15,-24 7.16,-65.67 8.83,-125 2,28.68 6,69.34 12.15,122.02l97.18 489.81c1.65,8.18 6.48,12.18 14.66,12.18l53.16 0c8.83,0 13.85,-4 15.16,-12.18l81.99 -493.66c4.03,-23.82 7.52,-64.5 10.83,-121.99 0.68,27.67 3.67,68.32 9.34,121.99l91.66 501.18c1.34,7.82 4.33,11.67 8.83,11.67 1.67,0 4,-0.35 7.34,-1.01l51.82 -10.66c8,-2 12.18,-5.16 12.18,-9.34z"
   id="glyph37" />
   <glyph
   unicode="a"
   horiz-adv-x="462"
   d="M405.67 24.66c0,-2 -1.34,-3.49 -3.82,-4.84l-43.01 -26.83c-2.66,-2 -5.16,-2.99 -7.82,-2.99 -12.68,0 -25.34,21.01 -38.17,63.01 -42.83,-42 -90.68,-63.01 -143,-63.01 -40.33,0 -72.5,12.33 -96.17,36.83 -23.82,24.66 -35.67,58 -35.67,99.99 0,113 87.99,171 264.01,174.01l0 33.16c0,32 -7.16,54.83 -21.34,68.5 -14.15,13.67 -37.67,20.5 -70.65,20.5 -33.19,0 -73.01,-9.67 -119.18,-29.01 -2.66,-1.16 -4.99,-1.82 -6.83,-1.82 -3.67,0 -6,1.49 -6.83,4.84l-15.16 40 -0.99 7.67c0,4.99 8.83,11.32 26.83,18.99 41.31,18.18 85.82,27.34 133.33,27.34 103.81,0 155.84,-46.65 155.84,-140.17l0 -189c0,-55.34 8.83,-99.01 26.66,-131.33 1.34,-2.18 2,-4.18 2,-5.85zm-103.66 85.18l0 129c-124.67,-1.01 -187,-36.35 -187,-106.02 0,-23.49 6.83,-42.5 20.5,-57.34 13.67,-14.81 31.31,-22.33 52.65,-22.33 33.34,0 71.16,19.01 113.84,56.68z"
   id="glyph38" />
   <glyph
   unicode="b"
   horiz-adv-x="500"
   d="M449.99 272c0,-190.67 -60.83,-286 -182.67,-286 -46.33,0 -88.98,16.33 -128.14,49.16 -12.02,-30.15 -22.83,-45.16 -32.35,-45.16 -2,0 -4.51,0.99 -7.82,2.99l-43.01 26.83c-2,1.85 -2.99,3.52 -2.99,4.84 0.33,2.68 1.32,5.01 2.99,7.34 18.68,24.5 28,59.51 28,105l0 561.17c0,6.83 3.67,10.99 11.16,12.66l51.67 12.18c0.68,0.66 3.01,0.99 6.83,0.99 4.18,0 6.33,-3.67 6.33,-11.16l0 -268c47.34,32.83 91.84,49.16 133.36,49.16 104.5,0 156.65,-73.99 156.65,-221.98zm-81.99 -10.68c0,110.52 -29.82,165.68 -89.33,165.68 -32.5,0 -72.17,-16.33 -118.67,-48.83l0 -285.5c29.67,-25.85 64.35,-38.68 104.02,-38.68 69.34,0 103.99,69.16 103.99,207.33z"
   id="glyph39" />
   <glyph
   unicode="c"
   horiz-adv-x="408"
   d="M398.17 430.17l-1.01 -6.33 -22 -39.01c-2.51,-4.66 -5.16,-6.83 -7.82,-6.83 -2.84,0 -5.67,1.16 -8.18,3.85 -40.66,30.15 -75.01,45.16 -103,45.16 -80.83,0 -121.16,-62 -121.16,-185.83 0,-124.83 37.16,-187.18 111.33,-187.18 22.18,0 43.01,4.51 62.5,13.67 11.34,5.67 29.82,17.34 55.16,35.34 3.01,2 5.34,2.99 7.34,2.99 2.66,0 4.84,-2 6.83,-5.82l15.16 -38.17c1.67,-4.15 2.51,-7.49 2.84,-10.15 0,-4.51 -5.34,-10.68 -16,-18.5 -42.68,-31.52 -89.33,-47.34 -139.69,-47.34 -59.67,0 -106.14,21.49 -139.48,64.32 -33.34,43.01 -50,102.5 -50,178.67 0,81.99 18.15,146.67 54.5,194.01 36.15,47.34 85.82,70.98 148.65,70.98 44.17,0 85.01,-12.99 122.02,-38.98 14.66,-10.51 22,-18.68 22,-24.83z"
   id="glyph40" />
   <glyph
   unicode="d"
   horiz-adv-x="500"
   d="M448.5 23.67c0,-2 -1.82,-3.85 -5.34,-5.85l-44.98 -24.83c-2,-2 -4.51,-2.99 -7.85,-2.99 -12,0 -22.99,20 -33.16,59.84 -56.65,-42.5 -106.32,-63.84 -149,-63.84 -49.16,0 -87.49,23.01 -115.33,68.83 -27.82,45.84 -41.82,109.33 -41.82,190.34 0,76.65 16,137.33 48.15,181.99 32,44.5 75.67,66.83 131,66.83 34.5,0 71.18,-10.66 109.84,-32l0 236.18c0,6.15 3.34,10.33 10.18,12.66l51.67 12.18c1.32,0.66 3.49,0.99 6.33,0.99 4.51,0 6.83,-3.67 6.83,-11.16l0 -554.84c0,-52.15 8.33,-91.49 25.16,-118.14 5.49,-8.51 8.33,-13.85 8.33,-16.18zm-108.5 87.99l0 283.5c-37.01,21.16 -70.83,31.85 -101.51,31.85 -37.31,0 -64.15,-14 -80.65,-41.84 -16.51,-27.82 -24.83,-73.16 -24.83,-136.17 0,-68.98 7.16,-118.83 21.67,-149.33 14.33,-30.5 38.15,-45.67 71.16,-45.67 35.01,0 73.01,19.16 114.17,57.67z"
   id="glyph41" />
   <glyph
   unicode="e"
   horiz-adv-x="462"
   d="M431.99 240.99c0,-12 -3.67,-18 -11.16,-18l-287.83 0c5.16,-112.67 49.34,-169 132.32,-169 35.52,0 74.02,12 115.69,35.85 3.65,2 6.99,2.99 10.33,2.99 2.33,0 4.51,-1.67 6.83,-4.99l18 -39.01c1.34,-2.84 2,-5.16 2,-6.83 0,-7.34 -12,-16.66 -36.17,-27.67 -39.67,-18.83 -80.65,-28.33 -123,-28.33 -63.49,0 -113.99,22.83 -151.66,68.5 -37.49,45.82 -56.32,107.16 -56.32,184.34 0,77.99 17.82,139.99 53.49,186.16 35.85,46 83.84,68.98 144.17,68.98 83.66,0 139.84,-40 168.16,-120.14 10.18,-28.35 15.16,-72.5 15.16,-132.85zm-81.99 44c-2.33,98.68 -38,148.01 -107.33,148.01 -68.83,0 -105.33,-49.34 -109.66,-148.01l217 0z"
   id="glyph42" />
   <glyph
   unicode="f"
   horiz-adv-x="295"
   d="M341.67 688.83c0,-0.66 -0.66,-2.51 -2,-5.82l-16.51 -41.01c-1.34,-3.85 -3.82,-5.85 -7.34,-5.85 -2.66,0 -5.82,1.01 -9.82,3.01 -28.83,13.82 -54.5,20.83 -77.01,20.83 -24.99,0 -42.17,-9.82 -51.16,-29.34 -5.82,-11.67 -8.83,-36.15 -8.83,-73.67l0 -77.01 143.84 0c7.49,0 11.34,-2.33 11.34,-6.81 0,-2.68 -0.35,-4.68 -1.01,-6.35l-13.16 -40c-2,-5.82 -6.33,-8.83 -13.16,-8.83l-127.84 0 0 -405.82c0,-6.18 -0.99,-9.67 -3.01,-10.68 -1.82,-0.99 -4.48,-1.49 -7.82,-1.49l-53.34 0c-4.99,0 -8,0.84 -9.16,2.66 -1.16,1.85 -1.67,5.01 -1.67,9.52l0 405.82 -66.32 0c-5.85,0 -9.16,1.01 -10.18,3.01 -0.99,1.82 -1.49,4.66 -1.49,8.15l0 38.68c0,6.15 1.34,9.82 3.82,11.16 1.34,0.66 4,0.99 7.85,0.99l66.32 0 0 78.02c0,54.15 8.68,92.65 25.85,115.66 25.16,33.49 62.5,50.33 111.99,50.33 23.34,0 47.52,-4 72.5,-12 24.83,-7.82 37.34,-15.67 37.34,-23.16z"
   id="glyph43" />
   <glyph
   unicode="g"
   horiz-adv-x="500"
   d="M447 461.84c0,-2.18 -2,-6.51 -5.85,-12.68 -16.83,-26.33 -25.16,-60 -25.16,-100.98l0 -154.34c0,-47.16 1.67,-104.17 5.01,-171 1.32,-26.66 2,-45.67 2,-57.01 0,-117.81 -59.16,-176.82 -177.68,-176.82 -53.67,0 -103.66,12.33 -149.81,37.16 -12.18,6.18 -18.18,11.67 -18.18,16.51 0,0.99 0.66,3.49 2,7.34l18 40.15c0.99,3.85 2.99,5.85 5.82,5.85 2.35,0 5.01,-1.01 7.85,-3.01 47.16,-25.34 90.83,-38 131.15,-38 43.67,0 73.84,12.18 90.68,36.33 10.18,14 15.16,38.35 15.16,73.01 0,7.01 -0.33,24.18 -0.99,51.49l-1.01 52.02c-44.5,-36.5 -90.83,-54.83 -139,-54.83 -47.67,0 -85.49,19.82 -113.33,59.49 -27.82,39.85 -41.67,93.84 -41.67,162.16 0,83.01 16.51,147 49.34,192.01 32.83,44.83 79.49,67.31 140.17,67.31 40.66,0 80.83,-14 120.5,-41.82 12.18,30.5 21.49,45.82 28.33,45.82 3.01,0 5.52,-0.66 7.85,-2l46 -28.33c1.82,-0.84 2.84,-2.84 2.84,-5.82zm-105.99 -332l0 269.83c-37.01,18.83 -68.02,28.33 -93.33,28.33 -75.84,0 -113.69,-58 -113.69,-174.16 0,-60.83 7.01,-104.83 20.83,-131.99 14,-27.16 36.68,-40.83 68.17,-40.83 33.67,0 73.01,16.33 118.02,48.83z"
   id="glyph44" />
   <glyph
   unicode="h"
   horiz-adv-x="518"
   d="M435.99 12.18c0,-6.18 -0.99,-9.67 -2.99,-10.68 -1.85,-0.99 -4.68,-1.49 -8.18,-1.49l-52.65 0c-4.84,0 -8,0.84 -9.16,2.66 -1.34,1.85 -2,5.01 -2,9.52l0 332.15c0,31.16 -5.01,52.83 -14.83,65.16 -10,12.35 -28,18.5 -54.17,18.5 -36.83,0 -80.83,-20.99 -132.02,-62.83l0 -352.99c0,-6.18 -1.32,-9.85 -3.82,-11.16 -1.34,-0.68 -3.82,-1.01 -7.34,-1.01l-52.65 0c-4.84,0 -8,0.84 -9.16,2.66 -1.34,1.85 -2,5.01 -2,9.52l0 686c0,6.15 3.32,10.33 10.15,12.66l51.67 12.18c0.68,0.66 3.01,0.99 6.83,0.99 4.18,0 6.33,-3.67 6.33,-11.16l0 -284.66c48.5,43.82 100.17,65.82 154.85,65.82 53.49,0 89.49,-19.49 108.5,-58.48 8.51,-18 12.66,-48.86 12.66,-92.85l0 -330.48z"
   id="glyph45" />
   <glyph
   unicode="i"
   horiz-adv-x="258"
   d="M191 658.18c0,-16.83 -5.82,-31.34 -17.49,-43.34 -11.85,-11.85 -26,-17.85 -42.5,-17.85 -17.01,0 -31.34,5.85 -43.16,17.67 -11.85,11.67 -17.85,26.33 -17.85,43.52 0,16.66 6,30.83 18,42.48 12.18,11.52 26.68,17.34 44,17.34 16.18,0 30.17,-5.82 41.67,-17.67 11.52,-11.67 17.34,-25.82 17.34,-42.15zm-14.99 -646c0,-6.18 -0.84,-9.67 -2.68,-10.68 -1.82,-0.99 -4.51,-1.49 -8.15,-1.49l-53.34 0c-5.01,0 -8,0.84 -9.16,2.66 -1.16,1.85 -1.67,5.01 -1.67,9.52l0 405.82 -79.84 0c-5.82,0 -9.34,1.01 -10.51,3.01 -1.16,1.82 -1.65,4.66 -1.65,8.15l0 38.68c0,6.15 1.32,9.82 3.82,11.16 1.67,0.66 4.51,0.99 8.33,0.99l144.17 0c4.84,0 7.85,-0.81 9.01,-2.66 1.16,-1.82 1.67,-4.99 1.67,-9.49l0 -455.66z"
   id="glyph46" />
   <glyph
   unicode="k"
   horiz-adv-x="443"
   d="M429.16 36c0,-2 -1.65,-4.84 -5.32,-8.33l-41.01 -30.83c-3.34,-2.51 -5.82,-3.85 -7.82,-3.85 -1.34,0 -3.34,1.34 -5.85,3.85l-209.17 250.16 0 -234.82c0,-6.18 -1.32,-9.85 -3.82,-11.16 -1.34,-0.68 -3.82,-1.01 -7.34,-1.01l-52.65 0c-4.84,0 -8,0.84 -9.16,2.66 -1.34,1.85 -2,5.01 -2,9.52l0 686c0,6.15 3.32,10.33 10.15,12.66l51.67 12.18 6.83 0.99c4.18,0 6.33,-3.67 6.33,-11.16l0 -453 200.85 225.83c3.49,4.18 7.01,6.33 10.33,6.33 2.51,0 5.49,-1.49 8.68,-4.33l38.15 -24.99c3.34,-3.16 4.84,-6.18 4.84,-8.68 0,-2.66 -1.49,-5.82 -4.84,-9.32l-170.82 -186.01 178.67 -214.82c2.33,-2 3.32,-4.68 3.32,-7.85z"
   id="glyph47" />
   <glyph
   unicode="l"
   horiz-adv-x="258"
   d="M272.84 14c0,-5.16 -9.52,-10.51 -28.68,-16 -19.31,-5.34 -38,-8 -56.15,-8 -58.02,0 -92.02,23.34 -102.17,69.84 -3.16,15.32 -4.84,56.32 -4.84,122.98l0 516.34c0,6.83 3.67,10.68 10.83,11.67l51.49 12.18c0.51,0.66 2.84,0.99 6.83,0.99 3.82,0 5.82,-3.67 5.82,-11.16l0 -530.49c0,-51.84 0.84,-82.5 2.51,-92.35 3.16,-25.31 16.83,-38 40.83,-38 14,0 29.01,4 44.83,12 3.85,1.34 6.51,2 7.85,2 2.15,0 4.51,-2.33 6.83,-6.99l12.15 -37.19c1.16,-4.15 1.85,-6.81 1.85,-7.82z"
   id="glyph48" />
   <glyph
   unicode="m"
   horiz-adv-x="722"
   d="M640.99 12.18c0,-6.18 -0.99,-9.67 -3.16,-10.68 -2.15,-0.99 -5.16,-1.49 -8.99,-1.49l-50.68 0c-6.15,0 -9.82,1.34 -11.16,3.82 -0.66,1.67 -0.99,4.51 -0.99,8.35l0 342.83c0,48.65 -21.34,72.98 -64,72.98 -28.35,0 -62.35,-13.32 -102.02,-40l0 -375.82c0,-6.18 -0.99,-9.67 -2.99,-10.68 -1.85,-0.99 -4.51,-1.49 -7.85,-1.49l-52.33 0c-5.01,0 -8,0.84 -9.16,2.66 -1.16,1.85 -1.67,5.01 -1.67,9.52l0 341.82c0,49.34 -21.34,73.99 -64,73.99 -29.85,0 -63.16,-14.33 -100.02,-42.83l0 -372.98c0,-6.18 -0.99,-9.67 -3.16,-10.68 -2.15,-0.99 -5.16,-1.49 -8.99,-1.49l-50.68 0c-6.15,0 -9.64,1.34 -10.66,3.82 -0.99,1.67 -1.49,4.51 -1.49,8.35l0 358.83c0,28 -6,56 -18,83.82 -0.68,0.68 -1.01,2.33 -1.01,5.01 0,2.84 1.67,4.84 4.84,5.82l40 22.83c3.67,2.33 6.68,3.49 9.34,3.49 10.18,0 19.67,-18.99 28.83,-56.98 50.33,39.34 97.16,58.98 139.99,58.98 46.5,0 78.17,-19.64 94.68,-58.98 55.34,39.34 103.99,58.98 145.99,58.98 43.67,0 74.02,-14.66 91.33,-44 12,-20.48 18,-52.83 18,-96.98l0 -340.83z"
   id="glyph49" />
   <glyph
   unicode="n"
   horiz-adv-x="518"
   d="M437 12.18c0,-6.18 -1.01,-9.67 -3.01,-10.68 -1.82,-0.99 -4.66,-1.49 -8.15,-1.49l-52.68 0c-4.84,0 -8,0.84 -9.16,2.66 -1.34,1.85 -2,5.01 -2,9.52l0 332.99c0,55.16 -22,82.83 -65.99,82.83 -42.33,0 -86.35,-20.99 -132.02,-62.83l0 -352.99c0,-6.18 -0.99,-9.67 -2.99,-10.68 -1.82,-0.99 -4.66,-1.49 -8.18,-1.49l-52.65 0c-4.84,0 -8,0.84 -9.16,2.66 -1.34,1.85 -2,5.01 -2,9.52l0 342.66c0,36.5 -6.33,68.5 -19.01,96.17 -0.99,2.66 -1.67,4.51 -2,5.82 0,3.01 1.67,4.84 4.84,5.85l45.52 25.82c3.16,2.33 5.82,3.49 7.64,3.49 12.83,0 23.01,-22 30.83,-66.15 56.68,45.49 110.35,68.15 161,68.15 49.52,0 83.51,-16.15 102.17,-48.33 11.34,-19.16 17.01,-52.65 17.01,-100.5l0 -332.99z"
   id="glyph50" />
   <glyph
   unicode="o"
   horiz-adv-x="500"
   d="M449.99 243.17c0,-81.01 -18.15,-144.17 -54.32,-189.33 -36.17,-45.19 -86.5,-67.84 -151,-67.84 -61.34,0 -108.83,22.18 -142.82,66.32 -33.85,44.35 -50.83,106.17 -50.83,185.5 0,81.01 18.15,144.01 54.32,188.85 36.17,44.83 86.5,67.31 151,67.31 60.65,0 108.17,-22.15 142.34,-66.65 34.15,-44.33 51.31,-105.84 51.31,-184.16zm-81.99 0.99c0,124.5 -39.49,186.85 -118.5,186.85 -77.66,0 -116.5,-61.01 -116.5,-183 0,-68.83 10.33,-120.67 30.98,-155.18 17.52,-29.16 46.68,-43.82 87.51,-43.82 39.16,0 67.34,14 84.5,42 21.34,34.5 32,85.49 32,153.15z"
   id="glyph51" />
   <glyph
   unicode="p"
   horiz-adv-x="500"
   d="M449.99 250.01c0,-81.99 -14.83,-146.5 -44.5,-193.5 -29.82,-47.01 -70.32,-70.5 -121.99,-70.5 -37.49,0 -77.01,14.66 -118.5,43.84l0 -214.01c0,-7.16 -3.01,-11.34 -9.16,-12.68l-52.68 -14.15c-2.33,-0.66 -4.15,-1.01 -5.82,-1.01 -4.84,0 -7.34,3.52 -7.34,10.68l0 543c0,43.67 -6.66,75.99 -20.15,97.16 -6.51,10.83 -9.85,17.16 -9.85,19.16 0,2.18 1.01,3.85 3.01,4.84l42.98 30.17c2,2 4.51,2.99 7.85,2.99 10.83,0 23.16,-20 37.16,-60 50.5,38.68 98.68,58 144.34,58 58.15,0 98.5,-23.16 121.33,-69.31 22.15,-44.17 33.31,-102.5 33.31,-174.67zm-81.99 -2c0,57.16 -4.99,99.49 -15.16,127.15 -12.33,34.5 -36.33,51.84 -72.17,51.84 -29.67,0 -68.17,-16.33 -115.66,-48.83l0 -282.18c41.67,-28 77.99,-42 108.83,-42 34.17,0 58.35,14.83 72.68,44.5 14.33,29.67 21.49,79.51 21.49,149.51z"
   id="glyph52" />
   <glyph
   unicode="r"
   horiz-adv-x="332"
   d="M333.16 477.99c0,-1.65 -0.66,-4 -2,-6.83l-24 -56.15c-0.99,-1.85 -2.66,-2.84 -5.34,-2.84 -0.33,0 -5.82,1.67 -16.66,4.84 -6.83,1.32 -12.51,2 -17.01,2 -22.15,0 -55.16,-25.34 -99.16,-76.17l0 -330.66c0,-6.18 -0.99,-9.67 -3.01,-10.68 -1.82,-0.99 -4.48,-1.49 -7.82,-1.49l-53.34 0c-4.99,0 -8,0.84 -9.16,2.66 -1.16,1.85 -1.67,5.01 -1.67,9.52l0 299.83c0,34.66 -0.84,57.49 -2.33,68.32 -2.99,22.68 -10.18,44.5 -21.82,65.34 -2.51,4.84 -3.85,8.33 -3.85,10.33 0,3.85 1.67,6.83 4.84,8.68l42 26.33c3.34,2 6,2.99 8.33,2.99 5.85,0 12.83,-8.66 20.83,-26 7.85,-17.49 13.67,-36.33 17.34,-56.83 31.16,35.01 54.32,57.67 69.51,67.67 15.16,10.18 33.31,15.16 54.5,15.16 11.32,0 22.48,-1.82 33.31,-5.32 11.01,-3.67 16.51,-7.16 16.51,-10.68z"
   id="glyph53" />
   <glyph
   unicode="s"
   horiz-adv-x="389"
   d="M349.01 127.99c0,-42.33 -14.68,-76.5 -44.02,-102.65 -29.16,-26.18 -67.67,-39.34 -115.16,-39.34 -54.32,0 -103.66,12.99 -147.99,39.01 -3.85,2.33 -5.85,5.32 -5.85,9.32 0,0.84 0.33,2.18 1.01,3.85l18.99 43.82c1.01,2.68 3.01,4 5.85,4 1.32,0 4,-0.66 7.82,-2 45.67,-22.66 86.32,-34 122.17,-34 24.18,0 43.49,6.68 58.17,20 14.66,13.34 22,30.83 22,52.17 0,31.01 -21.34,56.32 -64,76.17 -55.84,25.67 -93.18,46.15 -111.69,61.49 -30.83,25.34 -46.33,57.01 -46.33,95.18 0,40.66 14.18,73.99 42.68,99.99 28.48,26 64.98,38.98 109.49,38.98 26,0 54,-4.81 83.84,-14.66 30,-9.67 44.98,-18.83 44.98,-27.34 0,-1.82 -0.66,-4.33 -2,-7.16l-18 -36.66c-2.48,-4.18 -5.65,-6.33 -9.16,-6.33 0,0 -2.66,0.66 -7.82,2 -36.33,17.49 -67.34,26.15 -93.16,26.15 -50.5,0 -75.84,-22.5 -75.84,-67.34 0,-20.15 6.66,-36.48 20,-48.83 8.99,-8.33 43.82,-27.49 104.32,-56.98 37.01,-18 62.86,-36.35 77.51,-55.51 14.83,-18.99 22.18,-43.49 22.18,-73.34z"
   id="glyph54" />
   <glyph
   unicode="t"
   horiz-adv-x="332"
   d="M343.01 29.67c0,-7.85 -15.19,-16.33 -45.67,-25.67 -30.5,-9.34 -58.5,-14 -84.35,-14 -62.5,0 -101,24.33 -115.66,72.83 -4.18,13.67 -6.33,38 -6.33,73.34l0 281.83 -70.83 0c-8.18,0 -12.18,3.67 -12.18,11.16l0 38.68c0,6.15 1.34,9.82 3.82,11.16 1.67,0.66 4.51,0.99 8.35,0.99l70.83 0 0 137.18c0,6.83 3.32,11.16 10.15,12.66l51.67 14.18c3.67,1.34 5.67,2 6.35,2 4.48,0 6.81,-4 6.81,-12.18l0 -153.84 150.19 0c6.15,0 9.16,-2.33 9.16,-6.81 0,-1.67 -0.35,-3.67 -1.01,-6.35l-11.16 -38.5c-2,-6.81 -6.66,-10.33 -14.18,-10.33l-133 0 0 -281.17c0,-31.82 3.34,-52.15 9.85,-60.83 10.33,-13.32 27.16,-20 50.33,-20 20.83,0 50.83,8 89.84,24.18 3.34,1.16 5.82,1.82 7.49,1.82 3.49,0 5.85,-2 6.83,-5.82l10.68 -41.16c1.32,-2.84 2,-4.68 2,-5.34z"
   id="glyph55" />
   <glyph
   unicode="u"
   horiz-adv-x="500"
   d="M451 23.01c-0.66,-0.84 -2.18,-2.51 -4.51,-4.84l-44.83 -29.19c-2.99,-2 -5.34,-2.99 -6.83,-2.99 -10.83,0 -22.5,20 -35.16,59.84 -51.84,-39.85 -101.84,-59.84 -150.01,-59.84 -91.16,0 -136.65,44.65 -136.65,134.17l0 344.51c0,6.83 3.32,11.32 9.82,13.16l52 14.15c2.51,0.68 4.68,1.01 6.35,1.01 4.48,0 6.81,-3.67 6.81,-11.16l0 -312.18c0,-43.82 5.19,-74.15 15.67,-90.83 10.35,-16.51 29.16,-24.83 56.5,-24.83 43.52,0 85.51,17.01 125.84,50.83l0 359.85c0,7.16 3.16,11.49 9.67,13.16l52.83 14.15c2.18,0.68 4.18,1.01 5.67,1.01 4.51,0 6.83,-3.67 6.83,-11.16l0 -349.01c0,-43.16 8.99,-77.49 26.99,-102.83 2,-2.66 3.01,-4.99 3.01,-6.99z"
   id="glyph56" />
   <glyph
   unicode="v"
   horiz-adv-x="425"
   d="M423.01 466.67c0,-1.34 -0.68,-3.67 -2,-6.83l-182.16 -458.02c-2.18,-5.82 -6.51,-8.83 -12.68,-8.83l-38.15 0c-6.51,0 -10.83,3.01 -13.19,8.83l-168.82 460.85c-1.34,2.66 -2,4.66 -2,6.33 0,3.82 3.49,6.51 10.33,7.82l59.01 13.16 2.99 0c3.16,0 5.85,-3.16 7.67,-9.32l107 -326.84c2,-4.33 4.33,-11.34 7.34,-21.01l11.67 -42c5.32,20.5 11.64,41.01 19.16,61.84l119.16 328.15c1.85,6.18 4.51,9.16 7.67,9.16 1.34,0 3.34,-0.33 6,-0.99l52.17 -14.18c5.82,-1.49 8.83,-4.33 8.83,-8.15z"
   id="glyph57" />
   <glyph
   unicode="w"
   horiz-adv-x="610"
   d="M600.16 469.51c0,-1.34 -0.33,-2.84 -0.99,-4.51l-1.01 -2.84 -132.32 -459.33c-1.85,-6.51 -5.85,-9.85 -11.67,-9.85l-39.01 0c-6.15,0 -10.33,3.34 -12.33,9.85l-78.5 303.34c-3.34,11.64 -6,26 -8.33,42.98l-2 14.68 -2.84 20.99c-3.34,-30 -8.33,-55.84 -15.16,-77.66l-93.84 -305.34c-1.82,-5.82 -6.33,-8.83 -13.16,-8.83l-37.01 0c-6.15,0 -10.15,3.34 -11.82,9.85l-115.16 458.83c-0.68,2.68 -1.01,4.51 -1.01,5.85 0,4.66 3.16,7.32 9.34,8.33l50.65 12.66c2.68,1.01 4.68,1.49 6,1.49 3.85,0 6.68,-3.32 8.18,-10.15l70.83 -347.01c0.66,-2.66 3.01,-15.49 6.83,-38.66 0.99,6 5.34,24.18 13.16,54.83l95.33 324.18c1.49,5.82 5.49,8.81 11.67,8.81l40 0c6.51,0 10.66,-2.99 12.18,-8.81l88.98 -376.02 2.84 13.67 4.84 25.52 85.01 343.82c1.67,5.82 4.51,8.83 8.33,8.83 1.67,0 3.49,-0.33 5.85,-1.01l46 -10.66c6.83,-1.67 10.15,-4.33 10.15,-7.82z"
   id="glyph58" />
   <glyph
   unicode="x"
   horiz-adv-x="444"
   d="M429.16 17.34c0,-2.68 -3.16,-5.01 -9.32,-7.34l-52.83 -19.49c-3.52,-1.67 -6,-2.51 -7.19,-2.51 -2.33,0 -4.99,2.51 -7.82,7.34l-102.17 155.66c-3.82,5.82 -6.83,10.51 -8.66,14l-10.33 16.18 -5.85 9.82c-6.51,-11.82 -14.51,-24.5 -24,-38.33l-110.32 -158.34c-1.85,-4.15 -4.51,-6.33 -7.85,-6.33l-6.83 1.49 -52.17 22c-5.16,2.33 -7.82,4.84 -7.82,7.85 0,1.82 1.34,4.15 3.82,6.83l164.19 218.49 -146.01 210.16c-2,2 -2.99,4.18 -2.99,6.83 0,4.18 2.66,7.34 7.82,9.34l52.33 18.99c0.68,0.68 2.51,1.01 5.85,1.01 3.16,0 6.15,-2.18 8.83,-6.33l86.83 -134.67c4.84,-7.49 10.83,-16.83 18,-28.18 0.99,-1.65 4.84,-7.49 11.34,-17.67 4.84,8.51 14.83,24.18 29.82,47.19l91.18 133.33c2.66,4.15 6,6.33 9.82,6.33 0.66,0 2.66,-0.84 5.82,-2.51l49.34 -20c5.16,-2 7.85,-4.15 7.85,-6.83 0,-3.32 -1.34,-6.15 -4,-8.83l-147.84 -198.49 156.67 -229.17c2.99,-4 4.48,-6.51 4.48,-7.82z"
   id="glyph59" />
   <glyph
   unicode="z"
   horiz-adv-x="407"
   d="M389.84 60c0,-2.33 -0.51,-4.99 -1.85,-8.33l-19.16 -42.65c-1.82,-6 -6.33,-9.01 -13.16,-9.01l-312 0c-7.82,0 -11.67,4 -11.67,12.18l0 39.67 252.99 365.16 -221.32 0c-7.16,0 -10.66,3.67 -10.66,11.16l0 41.16c0,7.16 3.49,10.66 10.66,10.66l304.33 0c4.84,0 7.85,-0.81 9.01,-2.48 1.16,-1.52 1.65,-4.33 1.65,-8.18l0 -42.5 -248.99 -360.83 248.99 0c4.84,0 8,-0.33 9.34,-1.16 1.34,-0.84 1.85,-2.51 1.85,-4.84z"
   id="glyph60" />
   <glyph
   unicode="ä"
   horiz-adv-x="462"
   d="M374 629.83c0,-14.33 -5.34,-26.66 -16,-36.98 -10.51,-10.51 -23.34,-15.67 -38.33,-15.67 -14.33,0 -26.68,5.16 -37.01,15.67 -10.51,10.33 -15.67,22.99 -15.67,38 0,14.66 5.16,27.16 15.67,37.49 10.33,10.51 23.01,15.67 38,15.67 14.68,0 27.16,-5.34 37.67,-15.82 10.33,-10.68 15.67,-23.34 15.67,-38.35zm-197.33 0c0,-14.33 -5.16,-26.66 -15.67,-36.98 -10.33,-10.51 -22.66,-15.67 -37.01,-15.67 -14.99,0 -27.82,5.16 -38.33,15.67 -10.66,10.33 -16,22.99 -16,38 0,14.66 5.34,27.16 16,37.49 10.51,10.51 23.34,15.67 38.33,15.67 14.68,0 27.01,-5.34 37.34,-15.82 10.18,-10.68 15.34,-23.34 15.34,-38.35zm229 -605.17c0,-2 -1.34,-3.49 -3.82,-4.84l-43.01 -26.83c-2.66,-2 -5.16,-2.99 -7.82,-2.99 -12.68,0 -25.34,21.01 -38.17,63.01 -42.83,-42 -90.68,-63.01 -143,-63.01 -40.33,0 -72.5,12.33 -96.17,36.83 -23.82,24.66 -35.67,58 -35.67,99.99 0,113 87.99,171 264.01,174.01l0 33.16c0,32 -7.16,54.83 -21.34,68.5 -14.15,13.67 -37.67,20.5 -70.65,20.5 -33.19,0 -73.01,-9.67 -119.18,-29.01 -2.66,-1.16 -4.99,-1.82 -6.83,-1.82 -3.67,0 -6,1.49 -6.83,4.84l-15.16 40 -0.99 7.67c0,4.99 8.83,11.32 26.83,18.99 41.31,18.18 85.82,27.34 133.33,27.34 103.81,0 155.84,-46.65 155.84,-140.17l0 -189c0,-55.34 8.83,-99.01 26.66,-131.33 1.34,-2.18 2,-4.18 2,-5.85zm-103.66 85.18l0 129c-124.67,-1.01 -187,-36.35 -187,-106.02 0,-23.49 6.83,-42.5 20.5,-57.34 13.67,-14.81 31.31,-22.33 52.65,-22.33 33.34,0 71.16,19.01 113.84,56.68z"
   id="glyph61" />
   <glyph
   unicode="ü"
   horiz-adv-x="500"
   d="M413.82 629.83c0,-14.34 -5.32,-26.67 -15.83,-37 -10.66,-10.51 -23.33,-15.67 -38.34,-15.67 -14.34,0 -26.67,5.16 -37.15,15.67 -10.33,10.33 -15.67,23 -15.67,38 0,14.67 5.35,27.16 15.67,37.52 10.48,10.48 23.15,15.64 38.15,15.64 14.49,0 27.16,-5.32 37.52,-15.83 10.48,-10.66 15.64,-23.33 15.64,-38.34zm-197.33 0c0,-14.34 -5.16,-26.67 -15.49,-37 -10.51,-10.51 -22.84,-15.67 -37.18,-15.67 -14.98,0 -27.83,5.16 -38.34,15.67 -10.66,10.33 -15.83,23 -15.83,38 0,14.67 5.16,27.16 15.83,37.52 10.51,10.48 23.36,15.64 38.34,15.64 14.67,0 27,-5.32 37.33,-15.83 10.36,-10.66 15.34,-23.33 15.34,-38.34zm234.51 -606.83c-0.67,-0.82 -2.16,-2.49 -4.5,-4.83l-44.84 -29.16c-3.01,-2 -5.35,-3.01 -6.83,-3.01 -10.84,0 -22.51,20.02 -35.18,59.84 -51.82,-39.82 -101.82,-59.84 -150,-59.84 -91.16,0 -136.66,44.68 -136.66,134.17l0 344.5c0,6.83 3.34,11.33 9.84,13.15l52 14.19c2.49,0.67 4.65,1 6.32,1 4.5,0 6.83,-3.68 6.83,-11.18l0 -312.18c0,-43.83 5.16,-74.15 15.67,-90.83 10.33,-16.49 29.16,-24.82 56.5,-24.82 43.5,0 85.51,16.98 125.82,50.82l0 359.84c0,7.17 3.19,11.48 9.69,13.15l52.83 14.19c2.16,0.67 4.16,1 5.65,1 4.53,0 6.83,-3.68 6.83,-11.18l0 -349c0,-43.17 9.02,-77.49 27,-102.83 2,-2.67 3.01,-5.01 3.01,-7.02z"
   id="glyph62" />
   <glyph
   unicode="–"
   horiz-adv-x="500"
   d="M461.84 235.68c0,-9.19 -4.51,-13.67 -13.67,-13.67l-395.01 0c-9.49,0 -14.15,4.48 -14.15,13.67l0 39.16c0,9.49 4.66,14.15 14.15,14.15l395.01 0c9.16,0 13.67,-4.66 13.67,-14.15l0 -39.16z"
   id="glyph63" />
  </font>
  <font
   id="FontID0"
   horiz-adv-x="556"
   font-variant="normal"
   style="fill-rule:nonzero"
   font-style="normal"
   font-weight="700">
	<font-face
   font-family="Officina Sans OS ITC TT"
   id="font-face63">
		<font-face-src>
			<font-face-name
   name="Officina Sans OS ITC TT Fett" />
		</font-face-src>
	</font-face>
   <missing-glyph
   id="missing-glyph63"><path
     d="M0 0z"
     id="path63" /></missing-glyph>
   <glyph
   unicode="1"
   horiz-adv-x="537"
   d="M459.99 21.01c0,-9.34 -1.16,-15.34 -3.32,-17.52 -2.33,-2.33 -8.18,-3.49 -17.67,-3.49l-293.02 0c-8.99,0 -14.83,1.16 -17.32,3.49 -2.33,2.18 -3.67,8.18 -3.67,17.52l0 50.98c0,12 3.16,18.68 9.34,20 2.48,0.68 6.48,1.01 11.64,1.01l95.01 0 0 348 -79.99 -44.5c-5.16,-3.01 -8.83,-4.33 -11.16,-4.33 -4.18,0 -8.66,4.15 -13.67,12.66l-26.33 45.34c-2.51,4.51 -3.85,8.83 -3.85,12.66 0,5.52 3.85,10.83 11.34,16.18l159.99 115.99 69.69 0c11.64,0 18.33,-2.99 20,-8.83 0.66,-2.48 0.99,-6.33 0.99,-11.16l0 -481.99 71.16 0c11.67,0 18.35,-3.01 19.85,-8.83 0.66,-2.51 0.99,-6.68 0.99,-12.18l0 -50.98z"
   id="glyph64" />
   <glyph
   unicode="2"
   horiz-adv-x="537"
   d="M471 435.33c0,-47.01 -13.34,-87.01 -40,-120.17 -12.33,-15.01 -24.68,-27.16 -37.01,-36.66 -12.33,-9.52 -40,-27.19 -83.01,-53.19 -40.66,-24.83 -67.16,-44.33 -79.66,-58.65 -12.66,-14.33 -19.67,-32.5 -21.31,-54.68l233.98 0c12,0 18.68,-2.99 20,-8.83 0.68,-2.48 1.01,-6.66 1.01,-12.15l0 -69.99c0,-11.67 -3.01,-18.35 -8.83,-20 -2.66,-0.68 -6.66,-1.01 -12.18,-1.01l-360 0c-9.32,0 -14.15,4.66 -14.15,14.18l0 7.82c0,62.83 9.16,111.16 27.31,145 25.52,47.84 75.34,95.16 149.84,142.17 45.01,28.33 71.99,47.67 81.01,58 14.66,17.01 22,37.34 22,61.16 0,49.84 -28,74.68 -83.99,74.68 -41.52,0 -74.35,-28.66 -97.99,-85.99 -4.18,-10.18 -9.34,-15.16 -15.19,-15.16 -2,0 -5.49,0.99 -10.66,2.99l-64 24.33c-8.18,3.01 -12.18,7.85 -12.18,14.68 0,11.49 5.49,28 16.68,49.67 10.99,21.67 23.16,40.15 36.48,55.49 37.85,43.34 91.33,65.01 160.52,65.01 57.67,0 103.81,-16.33 138.82,-48.83 35.01,-32.5 52.5,-75.84 52.5,-129.84z"
   id="glyph65" />
   <glyph
   unicode="3"
   horiz-adv-x="537"
   d="M465 117.16c0,-62.5 -23.67,-113.66 -70.83,-153.33 -42.35,-35.16 -95.01,-52.83 -158.17,-52.83 -57.67,0 -111.18,11.01 -160.67,32.68 -19.49,8.83 -29.34,16.15 -29.34,22 0,2 0.66,5.49 2,10.33l20 71.84c1.67,6.15 5.34,9.32 11.16,9.32 2.33,0 5.52,-0.99 9.85,-2.99 50.98,-24.83 96.5,-37.16 136.17,-37.16 73.82,0 110.83,35.64 110.83,106.98 0,66.68 -42,100.02 -125.99,100.02l-29.67 0c-12.18,0 -18.83,2.99 -20,8.83 -0.68,2.48 -1.01,6.66 -1.01,12.15l0 65.99c0,11.67 2.84,18.35 8.68,20 2.66,0.68 6.81,1.01 12.33,1.01l31.67 0c33.31,0 57.67,5.67 73.34,17.16 23.16,17.16 34.66,42.83 34.66,76.68 0,25.16 -7.49,45.31 -22.5,60.5 -14.99,15.16 -34.83,22.66 -59.49,22.66 -32.35,0 -62.17,-17.01 -90.02,-51.01 -5.49,-6.48 -9.82,-9.64 -13.16,-9.64 -1.82,0 -4.84,1.16 -8.66,3.82l-55.34 49.84c-3.16,2.99 -4.84,6.33 -4.84,10.33 0,7.16 7.01,18.33 21.01,33.67 40.98,45.31 93.82,67.99 158.17,67.99 58.98,0 106.5,-16.33 142.67,-49.16 36.15,-32.68 54.15,-75.51 54.15,-128.67 0,-68.68 -31.49,-118.35 -94.65,-149 78.5,-25.34 117.66,-81.99 117.66,-170.01z"
   id="glyph66" />
   <glyph
   unicode="4"
   horiz-adv-x="537"
   d="M500.34 64c0,-11.67 -3.16,-18.33 -9.34,-20 -2.66,-0.66 -6.51,-0.99 -11.82,-0.99l-57.19 0 0 -129c0,-9.52 -1.16,-15.34 -3.32,-17.52 -2.35,-2.33 -8.18,-3.49 -17.67,-3.49l-83.01 0c-11.67,0 -18.33,3.16 -20,9.34 -0.66,2.51 -1.01,6.51 -1.01,11.67l0 129 -244.99 0c-9.49,0 -15.34,0.99 -17.67,3.16 -2.15,2.15 -3.32,7.67 -3.32,16.83l0 105 248.99 416.83c5.16,8.83 10,13.16 14.15,13.16 2.68,0 7.01,-1.34 13.19,-3.85l60.15 -26.48c9.67,-4.18 14.51,-8.35 14.51,-12.68 0,-3.16 -1.82,-8.33 -5.82,-15.16l-232.84 -395.84 155.66 0 13.01 161.18c0.66,8.83 2.18,14.33 4.66,16.66 2.51,2.18 7.85,3.34 16.33,3.34l68.02 0c12,0 18.66,-2.99 20,-9.16 0.66,-2.66 0.99,-6.66 0.99,-11.85l0 -163.15 57.19 0c9.49,0 15.32,-1.34 17.64,-3.85 2.35,-2.66 3.52,-9.32 3.52,-20l0 -53.16z"
   id="glyph67" />
   <glyph
   unicode="5"
   horiz-adv-x="537"
   d="M485.99 154.82c0,-73.34 -23.82,-132.32 -71.31,-176.82 -47.52,-44.68 -110.35,-67.01 -188.52,-67.01 -51.16,0 -100.17,9.01 -147.15,26.83 -12,4.68 -18,11.01 -18,19.16 0,3.85 0.33,7.52 0.99,10.68l14.18 73.34c0.99,5.82 3.82,8.83 8.83,8.83 1.82,0 4.51,-0.68 7.67,-2 46,-17.85 88.32,-26.83 127.48,-26.83 44.83,0 80.83,12 108.02,36.15 27.16,24.18 40.83,56 40.83,95.84 0,70.68 -33.34,105.99 -100.02,105.99 -40.98,0 -74.32,-15.32 -100.17,-46 -4.84,-6 -9.49,-8.83 -14.15,-8.83 0,0 -3.16,1.01 -9.67,2.84l-60 18.18c-10.83,3.16 -16.18,7.67 -16.18,13.67 0,3.49 0.33,6.99 1.01,10.15l31.16 329.01c0.66,8.51 2.15,13.67 4.51,15.82 2.15,2.18 7.82,3.16 16.48,3.16l293.02 0c11.67,0 18.33,-2.99 20,-9.16 0.66,-2.66 0.99,-6.51 0.99,-11.82l0 -67.01c0,-8.51 -1.16,-14 -3.67,-16.33 -2.48,-2.51 -8.15,-3.67 -17.32,-3.67l-206.01 0 -18.18 -156.01c28.68,19.34 63.19,29.01 103.18,29.01 56.65,0 102.83,-19.16 138.5,-57.34 35.67,-38.33 53.49,-88.32 53.49,-149.84z"
   id="glyph68" />
   <glyph
   unicode="6"
   horiz-adv-x="537"
   d="M487.99 234.99c0,-85.66 -23.31,-150.82 -69.82,-195.83 -38.83,-37.49 -87.51,-56.17 -146.17,-56.17 -69.01,0 -121.84,25.34 -158.34,75.84 -36.5,50.68 -54.65,123.66 -54.65,219 0,124.02 26.66,223 79.82,297.17 53.19,73.99 124.67,111 214.19,111 25.64,0 49.49,-3.49 71.16,-10.51 21.82,-6.99 32.83,-14.51 32.83,-22.66 0,-2.66 -0.66,-5.49 -2,-8.83l-21.01 -69.84c-0.99,-5.49 -3.67,-8.15 -8.33,-8.15 -0.99,0 -3.16,0.48 -6.83,1.82 -23.34,8.83 -44.65,13.16 -64,13.16 -85.51,0 -141.18,-54.98 -167,-165 35.01,34.68 73.99,52 117.33,52 45.67,0 85.01,-15.32 117.84,-45.82 43.34,-40.5 64.98,-102.83 64.98,-187.18zm-120.98 -3.82c0,87.82 -29.19,131.84 -87.34,131.84 -59.19,0 -88.68,-44.68 -88.68,-133.84 0,-90.83 28.33,-136.17 84.83,-136.17 28.68,0 51.01,12.15 67.01,36.66 16.18,24.33 24.18,58.17 24.18,101.51z"
   id="glyph69" />
   <glyph
   unicode="K"
   horiz-adv-x="574"
   d="M582.01 45.01c0,-4.68 -4.68,-9.34 -14.18,-14.18l-85.99 -44c-5.16,-2.51 -9.85,-3.85 -14.18,-3.85 -3.49,0 -7.67,3.52 -12.66,10.18l-232.99 308.66 0 -280.81c0,-11.67 -3.16,-18.35 -9.34,-20 -2.51,-0.68 -6.51,-1.01 -11.67,-1.01l-95.01 0c-9.49,0 -15.32,1.16 -17.67,3.34 -2.15,2.33 -3.32,8.15 -3.32,17.67l0 643.98c0,9.52 1.16,15.34 3.32,17.67 2.35,2.18 8.18,3.34 17.67,3.34l95.01 0c11.67,0 18.33,-3.16 20,-9.34 0.66,-2.48 1.01,-6.48 1.01,-11.67l0 -281.14 217 299.5c5.16,7.16 10.15,10.66 14.99,10.66 3.34,0 7.52,-1.34 12.83,-3.82l73.18 -37.19c9.49,-4.48 14.15,-9.32 14.15,-14.66 0,-3.16 -2.33,-7.82 -7.32,-14l-207.02 -273.68 234.51 -290.66c5.16,-5.49 7.67,-10.51 7.67,-14.99z"
   id="glyph70" />
   <glyph
   unicode="S"
   horiz-adv-x="482"
   d="M452 194.01c0,-61.83 -20.18,-112.02 -60.35,-150.33 -40.16,-38.51 -92.65,-57.68 -157.82,-57.68 -40.33,0 -85.16,7.19 -134.67,21.5 -49.48,14.34 -74.15,27.17 -74.15,38.51 0,1.99 0.64,5.67 1.99,11.17l33.18 85.83c2.33,6.01 5.16,8.84 8.81,8.84 2.19,0 5.33,-1.01 9.18,-2.84 59.67,-32.67 110.67,-49.01 153,-49.01 59.84,0 89.85,27.68 89.85,83 0,25.01 -7.02,45.33 -21.03,60.99 -13.33,14.68 -51.34,37.67 -113.81,68.85 -59.84,29.97 -100.85,58.66 -122.99,86.17 -22.17,27.47 -33.18,63.32 -33.18,107.67 0,59.17 19.81,106.32 59.34,141.15 39.49,34.83 92.82,52.18 159.82,52.18 39.35,0 81,-7.19 125.02,-21.67 43.84,-14.51 65.82,-28.18 65.82,-41.18 0,-1.35 -0.98,-4.15 -2.84,-8.34l-36.15 -75.67c-2.33,-4.83 -5.33,-7.32 -8.84,-7.32 -2.33,0 -15.32,6.18 -39.15,18.16 -34.19,17.35 -67.5,26.02 -100.18,26.02 -28.01,0 -50.16,-6.51 -66.32,-19.51 -16.34,-12.99 -24.5,-30.85 -24.5,-53.16 0,-25.18 12.99,-46.17 38.98,-63.01 9.52,-6.35 44.52,-24.67 105,-55.32 51.51,-25.69 88.67,-54.68 111.52,-86.84 22.99,-32.17 34.49,-71.66 34.49,-118.17z"
   id="glyph71" />
   <glyph
   unicode="a"
   horiz-adv-x="481"
   d="M439.84 28c0,-4.66 -2.68,-7.82 -7.85,-9.82l-78.17 -31.19c-2.99,-2 -6.99,-2.99 -12.15,-2.99 -9.16,0 -19.16,19.67 -29.85,59.01 -37.16,-38 -79.66,-57.01 -127.99,-57.01 -45.84,0 -82.32,13.67 -109.33,41.01 -27.01,27.31 -40.5,64.15 -40.5,110.32 0,87.51 49.67,141 149,160.49 26.18,5.16 63.49,8.35 111.99,9.34l0 30.66c0,28.68 -4.66,48.35 -14.15,59.01 -9.52,10.83 -26.68,16.18 -51.84,16.18 -30,0 -67.34,-8.68 -111.99,-25.85 -4.18,-2.15 -8,-3.32 -11.16,-3.32 -4.18,0 -7.52,3.32 -9.85,10.15l-20.99 60c-1.67,3.52 -2.51,7.16 -2.51,10.68 0,10.83 18.66,21.16 55.84,31.16 36.98,10.18 75.67,15.16 115.66,15.16 80.5,0 132.32,-25.67 155.84,-77.16 9.49,-20.5 14.15,-48 14.15,-82.83l0 -204.01c0,-40.33 7.67,-76.32 22.83,-107.84 2,-4.33 3.01,-8 3.01,-11.16zm-144.85 85.66l0 110.5c-50,0 -85.99,-6.15 -107.49,-18.33 -21.67,-12.33 -32.5,-32.83 -32.5,-61.84 0,-19.64 6.18,-36 18.5,-49.16 12.33,-13.16 27.49,-19.82 45.34,-19.82 26.66,0 52.15,12.83 76.15,38.66z"
   id="glyph72" />
   <glyph
   unicode="c"
   horiz-adv-x="407"
   d="M405.49 453.99c0,-4 -0.81,-7.64 -2.81,-11.16l-34.68 -64c-2.66,-4.51 -5.67,-6.83 -9.34,-6.83 -2.84,0 -6.15,1.34 -9.64,4 -31.01,22.68 -59.19,34 -85.01,34 -65.99,0 -99.01,-56 -99.01,-167.84 0,-105.49 33.34,-158.17 99.99,-158.17 26.68,0 54,9.34 82.02,27.85 4.81,3.49 8.48,5.32 10.66,5.32 2.99,0 5.82,-2.33 8.33,-7.32l24 -61.01c1.85,-4.84 2.84,-8.66 2.84,-11.67 0,-12.66 -15.67,-24.83 -47.16,-36.66 -31.34,-11.67 -64,-17.52 -97.84,-17.52 -67.99,0 -120.83,22.18 -158.49,66.68 -37.49,44.33 -56.32,106.68 -56.32,187.18 0,84.83 20.66,151.81 61.82,200.67 41.16,48.98 97.51,73.49 169.18,73.49 30.5,0 61.82,-6.51 93.66,-19.34 32,-12.83 47.82,-25.31 47.82,-37.67z"
   id="glyph73" />
   <glyph
   unicode="e"
   horiz-adv-x="480"
   d="M450.01 237.85c0,-8.67 -1.35,-15.02 -3.85,-19 -2.67,-3.85 -8.67,-5.84 -17.99,-5.84l-268.19 0c2.03,-84.01 38.85,-126 110.5,-126 37.19,0 75,10.33 113.34,31.15 5.16,2.67 9.52,3.85 12.99,3.85 5.03,0 8.67,-3 11.34,-9.18l24.67 -59.5c1.99,-5 3,-8.67 3,-11.34 0,-8.64 -13.67,-19 -41.01,-30.65 -43.67,-18.83 -89.68,-28.35 -138.15,-28.35 -63.52,0 -113.17,16.5 -149.01,49.35 -49.85,45.5 -74.66,115.84 -74.66,210.85 0,80.33 19.98,145 59.98,194.14 40.16,49.18 93.02,73.68 158.84,73.68 132.17,0 198.19,-91 198.19,-273.15zm-133.02 68.14c-1.01,41.51 -6.99,70.85 -18.16,87.99 -11,17.35 -29.33,26.02 -54.68,26.02 -29.67,0 -51.34,-12.52 -64.67,-37.67 -8.81,-16.34 -14.99,-41.85 -18.5,-76.35l156 0z"
   id="glyph74" />
   <glyph
   unicode="f"
   horiz-adv-x="351"
   d="M380 687.82c0,-0.33 -0.66,-2.81 -2,-7.64l-18 -71.34c-2.33,-5.85 -5.34,-8.68 -8.83,-8.68 -2.33,0 -5.67,0.84 -10.33,2.84 -20.18,9.34 -40.17,14 -60.17,14 -22.66,0 -38.66,-6.99 -47.82,-20.99 -5.16,-8.51 -7.85,-28.5 -7.85,-60l0 -42.02 114.02 0c11.32,0 16.99,-3.32 16.99,-10.15 -0.33,-2.66 -0.84,-5.85 -1.82,-9.85l-14.18 -57.82c-2.33,-10.18 -8.66,-15.16 -19.16,-15.16l-95.84 0 0 -383.84c0,-11.49 -5.67,-17.16 -17.16,-17.16l-92.68 0c-11.49,0 -17.16,5.67 -17.16,17.16l0 383.84 -75.99 0c-8.33,0 -13.34,0.99 -14.83,3.16 -1.49,2.15 -2.15,8.99 -2.15,20.66l0 55.01c0,9.49 5.65,14.15 16.99,14.15l75.99 0 0 42.02c0,61.16 11.01,105.49 32.83,132.83 29.52,36.83 72.02,55.16 127,55.16 30.68,0 58.68,-3.67 83.99,-11.16 25.52,-7.49 38.17,-15.82 38.17,-25.01z"
   id="glyph75" />
   <glyph
   unicode="h"
   horiz-adv-x="537"
   d="M471.99 17.01c0,-11.34 -5.65,-17.01 -17.16,-17.01l-93.16 0c-11.16,0 -16.66,5.67 -16.66,17.16l0 308.66c0,30.35 -4.18,52.02 -12.68,64.86 -8.51,12.81 -22.66,19.31 -42.5,19.31 -27.31,0 -55.82,-13.67 -85.82,-41.16l0 -351.67c0,-11.49 -5.67,-17.16 -17.19,-17.16l-92.65 0c-11.49,0 -17.16,5.67 -17.16,17.16l0 668.84c0,10 4.84,16 14.66,18l93.33 19.01c1.82,0.66 4.84,0.99 8.83,0.99 6.83,0 10.18,-5.67 10.18,-16.99l0 -253.85c40.66,38.5 86.5,57.84 137.66,57.84 51.49,0 88.17,-18 110.32,-54.17 13.34,-21.82 20,-56.15 20,-103l0 -336.81z"
   id="glyph76" />
   <glyph
   unicode="i"
   horiz-adv-x="295"
   d="M236.01 640.99c0,-22.48 -7.85,-41.49 -23.52,-57.31 -15.64,-15.85 -34.83,-23.67 -57.67,-23.67 -22.66,0 -41.67,7.82 -57.31,23.67 -15.67,15.82 -23.52,35.16 -23.52,58.32 0,21.82 8,40.5 24,56.32 16,15.85 35.16,23.67 57.67,23.67 22.35,0 41.19,-8 56.83,-23.82 15.67,-16 23.52,-35.01 23.52,-57.19zm-14 -623.98c0,-11.34 -5.67,-17.01 -17.16,-17.01l-93.18 0c-11.16,0 -16.66,5.67 -16.66,17.16l0 383.84 -75.99 0c-11.34,0 -17.01,5.67 -17.01,16.99l0 59.01c0,11.34 5.67,16.99 17.01,16.99l185.99 0c11.34,0 17.01,-5.65 17.01,-16.99l0 -459.99z"
   id="glyph77" />
   <glyph
   unicode="k"
   horiz-adv-x="500"
   d="M502.82 43.01c0,-4.18 -3.32,-8.18 -9.82,-12.18l-79.01 -44c-4.99,-2.51 -8.33,-3.85 -10.33,-3.85 -3.82,0 -8.18,3.19 -12.66,9.34l-187 239.68 0 -214.84c0,-11.49 -5.67,-17.16 -17.19,-17.16l-92.65 0c-11.49,0 -17.16,5.67 -17.16,17.16l0 668.84c0,10 4.84,16 14.66,18l102.17 20c6.83,0 10.18,-5.67 10.18,-16.99l0 -400.83 193.83 195c5.16,5.16 9.32,7.82 12.15,7.82 2,0 5.85,-2.33 11.67,-6.83l54.32 -43.01c5.19,-4.15 7.67,-8.33 7.67,-12.15 0,-3.34 -2.15,-7.16 -6.83,-11.67l-163.99 -158.34 184.16 -221.65c3.82,-4.33 5.82,-8.33 5.82,-12.33z"
   id="glyph78" />
   <glyph
   unicode="m"
   horiz-adv-x="777"
   d="M715 17.01c0,-11.34 -5.67,-17.01 -17.18,-17.01l-92.65 0c-11.51,0 -17.18,5.67 -17.18,17.01l0 315.98c0,51.34 -14.99,76.99 -44.99,76.99 -24.67,0 -53.33,-14.99 -86,-44.82l0 -348.15c0,-11.34 -5.67,-17.01 -17.18,-17.01l-90.66 0c-11.51,0 -17.18,5.67 -17.18,17.18l0 307.65c0,28.18 -1.65,47.02 -4.83,56.84 -6.14,18.83 -19.98,28.32 -41.14,28.32 -25.01,0 -53.67,-14.31 -86,-43l0 -349.8c0,-11.51 -5.67,-17.18 -17.18,-17.18l-91.16 0c-11.17,0 -16.67,5.67 -16.67,17.01l0 335.83c0,40.97 -6.01,76.99 -17.99,108.01 -1.99,3.81 -3,7.66 -3,11.14 0,5.5 3.68,9.52 10.83,11.68l81.17 27.34c6.48,1.32 9.82,1.99 9.82,1.99 11.68,0 22.51,-24 32.17,-71.99 50.66,46.68 100.34,70 149.35,70 51.47,0 87.82,-23.32 108.98,-70 51.67,46.68 103.18,70 154.65,70 46.68,0 78.68,-16.84 95.86,-50.32 12.15,-23.02 18.16,-61.36 18.16,-114.69l0 -328.98z"
   id="glyph79" />
   <glyph
   unicode="n"
   horiz-adv-x="537"
   d="M473 17.01c0,-11.34 -5.67,-17.01 -17.16,-17.01l-93.18 0c-11.16,0 -16.66,5.67 -16.66,17.16l0 308.66c0,56.17 -19.01,84.17 -57.16,84.17 -26,0 -55.01,-13.67 -86.83,-41.16l0 -351.67c0,-11.49 -5.67,-17.16 -17.19,-17.16l-93.16 0c-11.16,0 -16.66,5.67 -16.66,17.16l0 335.85c0,42.83 -6.83,79.16 -20.68,108.83 -2.15,4.15 -3.32,7.67 -3.32,10.15 0,4 2.84,6.83 8.33,8.83l88.65 33.19c3.67,1.32 7.01,2 10.35,2 12.33,0 24.15,-23.01 35.67,-69.18 46.48,42.83 96.32,64.17 149.66,64.17 86.17,0 129.33,-52.65 129.33,-158.17l0 -335.82z"
   id="glyph80" />
   <glyph
   unicode="o"
   horiz-adv-x="500"
   d="M467.99 248.01c0,-81.66 -19.31,-146.34 -58.15,-193.83 -38.83,-47.52 -91.66,-71.18 -158.85,-71.18 -68.5,0 -121.84,23.34 -160.32,69.84 -38.5,46.5 -57.67,111.16 -57.67,194.16 0,81.01 19.16,144.67 57.67,190.85 40.66,48.83 95.49,73.16 164.16,73.16 65.82,0 117.81,-23.67 155.99,-70.83 38.17,-47.16 57.16,-111.18 57.16,-192.16zm-135 -2c0,58.98 -6.48,101 -19.49,126.17 -12.99,25.16 -34.5,37.82 -64.5,37.82 -28.66,0 -49.34,-12.83 -62,-38.5 -12.66,-25.82 -18.99,-67.16 -18.99,-124.5 0,-57.82 6.48,-99.49 19.31,-125 12.83,-25.31 33.67,-38 62.68,-38 29.34,0 50.5,12.68 63.49,38 13.01,25.52 19.49,66.83 19.49,124.02z"
   id="glyph81" />
   <glyph
   unicode="r"
   horiz-adv-x="351"
   d="M365.16 488.49c0,-1.82 -0.68,-5.5 -2.33,-10.67l-30.85 -80.84c-2.33,-5.84 -4.83,-8.81 -7.83,-8.81 -0.98,0 -3.31,0.64 -7.32,1.99 -14.99,5.16 -28.32,7.83 -40,7.83 -21.5,0 -46.85,-16 -75.84,-47.83l0 -333c0,-11.51 -5.67,-17.18 -17.15,-17.18l-93.19 0c-11.17,0 -16.67,5.67 -16.67,17.01l0 303.67c0,47.83 -9.99,94.17 -29.97,139.16 -1.35,3.85 -2.03,6.99 -2.03,9.18 0,4.32 3.34,7.49 9.86,9.82l81 28.66c5.81,2.33 9.99,3.51 12.15,3.51 13.33,0 25.99,-25.99 38.17,-77.83 7.83,9.32 19,22.34 33.65,38.81 26.02,26.02 56.5,39.02 91.33,39.02 14.68,0 27.85,-2.33 39.52,-6.85 11.64,-4.49 17.48,-9.65 17.48,-15.66z"
   id="glyph82" />
   <glyph
   unicode="s"
   horiz-adv-x="425"
   d="M393.01 145c0,-45.5 -15.32,-84.18 -45.84,-116.17 -29.5,-30.48 -70.51,-45.84 -122.69,-45.84 -58.83,0 -115.33,14.01 -169.47,42.02 -14.68,7.49 -22.01,13.84 -22.01,19 0,2.67 0.98,6.65 3,12.15l22.82 60.99c2.67,6.51 6.01,9.86 9.82,9.86 2.36,0 5.33,-1.01 9.35,-3 52.82,-28.66 98.02,-43 135.82,-43 38.85,0 58.19,17.15 58.19,51.67 0,14.31 -4.83,25.48 -14.34,33.31 -9.65,7.66 -30.51,17.69 -62.68,29.67 -52.48,20.18 -86.98,38.34 -103.99,54.17 -26.66,25.52 -40,58.15 -40,98.18 0,47.83 16.67,86.98 49.99,117.32 33.35,30.51 76.01,45.67 128.02,45.67 31.49,0 64.84,-5.33 100.01,-16.17 35,-10.67 52.65,-20.66 52.65,-30.17 0,-2.5 -1.01,-6.18 -3,-10.67l-24.67 -57.01c-2.67,-5.84 -5.97,-8.81 -10.16,-8.81 -1.32,0 -3.98,0.64 -7.83,1.99 -38.51,17.15 -71.99,25.82 -100.51,25.82 -42.32,0 -63.49,-16.98 -63.49,-50.83 0,-13.67 4.15,-24.17 12.32,-31.32 8.17,-7.32 25.85,-16.34 53.02,-26.66 59.98,-23.53 98.32,-43.51 114.99,-60.01 27.17,-26.83 40.67,-60.82 40.67,-102.17z"
   id="glyph83" />
   <glyph
   unicode="t"
   horiz-adv-x="370"
   d="M366.01 22.01c0,-8.17 -10.33,-15.32 -31.19,-22.01 -35.14,-11.34 -68.82,-17.01 -101.15,-17.01 -59.17,0 -99.5,21.5 -121,64.5 -9.18,18.83 -13.67,49.85 -13.67,92.68l0 260.83 -69.33 0c-11.17,0 -16.67,5.67 -16.67,17.01l0 59c0,11.31 5.5,16.98 16.67,16.98l69.33 0 0 126.16c0,10.5 5.33,16.5 16.17,18.19l91.84 12.66 8.84 0c6.82,0 10.16,-5.33 10.16,-16.17l0 -140.85 113.68 0c11.31,0 17.15,-3.34 17.15,-10.16 0,-3.98 -0.34,-6.82 -0.98,-8.84l-13.16 -58.83c-2.03,-10.16 -7.86,-15.15 -17.69,-15.15l-98.99 0 0 -243.01c0,-22.82 1.15,-37.5 3.51,-43.98 4.49,-13.33 15.66,-20.01 33.48,-20.01 15.66,0 37.67,5.67 66.02,16.84 3.14,1.32 6.14,1.99 8.64,1.99 4.69,0 8,-3.34 10.36,-9.82l15.66 -69.66c1.49,-6.01 2.33,-9.69 2.33,-11.34z"
   id="glyph84" />
   <glyph
   unicode="u"
   horiz-adv-x="537"
   d="M485 15.34c0,-4 -3.34,-6.68 -9.82,-8.33l-84.02 -19.01c-5.82,-1.34 -9.67,-2 -11.16,-2 -11.49,0 -21.34,18.33 -29.82,55.01 -40.68,-38.68 -86.85,-58.02 -138.17,-58.02 -50.17,0 -87.66,14.35 -112.85,43.01 -16.33,18.5 -26.48,42.68 -30.66,72.32 -2.33,14.02 -3.49,40.68 -3.49,80.02l0 293.17c0,9.67 4.99,15.49 15.16,17.49l92.83 20c1.34,0.66 4,1.01 8.33,1.01 7.16,0 10.68,-5.19 10.68,-15.67l0 -310.18c0,-37.49 3.16,-61.82 9.32,-73.34 9.34,-17.82 26.68,-26.83 51.67,-26.83 26.68,0 54.35,12 83.01,36.17l0 351.16c0,9.85 5.01,15.67 15.16,17.67l92.83 20 10.18 1.01c5.82,0 8.83,-5.19 8.83,-15.67l0 -368.17c0,-42.65 6.33,-76.68 18.99,-101.99 2,-3.01 3.01,-6 3.01,-8.83z"
   id="glyph85" />
   <glyph
   unicode="w"
   horiz-adv-x="667"
   d="M658.18 477.18c0,0 -1.19,-3.52 -3.52,-10.35l-137.66 -461.15c-2.84,-9.16 -9.34,-13.67 -19.01,-13.67l-82.98 0c-7.16,0 -11.67,0.66 -13.52,2.18 -1.65,1.49 -3.32,6 -4.66,13.49l-46.83 253.5c-0.99,4.51 -3.34,21.49 -7.34,50.83l-3.82 37.16 -3.01 23.85c-2.48,-22.83 -8.48,-60.02 -18,-111.84l-59.16 -254.51c-2.15,-9.82 -8,-14.66 -17.49,-14.66l-81.99 0c-9.52,0 -15.52,4.84 -18.18,14.66l-121 460.17c-1.34,5.16 -2,9.01 -2,11.16 0,5.34 5.01,8.51 15.16,9.85l87.84 13.16c0.66,0.66 3.34,1.01 7.82,1.01 6.18,0 10.35,-4.68 12.18,-14.18l47.01 -230.01c5.16,-25.34 12.15,-77.66 20.99,-156.82 6.18,68.65 12.18,116.65 18,143.99l49.84 233.83c2.15,10.18 8.33,15.16 18,15.16l89.82 0c10.18,0 16.18,-4.99 18.18,-15.16l45.34 -225c6.83,-35.16 13.34,-85.99 19.49,-152.82 8.83,84.32 16.33,139.66 22.5,166.16l50.83 220.67c2.18,9.49 5.85,14.18 10.66,14.18 5.52,0 8.68,-0.35 9.34,-1.01l81.99 -13.16c10.18,-1.34 15.19,-4.84 15.19,-10.66z"
   id="glyph86" />
  </font>
</defs>
</svg>
