<?xml version="1.0" encoding="UTF-8" standalone="no"?>
<!-- Creator: CorelDRAW 2021 (64-Bit) -->

<svg
   xml:space="preserve"
   width="209.988mm"
   height="98.8584mm"
   version="1.0"
   style="shape-rendering:geometricPrecision; text-rendering:geometricPrecision; image-rendering:optimizeQuality; fill-rule:evenodd; clip-rule:evenodd"
   viewBox="0 0 20997.7 9885.3"
   id="svg415"
   sodipodi:docname="kulturwirt__m.a._.svg"
   inkscape:version="1.3-dev (77bc73e, 2022-05-18)"
   xmlns:inkscape="http://www.inkscape.org/namespaces/inkscape"
   xmlns:sodipodi="http://sodipodi.sourceforge.net/DTD/sodipodi-0.dtd"
   xmlns="http://www.w3.org/2000/svg"
   xmlns:svg="http://www.w3.org/2000/svg"><sodipodi:namedview
   id="namedview415"
   pagecolor="#ffffff"
   bordercolor="#000000"
   borderopacity="0.25"
   inkscape:showpageshadow="2"
   inkscape:pageopacity="0.0"
   inkscape:pagecheckerboard="0"
   inkscape:deskcolor="#d1d1d1"
   inkscape:document-units="mm"
   showgrid="false"
   inkscape:zoom="0.63162733"
   inkscape:cx="398.17783"
   inkscape:cy="186.81902"
   inkscape:window-width="1440"
   inkscape:window-height="900"
   inkscape:window-x="0"
   inkscape:window-y="0"
   inkscape:window-maximized="0"
   inkscape:current-layer="Ebene_x0020_1" />
 <defs
   id="defs137">
  <font
   id="FontID14"
   horiz-adv-x="556"
   font-variant="normal"
   style="fill-rule:nonzero"
   font-weight="700">
	<font-face
   font-family="Officina Sans ITC TT"
   id="font-face1">
		<font-face-src>
			<font-face-name
   name="Officina Sans ITC TT Fett" />
		</font-face-src>
	</font-face>
   <missing-glyph
   id="missing-glyph1"><path
     d="M0 0z"
     id="path1" /></missing-glyph>
   <glyph
   unicode=","
   horiz-adv-x="295"
   d="M250.16 113.82c0,-4.33 -1.66,-8.8 -4.99,-13.65l-119.15 -224c-4.85,-9.49 -9.53,-14.17 -14,-14.17 -2.01,0 -6.03,1.18 -11.85,3.5l-38.01 12.68c-10.81,3.5 -16.15,8.14 -16.15,14 0,1.32 1,5.34 2.98,11.81l62.02 204.01c3.5,11.33 11.16,17.01 22.83,17.01l96.15 0c13.51,0 20.16,-3.67 20.16,-11.19z"
   id="glyph1" />
   <glyph
   unicode="E"
   horiz-adv-x="481"
   d="M460.02 674.83c0,-2.01 -0.69,-6.34 -2.01,-12.82l-19.99 -67.84c-3.19,-11.5 -10.5,-17.19 -22,-17.19l-194.03 0 0 -163.99 167.17 0c11.68,0 18.33,-3.15 19.99,-9.32 0.69,-2.53 1,-6.51 1,-11.68l0 -67.01c0,-11.99 -2.98,-18.68 -9.32,-19.99 -2.49,-0.66 -6.51,-1 -11.68,-1l-167.17 0 0 -195 210.17 0c11.68,0 18.33,-3.01 19.99,-8.84 0.69,-2.49 1,-6.65 1,-12.16l0 -67.01c0,-9.49 -1.14,-15.31 -3.5,-17.5 -2.15,-2.32 -8,-3.5 -17.5,-3.5l-326.17 0c-9.49,0 -15.31,1.18 -17.67,3.33 -2.15,2.36 -3.33,8.18 -3.33,17.67l0 644c0,9.49 1.18,15.35 3.5,17.67 2.18,2.18 8,3.33 17.5,3.33l334 0c13.34,0 20.03,-3.64 20.03,-11.16z"
   id="glyph2" />
   <glyph
   unicode="F"
   horiz-adv-x="444"
   d="M460.02 674.83c0,0.49 -0.69,-3.67 -2.01,-12.82l-19.99 -67.84c-3.19,-11.5 -10.5,-17.19 -22,-17.19l-194.03 0 0 -163.99 167.17 0c11.68,0 18.33,-3.15 19.99,-9.32 0.69,-2.53 1,-6.51 1,-11.68l0 -67.01c0,-11.99 -2.98,-18.68 -9.32,-19.99 -2.49,-0.66 -6.51,-1 -11.68,-1l-167.17 0 0 -283c0,-11.68 -3.15,-18.33 -9.32,-19.99 -2.49,-0.66 -6.51,-1 -11.68,-1l-95 0c-9.49,0 -15.31,1.18 -17.67,3.33 -2.15,2.36 -3.33,8.18 -3.33,17.67l0 644c0,9.49 1.18,15.35 3.5,17.67 2.18,2.18 8,3.33 17.5,3.33l334 0c13.34,0 20.03,-3.64 20.03,-11.16z"
   id="glyph3" />
   <glyph
   unicode="N"
   horiz-adv-x="610"
   d="M538.01 21c0,-9.49 -1.18,-15.31 -3.5,-17.67 -2.18,-2.15 -8,-3.33 -17.5,-3.33l-64.03 0c-13.3,0 -23.49,6.34 -30.32,18.99l-171.82 323.85c-27.51,51.66 -48.85,98.99 -64.03,141.99 2.18,-46.5 3.19,-87.17 3.19,-121.99l0 -341.83c0,-11.68 -3.19,-18.33 -9.35,-19.99 -2.49,-0.66 -6.48,-1 -11.64,-1l-75.01 0c-9.67,0 -15.66,1.18 -17.84,3.33 -2.15,2.36 -3.15,8.18 -3.15,17.67l0 644c0,9.49 1,15.35 3.15,17.67 2.18,2.18 8,3.33 17.84,3.33l77.68 0c9.32,0 15.49,-0.83 18.33,-2.49 2.67,-1.49 6.34,-6.48 10.98,-14.66l157.68 -293.85c23.32,-43.31 44.66,-94.48 63.99,-153.84 -1.18,50.52 -1.66,92.51 -1.66,126.01l0 317.82c0,11.68 3.15,18.33 9.32,19.99 2.49,0.69 6.51,1 11.68,1l75.01 0c9.49,0 15.31,-1.14 17.67,-3.33 2.15,-2.32 3.33,-8.18 3.33,-17.67l0 -644z"
   id="glyph4" />
   <glyph
   unicode="S"
   horiz-adv-x="481"
   d="M452.01 193.99c0,-61.81 -20.16,-111.98 -60.36,-150.34 -40.16,-38.49 -92.65,-57.65 -157.82,-57.65 -40.33,0 -85.16,7.17 -134.68,21.48 -49.51,14.34 -74.15,27.2 -74.15,38.53 0,1.97 0.66,5.65 1.97,11.16l33.19 85.82c2.32,5.99 5.16,8.84 8.8,8.84 2.18,0 5.34,-1 9.18,-2.84 59.66,-32.64 110.66,-48.99 153,-48.99 59.84,0 89.84,27.68 89.84,83.02 0,24.98 -7,45.32 -21,60.98 -13.34,14.69 -51.35,37.66 -113.85,68.84 -59.84,30 -100.82,58.66 -123,86.17 -22.17,27.51 -33.16,63.34 -33.16,107.65 0,59.18 19.82,106.33 59.32,141.19 39.5,34.82 92.86,52.14 159.83,52.14 39.36,0 81.01,-7.14 125.01,-21.65 43.83,-14.48 65.83,-28.17 65.83,-41.16 0,-1.35 -1,-4.16 -2.81,-8.35l-36.17 -75.67c-2.36,-4.82 -5.34,-7.31 -8.84,-7.31 -2.36,0 -15.35,6.17 -39.19,18.16 -34.16,17.32 -67.49,26.02 -100.17,26.02 -28,0 -50.17,-6.51 -66.32,-19.51 -16.35,-12.99 -24.5,-30.84 -24.5,-53.18 0,-25.15 12.99,-46.15 38.98,-62.99 9.49,-6.34 44.52,-24.67 105.02,-55.33 51.49,-25.67 88.66,-54.67 111.5,-86.83 23.01,-32.19 34.51,-71.69 34.51,-118.18z"
   id="glyph5" />
   <glyph
   unicode="T"
   horiz-adv-x="407"
   d="M437.18 674.83c0,-3.01 -0.69,-6.83 -2.01,-11.81l-21 -79.03c-3.01,-11.33 -10.36,-16.98 -22,-16.98l-123.17 0 0 -546.01c0,-9.49 -1.18,-15.31 -3.33,-17.5 -2.36,-2.32 -8.18,-3.5 -17.67,-3.5l-97.01 0c-9.49,0 -15.31,1.18 -17.67,3.5 -2.15,2.18 -3.33,8 -3.33,17.5l0 546.01 -126.01 0c-9.49,0 -15.31,1 -17.5,3.15 -2.32,2.18 -3.5,7.66 -3.5,16.84l0 77.99c0,9.49 1.18,15.35 3.67,17.67 2.49,2.18 8.18,3.33 17.32,3.33l413.17 0c13.34,0 20.03,-3.64 20.03,-11.16z"
   id="glyph6" />
   <glyph
   unicode="a"
   horiz-adv-x="481"
   d="M439.82 28c0,-4.68 -2.63,-7.83 -7.83,-9.84l-78.17 -31.15c-2.98,-2.01 -7,-3.01 -12.16,-3.01 -9.15,0 -19.16,19.68 -29.83,59 -37.18,-38.01 -79.65,-57 -127.99,-57 -45.84,0 -82.36,13.65 -109.35,40.99 -26.99,27.34 -40.5,64.17 -40.5,110.35 0,87.49 49.68,140.98 149.02,160.49 26.16,5.16 63.47,8.35 111.98,9.32l0 30.7c0,28.65 -4.64,48.33 -14.17,58.97 -9.49,10.84 -26.64,16.18 -51.83,16.18 -29.97,0 -67.32,-8.66 -111.98,-25.85 -4.16,-2.15 -8,-3.33 -11.16,-3.33 -4.19,0 -7.52,3.33 -9.84,10.19l-21 59.98c-1.66,3.5 -2.53,7.17 -2.53,10.67 0,10.84 18.68,21.17 55.85,31.18 37,10.15 75.67,15.14 115.65,15.14 80.52,0 132.35,-25.64 155.85,-77.16 9.49,-20.48 14.17,-47.99 14.17,-82.81l0 -204.01c0,-40.33 7.66,-76.33 22.83,-107.86 2.01,-4.33 2.98,-7.97 2.98,-11.16zm-144.83 85.68l0 110.49c-50,0 -86,-6.17 -107.48,-18.33 -21.69,-12.33 -32.5,-32.85 -32.5,-61.85 0,-19.65 6.17,-36 18.5,-49.16 12.33,-13.17 27.48,-19.82 45.32,-19.82 26.68,0 52.18,12.82 76.16,38.67z"
   id="glyph7" />
   <glyph
   unicode="c"
   horiz-adv-x="407"
   d="M405.52 453.99c0,-3.98 -0.87,-7.66 -2.84,-11.16l-34.68 -63.99c-2.67,-4.5 -5.65,-6.83 -9.32,-6.83 -2.84,0 -6.17,1.32 -9.67,3.98 -31.01,22.66 -59.18,33.99 -84.99,33.99 -66,0 -99.02,-55.99 -99.02,-167.83 0,-105.5 33.33,-158.17 99.99,-158.17 26.68,0 54.02,9.35 82.01,27.86 4.85,3.5 8.49,5.34 10.67,5.34 3.01,0 5.82,-2.36 8.32,-7.35l24.01 -61.01c1.84,-4.82 2.84,-8.66 2.84,-11.64 0,-12.68 -15.66,-24.84 -47.16,-36.69 -31.36,-11.64 -64.03,-17.5 -97.84,-17.5 -68.01,0 -120.85,22.17 -158.51,66.66 -37.49,44.35 -56.34,106.68 -56.34,187.17 0,84.85 20.68,151.86 61.85,200.68 41.16,48.99 97.5,73.49 169.18,73.49 30.49,0 61.81,-6.48 93.65,-19.33 32.01,-12.82 47.85,-25.33 47.85,-37.66z"
   id="glyph8" />
   <glyph
   unicode="d"
   horiz-adv-x="518"
   d="M465.66 30.84c0,-3.5 -3.01,-6.51 -8.84,-8.66l-82.98 -33.16c-5.2,-2.01 -8.7,-3.01 -10.19,-3.01 -11.16,0 -20.16,17.01 -26.99,51.17 -43.83,-36.17 -90.67,-54.19 -140.01,-54.19 -51.83,0 -91.82,22.17 -120.16,66.66 -28.34,44.35 -42.51,107.03 -42.51,188.03 0,95.32 19.51,166.48 58.69,213.33 33.82,39.98 76.47,59.98 127.64,59.98 32.19,0 65.17,-9.32 98.68,-28.13l0 203.14c0,10.01 4.99,16.01 15.18,18.02l102 19.99c6.48,0 9.81,-5.65 9.81,-17.01l0 -583.81c0,-30.35 5.86,-58.83 17.67,-85.82 0.69,-1.7 1.35,-3.85 2.01,-6.51zm-146.66 85.34l0 275.83c-23.84,11.99 -47.85,17.98 -71.82,17.98 -31.67,0 -54.02,-12.33 -66.84,-37.14 -12.85,-24.67 -19.33,-67.35 -19.33,-127.85 0,-57.83 6.17,-99.65 18.33,-125.49 12.16,-25.67 32.01,-38.49 59.49,-38.49 31.36,0 58,11.68 80.17,35.17z"
   id="glyph9" />
   <glyph
   unicode="e"
   horiz-adv-x="481"
   d="M450 237.82c0,-8.66 -1.35,-15 -3.85,-18.99 -2.67,-3.85 -8.66,-5.82 -17.98,-5.82l-268.17 0c2.01,-84.02 38.84,-126.01 110.49,-126.01 37.18,0 75.01,10.32 113.33,31.18 5.16,2.63 9.49,3.81 12.99,3.81 5.02,0 8.7,-2.98 11.36,-9.15l24.63 -59.52c2.01,-4.99 3.01,-8.66 3.01,-11.33 0,-8.66 -13.65,-18.99 -40.99,-30.66 -43.69,-18.81 -89.67,-28.34 -138.17,-28.34 -63.51,0 -113.16,16.53 -149.02,49.34 -49.82,45.49 -74.67,115.83 -74.67,210.83 0,80.35 20.03,145 60.01,194.17 40.16,49.16 92.99,73.66 158.82,73.66 132.18,0 198.18,-90.98 198.18,-273.16zm-133.01 68.19c-1,41.51 -7,70.82 -18.16,88 -11.02,17.32 -29.35,25.99 -54.67,25.99 -29.66,0 -51.31,-12.51 -64.65,-37.66 -8.84,-16.35 -15,-41.82 -18.5,-76.33l155.98 0z"
   id="glyph10" />
   <glyph
   unicode="g"
   horiz-adv-x="500"
   d="M464.66 474.01c0,-2.67 -2.01,-8.7 -5.82,-18.19 -14.52,-34.65 -21.83,-72.48 -21.83,-113.16l0 -148.01c0,-54.64 1,-108.83 2.98,-162.5 1.35,-36.14 2.01,-57.17 2.01,-62.99 0,-57.34 -16.18,-101.34 -48.68,-132.01 -32.33,-30.84 -78.82,-46.15 -139.49,-46.15 -42.34,0 -86.83,6.34 -133.32,18.81 -46.67,12.51 -69.85,24.67 -69.85,36.35 0,2.32 0.69,5.51 1.84,9.84l21.52 68.84c2.01,6.83 5.65,10.15 10.81,10.15 3.01,0 5.86,-0.83 8.84,-2.84 54.36,-24.84 104.01,-37.18 148.67,-37.18 27.68,0 47.33,6.34 59,19.02 11.85,12.65 17.67,33.99 17.67,63.99 0,14.34 -1.66,36 -4.85,65 -35.31,-24.67 -73.97,-37 -116.31,-37 -50.52,0 -90.5,21.83 -119.85,65.66 -29.31,43.69 -44,102.83 -44,177.36 0,80.31 16.53,144.17 49.34,191.32 32.85,47.16 77.33,70.65 133.32,70.65 40.68,0 79.03,-15.31 115.17,-46.15 13.34,32.85 25.19,49.16 35.17,49.16 4.02,0 7.17,-0.66 9.84,-2.01l79 -28.31c5.86,-2.84 8.84,-6.17 8.84,-9.67zm-150.65 -332.86l0 236.02c-25.67,19.16 -49.34,28.83 -70.85,28.83 -54.81,0 -82.15,-50.65 -82.15,-152 0,-98.02 24.67,-147.01 73.83,-147.01 30.97,0 57.34,11.33 79.17,34.16z"
   id="glyph11" />
   <glyph
   unicode="h"
   horiz-adv-x="537"
   d="M472 17.01c0,-11.33 -5.68,-17.01 -17.19,-17.01l-93.17 0c-11.16,0 -16.67,5.68 -16.67,17.15l0 308.68c0,30.35 -4.16,52.01 -12.65,64.83 -8.52,12.85 -22.66,19.33 -42.51,19.33 -27.34,0 -55.82,-13.65 -85.82,-41.16l0 -351.67c0,-11.47 -5.68,-17.15 -17.19,-17.15l-92.65 0c-11.5,0 -17.19,5.68 -17.19,17.15l0 668.84c0,10.01 4.85,16.01 14.69,18.02l93.31 18.99c1.84,0.66 4.85,1 8.84,1 6.86,0 10.19,-5.65 10.19,-17.01l0 -253.83c40.68,38.49 86.48,57.83 137.66,57.83 51.52,0 88.18,-17.98 110.35,-54.15 13.3,-21.83 19.99,-56.16 19.99,-103.01l0 -336.81z"
   id="glyph12" />
   <glyph
   unicode="i"
   horiz-adv-x="295"
   d="M235.99 641.02c0,-22.52 -7.83,-41.51 -23.49,-57.34 -15.66,-15.83 -34.82,-23.66 -57.65,-23.66 -22.66,0 -41.68,7.83 -57.34,23.66 -15.66,15.83 -23.49,35.17 -23.49,58.31 0,21.86 8,40.5 23.98,56.34 16.01,15.83 35.17,23.66 57.69,23.66 22.31,0 41.16,-8 56.82,-23.84 15.66,-15.97 23.49,-34.99 23.49,-57.13zm-14 -624c0,-11.33 -5.65,-17.01 -17.15,-17.01l-93.17 0c-11.16,0 -16.67,5.68 -16.67,17.15l0 383.86 -76.02 0c-11.33,0 -16.98,5.65 -16.98,16.98l0 59c0,11.33 5.65,17.01 16.98,17.01l186.02 0c11.33,0 16.98,-5.68 16.98,-17.01l0 -459.98z"
   id="glyph13" />
   <glyph
   unicode="k"
   horiz-adv-x="500"
   d="M502.84 43c0,-4.16 -3.33,-8.18 -9.84,-12.16l-79 -44c-4.99,-2.49 -8.35,-3.85 -10.32,-3.85 -3.85,0 -8.18,3.19 -12.68,9.35l-186.99 239.66 0 -214.85c0,-11.47 -5.68,-17.15 -17.19,-17.15l-92.65 0c-11.5,0 -17.19,5.68 -17.19,17.15l0 668.84c0,10.01 4.85,16.01 14.69,18.02l102.14 19.99c6.86,0 10.19,-5.65 10.19,-17.01l0 -400.8 193.82 195c5.16,5.16 9.35,7.83 12.16,7.83 2.01,0 5.86,-2.36 11.68,-6.83l54.33 -43.03c5.16,-4.16 7.69,-8.32 7.69,-12.16 0,-3.33 -2.18,-7.17 -6.86,-11.64l-163.99 -158.34 184.15 -221.68c3.85,-4.33 5.86,-8.32 5.86,-12.33z"
   id="glyph14" />
   <glyph
   unicode="l"
   horiz-adv-x="277"
   d="M289.17 11.33c0,-6.83 -11.02,-13.34 -32.85,-19.33 -21.65,-5.99 -44.49,-9.01 -68.33,-9.01 -59.49,0 -97.5,24.18 -113.68,72.34 -6.17,17.15 -9.32,57.65 -9.32,121.51l0 508.14c0,10.67 4.99,17.01 15.18,19.02l89.84 17.98c6.83,1.35 10.98,2.01 12.16,2.01 6.48,0 9.84,-5.65 9.84,-17.15l0 -520.86c0,-39.15 0.66,-61.15 1.97,-66 3.5,-13.3 12.02,-19.99 25.33,-19.99 9.18,0 20.03,2.01 32.67,5.99 2.01,0.69 4.33,1 6.83,1 4.68,0 7.35,-1.97 8.35,-5.99l21 -85.82c0.66,-1.35 1,-2.49 1,-3.85z"
   id="glyph15" />
   <glyph
   unicode="n"
   horiz-adv-x="537"
   d="M473.01 17.01c0,-11.33 -5.68,-17.01 -17.19,-17.01l-93.17 0c-11.16,0 -16.67,5.68 -16.67,17.15l0 308.68c0,56.16 -18.99,84.16 -57.17,84.16 -25.99,0 -54.99,-13.65 -86.83,-41.16l0 -351.67c0,-11.47 -5.65,-17.15 -17.15,-17.15l-93.17 0c-11.19,0 -16.67,5.68 -16.67,17.15l0 335.84c0,42.86 -6.86,79.17 -20.68,108.83 -2.15,4.19 -3.33,7.69 -3.33,10.19 0,3.98 2.84,6.83 8.32,8.84l88.7 33.16c3.64,1.35 7,2.01 10.32,2.01 12.33,0 24.15,-23.01 35.65,-69.16 46.5,42.82 96.36,64.13 149.68,64.13 86.17,0 129.34,-52.66 129.34,-158.17l0 -335.8z"
   id="glyph16" />
   <glyph
   unicode="o"
   horiz-adv-x="500"
   d="M467.99 248.01c0,-81.66 -19.33,-146.35 -58.14,-193.85 -38.84,-47.5 -91.68,-71.17 -158.86,-71.17 -68.5,0 -121.82,23.35 -160.31,69.85 -38.49,46.5 -57.69,111.15 -57.69,194.17 0,81.01 19.19,144.65 57.69,190.84 40.68,48.82 95.49,73.14 164.16,73.14 65.83,0 117.84,-23.66 155.98,-70.82 38.18,-47.16 57.17,-111.15 57.17,-192.16zm-134.99 -2.01c0,59 -6.51,101 -19.51,126.15 -12.99,25.19 -34.51,37.84 -64.48,37.84 -28.69,0 -49.34,-12.82 -62.02,-38.49 -12.65,-25.81 -18.99,-67.15 -18.99,-124.49 0,-57.83 6.48,-99.51 19.33,-125.01 12.82,-25.33 33.68,-38.01 62.64,-38.01 29.35,0 50.52,12.68 63.51,38.01 12.99,25.5 19.51,66.84 19.51,124z"
   id="glyph17" />
   <glyph
   unicode="p"
   horiz-adv-x="518"
   d="M486 254.83c0,-181.17 -61.01,-271.85 -182.84,-271.85 -36.17,0 -70.16,8.66 -102.18,25.85l0 -180.83c0,-10.01 -4.99,-16.01 -15.14,-18.02l-93.34 -19.99 -9.67 -1c-5.86,0 -8.84,5.34 -8.84,16.18l0 549.65c0,32.5 -6.51,65.52 -19.68,99.02 -1.49,3.33 -2.32,5.82 -2.32,7.83 0,3.33 3.5,6.31 10.32,9.32l86.83 36.48c4.85,2.36 8,3.5 9.35,3.5 9.32,0 18.64,-17.32 27.82,-51.97 38.32,34.65 80.66,51.97 126.84,51.97 115.17,0 172.82,-85.3 172.82,-256.15zm-127.02 -3.98c0,106.16 -26.64,159.14 -80.14,159.14 -25.19,0 -51.17,-11.99 -77.85,-36.14l0 -275.86c23.53,-12.65 46.84,-18.99 70.02,-18.99 32.5,0 55.33,12.68 68.5,38.01 12.99,25.5 19.47,69.99 19.47,133.84z"
   id="glyph18" />
   <glyph
   unicode="r"
   horiz-adv-x="351"
   d="M365.15 488.5c0,-1.84 -0.66,-5.51 -2.32,-10.67l-30.84 -80.83c-2.32,-5.82 -4.82,-8.84 -7.83,-8.84 -1,0 -3.33,0.69 -7.35,2.01 -14.97,5.16 -28.31,7.83 -39.98,7.83 -21.52,0 -46.84,-16.01 -75.84,-47.81l0 -333.03c0,-11.47 -5.65,-17.15 -17.15,-17.15l-93.17 0c-11.16,0 -16.67,5.68 -16.67,17.01l0 303.65c0,47.85 -10.01,94.17 -30,139.18 -1.35,3.81 -2.01,7 -2.01,9.15 0,4.33 3.33,7.52 9.84,9.84l81.01 28.65c5.82,2.36 9.98,3.5 12.16,3.5 13.34,0 25.99,-25.99 38.18,-77.82 7.83,9.32 18.99,22.35 33.64,38.84 26.02,25.99 56.51,38.98 91.33,38.98 14.69,0 27.86,-2.32 39.5,-6.83 11.68,-4.5 17.5,-9.67 17.5,-15.66z"
   id="glyph19" />
   <glyph
   unicode="s"
   horiz-adv-x="425"
   d="M393.01 145c0,-45.49 -15.35,-84.16 -45.84,-116.17 -29.52,-30.49 -70.51,-45.84 -122.65,-45.84 -58.87,0 -115.34,14 -169.53,42.03 -14.66,7.48 -22,13.82 -22,18.99 0,2.67 1,6.65 3.01,12.16l22.83 61.01c2.67,6.48 5.99,9.81 9.84,9.81 2.32,0 5.34,-0.97 9.32,-2.98 52.84,-28.65 98.02,-43 135.85,-43 38.81,0 58.14,17.15 58.14,51.66 0,14.34 -4.82,25.5 -14.31,33.33 -9.67,7.66 -30.52,17.67 -62.68,29.66 -52.49,20.16 -87,38.35 -104.01,54.19 -26.64,25.5 -39.98,58.14 -39.98,98.16 0,47.85 16.67,87 50,117.32 33.33,30.52 76.02,45.67 127.99,45.67 31.53,0 64.86,-5.3 100.03,-16.15 34.99,-10.67 52.66,-20.68 52.66,-30.18 0,-2.49 -1,-6.17 -3.01,-10.67l-24.67 -57c-2.67,-5.82 -5.99,-8.84 -10.15,-8.84 -1.35,0 -4.02,0.69 -7.83,2.01 -38.53,17.15 -72,25.85 -100.51,25.85 -42.34,0 -63.51,-17.01 -63.51,-50.86 0,-13.65 4.19,-24.15 12.33,-31.32 8.18,-7.35 25.85,-16.32 53.01,-26.68 60.01,-23.49 98.33,-43.48 115,-59.98 27.16,-26.85 40.68,-60.84 40.68,-102.18z"
   id="glyph20" />
   <glyph
   unicode="z"
   horiz-adv-x="425"
   d="M414.18 95.18c0,-2.49 -1,-6.34 -3.01,-11.19l-30.18 -70.82c-3.98,-8.84 -10.32,-13.17 -19.16,-13.17l-319.66 0c-11.5,0 -17.15,5.68 -17.15,17.01l0 68.67 232.83 307.32 -194.69 0c-11.5,0 -17.15,5.82 -17.15,17.32l0 66.49c0,11.5 5.65,17.19 17.15,17.19l314.84 0c7.83,0 12.65,-1.35 14.48,-4.16 1.66,-2.67 2.67,-7 2.67,-12.85l0 -73.31 -226.15 -298.66 228.99 0c10.84,0 16.18,-3.36 16.18,-9.84z"
   id="glyph21" />
   <glyph
   unicode="ä"
   horiz-adv-x="481"
   d="M393.84 637.17c0,-19.16 -6.69,-35.51 -20.16,-48.99 -13.51,-13.51 -29.83,-20.34 -48.68,-20.34 -19.16,0 -35.48,6.83 -48.99,20.34 -13.51,13.48 -20.34,29.83 -20.34,48.99 0,19.16 6.83,35.51 20.34,48.82 13.51,13.34 30.18,20.03 50,20.03 18.5,0 34.51,-6.86 47.85,-20.34 13.3,-13.51 19.99,-29.69 19.99,-48.51zm-177.19 0c0,-19.16 -6.83,-35.51 -20.3,-48.99 -13.51,-13.51 -29.69,-20.34 -48.51,-20.34 -19.02,0 -35.17,6.83 -48.68,20.34 -13.48,13.48 -20.16,29.83 -20.16,48.99 0,19.16 6.69,35.51 20.16,48.82 13.51,13.34 30,20.03 49.68,20.03 18.5,0 34.47,-6.86 47.81,-20.34 13.34,-13.51 19.99,-29.69 19.99,-48.51zm223.17 -609.17c0,-4.68 -2.63,-7.83 -7.83,-9.84l-78.17 -31.15c-2.98,-2.01 -7,-3.01 -12.16,-3.01 -9.15,0 -19.16,19.68 -29.83,59 -37.18,-38.01 -79.65,-57 -127.99,-57 -45.84,0 -82.36,13.65 -109.35,40.99 -26.99,27.34 -40.5,64.17 -40.5,110.35 0,87.49 49.68,140.98 149.02,160.49 26.16,5.16 63.47,8.35 111.98,9.32l0 30.7c0,28.65 -4.64,48.33 -14.17,58.97 -9.49,10.84 -26.64,16.18 -51.83,16.18 -29.97,0 -67.32,-8.66 -111.98,-25.85 -4.16,-2.15 -8,-3.33 -11.16,-3.33 -4.19,0 -7.52,3.33 -9.84,10.19l-21 59.98c-1.66,3.5 -2.53,7.17 -2.53,10.67 0,10.84 18.68,21.17 55.85,31.18 37,10.15 75.67,15.14 115.65,15.14 80.52,0 132.35,-25.64 155.85,-77.16 9.49,-20.48 14.17,-47.99 14.17,-82.81l0 -204.01c0,-40.33 7.66,-76.33 22.83,-107.86 2.01,-4.33 2.98,-7.97 2.98,-11.16zm-144.83 85.68l0 110.49c-50,0 -86,-6.17 -107.48,-18.33 -21.69,-12.33 -32.5,-32.85 -32.5,-61.85 0,-19.65 6.17,-36 18.5,-49.16 12.33,-13.17 27.48,-19.82 45.32,-19.82 26.68,0 52.18,12.82 76.16,38.67z"
   id="glyph22" />
   <glyph
   unicode="ö"
   horiz-adv-x="500"
   d="M408.01 637.17c0,-19.16 -6.86,-35.51 -20.34,-48.99 -13.51,-13.51 -29.83,-20.34 -48.99,-20.34 -18.85,0 -35.03,6.83 -48.68,20.34 -13.51,13.48 -20.16,29.83 -20.16,48.99 0,19.16 6.65,35.51 20.16,48.82 13.65,13.34 30.18,20.03 49.65,20.03 18.5,0 34.51,-6.86 48.02,-20.34 13.48,-13.51 20.34,-29.69 20.34,-48.51zm-177.19 0c0,-19.16 -6.83,-35.51 -20.34,-48.99 -13.48,-13.51 -29.66,-20.34 -48.65,-20.34 -19.16,0 -35.51,6.83 -48.99,20.34 -13.51,13.48 -20.34,29.83 -20.34,48.99 0,19.16 6.83,35.51 20.65,48.82 13.69,13.34 30.18,20.03 49.68,20.03 18.64,0 34.47,-6.86 47.81,-20.34 13.34,-13.51 20.16,-29.69 20.16,-48.51zm237.16 -389.16c0,-81.66 -19.33,-146.35 -58.14,-193.85 -38.84,-47.5 -91.68,-71.17 -158.86,-71.17 -68.5,0 -121.82,23.35 -160.31,69.85 -38.49,46.5 -57.69,111.15 -57.69,194.17 0,81.01 19.19,144.65 57.69,190.84 40.68,48.82 95.49,73.14 164.16,73.14 65.83,0 117.84,-23.66 155.98,-70.82 38.18,-47.16 57.17,-111.15 57.17,-192.16zm-134.99 -2.01c0,59 -6.51,101 -19.51,126.15 -12.99,25.19 -34.51,37.84 -64.48,37.84 -28.69,0 -49.34,-12.82 -62.02,-38.49 -12.65,-25.81 -18.99,-67.15 -18.99,-124.49 0,-57.83 6.48,-99.51 19.33,-125.01 12.82,-25.33 33.68,-38.01 62.64,-38.01 29.35,0 50.52,12.68 63.51,38.01 12.99,25.5 19.51,66.84 19.51,124z"
   id="glyph23" />
   <glyph
   unicode="ü"
   horiz-adv-x="537"
   d="M432.16 637.17c0,-19.16 -6.65,-35.51 -20.16,-48.99 -13.65,-13.51 -30,-20.34 -49.16,-20.34 -18.81,0 -34.99,6.83 -48.51,20.34 -13.48,13.48 -20.34,29.83 -20.34,48.99 0,19.16 6.86,35.51 20.34,48.82 13.51,13.34 30,20.03 49.51,20.03 18.5,0 34.51,-6.86 48.16,-20.34 13.51,-13.51 20.16,-29.69 20.16,-48.51zm-177.15 0c0,-19.16 -6.83,-35.51 -20.34,-48.99 -13.51,-13.51 -29.66,-20.34 -48.51,-20.34 -18.99,0 -35.17,6.83 -48.65,20.34 -13.51,13.48 -20.2,29.83 -20.2,48.99 0,19.16 6.69,35.51 20.2,48.82 13.48,13.34 29.97,20.03 49.48,20.03 18.68,0 34.51,-6.86 48.02,-20.34 13.3,-13.51 19.99,-29.69 19.99,-48.51zm229.99 -621.82c0,-4.02 -3.33,-6.69 -9.84,-8.35l-83.99 -18.99c-5.86,-1.35 -9.67,-2.01 -11.16,-2.01 -11.5,0 -21.34,18.33 -29.83,54.99 -40.68,-38.67 -86.86,-58 -138.17,-58 -50.17,0 -87.66,14.34 -112.85,43 -16.32,18.5 -26.51,42.69 -30.66,72.34 -2.32,14 -3.5,40.68 -3.5,80l0 293.15c0,9.67 4.99,15.52 15.18,17.53l92.82 19.99c1.35,0.66 4.02,1 8.35,1 7.14,0 10.67,-5.2 10.67,-15.7l0 -310.17c0,-37.49 3.15,-61.81 9.32,-73.31 9.32,-17.84 26.68,-26.85 51.66,-26.85 26.68,0 54.33,12.02 83.02,36.17l0 351.19c0,9.81 4.99,15.66 15.14,17.67l92.86 19.99 10.15 1c5.86,0 8.84,-5.2 8.84,-15.7l0 -368.17c0,-42.65 6.34,-76.64 18.99,-102 2.01,-2.98 3.01,-5.99 3.01,-8.8z"
   id="glyph24" />
  </font>
  <font
   id="FontID13"
   horiz-adv-x="537"
   font-variant="normal"
   style="fill-rule:nonzero"
   font-style="normal"
   font-weight="400">
	<font-face
   font-family="Officina Sans ITC TT"
   id="font-face24">
		<font-face-src>
			<font-face-name
   name="Officina Sans ITC TT" />
		</font-face-src>
	</font-face>
   <missing-glyph
   id="missing-glyph24"><path
     d="M0 0z"
     id="path24" /></missing-glyph>
   <glyph
   unicode="-"
   horiz-adv-x="351"
   d="M314.84 232.17c0,-9.49 -4.68,-14.17 -14.17,-14.17l-250.02 0c-9.15,0 -13.65,4.68 -13.65,14.17l0 46.67c0,9.49 4.5,14.17 13.65,14.17l250.02 0c9.49,0 14.17,-4.68 14.17,-14.17l0 -46.67z"
   id="glyph25" />
   <glyph
   unicode="."
   horiz-adv-x="295"
   d="M219.18 57.17c0,-19.51 -7,-36.17 -20.86,-50.17 -13.82,-14 -30.32,-21 -49.48,-21 -19.85,0 -36.69,6.83 -50.34,20.51 -13.69,13.65 -20.51,30.49 -20.51,50.65 0,19.51 7,36.17 21,49.65 14,13.51 31.01,20.16 50.83,20.16 18.5,0 34.68,-6.83 48.51,-20.65 13.86,-13.82 20.86,-30.18 20.86,-49.16z"
   id="glyph26" />
   <glyph
   unicode="B"
   horiz-adv-x="556"
   d="M500 189c0,-41.99 -10.32,-78.82 -30.84,-110.35 -20.51,-31.63 -48.68,-53.5 -84.51,-65.48 -24.98,-8.84 -68.33,-13.17 -129.82,-13.17l-145.17 0c-9.15,0 -13.65,4.68 -13.65,14.17l0 657.65c0,9.53 4.5,14.17 13.65,14.17l163.19 0c62.82,0 108.14,-8.97 136.17,-26.82 42.65,-27.68 63.99,-73.49 63.99,-137.17 0,-77.16 -32.67,-131.49 -98.19,-163.16 32.67,-9.01 56.51,-20.68 71.86,-34.68 35.48,-32.85 53.32,-77.99 53.32,-135.16zm-116 324.34c0,38.67 -8.49,66.18 -25.67,82.32 -17.15,16.18 -46.32,24.32 -87.31,24.32l-93.03 0 0 -237.99 72 0c39.01,0 67.53,5.99 85.03,18.19 32.67,22.66 48.99,60.32 48.99,113.16zm26.99 -321.84c0,51.35 -18.99,87.35 -57.17,108.34 -19.16,10.81 -46.5,16.15 -81.98,16.15l-93.86 0 0 -249.98 97.67 0c41.02,0 71.86,8 92.34,24.01 28.69,22.49 43,56.3 43,101.48z"
   id="glyph27" />
   <glyph
   unicode="E"
   horiz-adv-x="462"
   d="M431.99 679.16c0,-2.32 -0.66,-5.34 -1.97,-9.32l-15.18 -44c-2.67,-7.17 -7.66,-10.84 -15.18,-10.84l-221.68 0 0 -226.01 195.86 0c9.49,0 14.14,-4.64 14.14,-14l0 -38.49c0,-9.01 -4.64,-13.51 -14.14,-13.51l-195.86 0 0 -251.99 238.86 0c9.49,0 14.17,-4.5 14.17,-13.65l0 -43.17c0,-9.49 -4.68,-14.17 -14.17,-14.17l-307.19 0c-9.15,0 -13.65,4.68 -13.65,14.17l0 657.65c0,9.53 4.5,14.17 13.65,14.17l308.19 0c9.32,0 14.14,-2.32 14.14,-6.83z"
   id="glyph28" />
   <glyph
   unicode="K"
   horiz-adv-x="518"
   d="M503.67 37c0,-3.67 -2.18,-7 -6.83,-10.32l-45.84 -31.84c-4.02,-2.49 -7,-3.85 -9.35,-3.85 -2.81,0 -6.17,2.36 -9.67,6.83l-254 327.35 0 -311c0,-9.49 -4.64,-14.17 -14.14,-14.17l-54.19 0c-9.15,0 -13.65,4.68 -13.65,14.17l0 657.65c0,9.53 4.5,14.17 13.65,14.17l54.19 0c9.49,0 14.14,-4.64 14.14,-14.17l0 -324.65 256.84 340c4.02,5.16 7.17,7.83 9.84,7.83 2.32,0 5.34,-1.66 9.32,-4.82l37 -25.02c5.16,-3.5 7.83,-7 7.83,-10.15 0,-2.36 -1.66,-5.68 -4.82,-9.84l-235.33 -304.34 240.14 -295.16c3.36,-3.15 4.85,-6.17 4.85,-8.66z"
   id="glyph29" />
   <glyph
   unicode="M"
   horiz-adv-x="667"
   d="M592.99 9.84c0,-6.51 -4.16,-9.84 -12.65,-9.84l-58.17 0c-9.18,0 -13.82,4.33 -14.17,13.17l-15 512.68c0,-5.86 1,11.33 2.84,51.31l1 19.99c-4.5,-31.15 -11.5,-60.67 -21,-88.32l-117.18 -337.99c-2.67,-7.17 -7.52,-10.67 -14.66,-10.67l-29.35 0c-7.52,0 -12.51,3.5 -15,10.67l-112.85 337.99c-8.84,26.33 -15.14,55.82 -18.99,88.32l0 -18.99 1.84 -38.18 0 -18.99 -14.66 -507.83c0,-8.84 -4.33,-13.17 -12.85,-13.17l-54.33 0c-6.34,0 -10.15,0.83 -11.68,2.49 -1.49,1.49 -2.15,4.02 -2.15,7.35l0 4.33 37.66 658.65c0.66,8.84 5.34,13.17 14.17,13.17l59.14 0c7.52,0 12.51,-3.64 15,-11.16l117.84 -344.85c6.86,-19.82 11.68,-40.47 14.17,-61.98 1.35,11.5 5.68,32.15 13.17,61.98l118.84 344.85c2.67,7.52 7.66,11.16 15.18,11.16l62.99 0c8.18,0 12.51,-4.33 13.17,-13.17l37.66 -662.98z"
   id="glyph30" />
   <glyph
   unicode="S"
   horiz-adv-x="481"
   d="M438.99 182.35c0,-58.69 -19.33,-106.02 -58.14,-142.19 -38.67,-36.17 -89.36,-54.15 -151.86,-54.15 -37.49,0 -78.3,7 -122.48,21 -44.35,14 -66.52,26.99 -66.52,39.01 0,1.97 0.69,4.64 2.01,8.32l19.02 47.68c1.32,3.33 3.5,4.99 6.83,4.99 2.98,0 8.66,-2.32 17.15,-6.83 51,-28.17 99.33,-42.17 145,-42.17 36.69,0 66.35,10.32 88.52,31.01 22.31,20.65 33.47,47.99 33.47,81.84 0,30.49 -8.49,55.99 -25.33,76.16 -16.98,20.16 -50.17,44.31 -99.65,72.66 -65.35,37.84 -107.34,67.18 -126.01,88.35 -26.68,30.32 -39.98,67.32 -39.98,110.84 0,53.15 18.33,96.49 54.99,130.31 36.48,33.85 83.85,50.83 141.85,50.83 33.47,0 69.64,-6.31 108.48,-19.16 39.01,-12.82 58.52,-24.5 58.52,-34.99 0,-1.84 -0.69,-4.5 -2.01,-7.66l-18.02 -45.35c-1.66,-3.98 -4.33,-5.82 -7.83,-5.82 -1.32,0 -15.66,6.65 -43,19.99 -30.32,14.69 -62.68,22 -97.15,22 -34.51,0 -61.5,-8.66 -80.83,-26.16 -19.33,-17.32 -29,-41.68 -29,-73 0,-35.65 13.34,-63.99 39.98,-84.82 7.17,-5.68 47.19,-30.52 120.16,-74.84 48.19,-28.52 81.01,-55.33 98.68,-80 22.17,-30.66 33.16,-66.52 33.16,-107.82z"
   id="glyph31" />
   <glyph
   unicode="V"
   horiz-adv-x="481"
   d="M467.67 673l-1 -8.84 -176.84 -652.83c-1.84,-7.48 -7,-11.33 -15,-11.33l-69.81 0c-8.18,0 -13.34,3.67 -15.18,11.16l-173.83 652.17c-1.35,4.85 -2.01,7.35 -2.01,7.66 0,3.36 3.85,6.51 11.68,9.35l59.14 13.65c1.35,0.66 2.84,1 4.85,1 3.67,0 6.34,-3.85 8.32,-11.68l127.02 -529.49c2.84,-12.68 6.51,-31.18 10.67,-55.68l4.33 -23.01c6.34,35.86 11.16,61.5 14.66,76.85l131.35 532.15c1.66,7.17 4.64,10.84 8.84,10.84 3.98,0 6.48,-0.35 7.83,-1l54.15 -12.65c7.17,-2.01 10.84,-4.85 10.84,-8.35z"
   id="glyph32" />
   <glyph
   unicode="W"
   horiz-adv-x="684"
   d="M663.16 671.99c0,-1 -0.31,-2.32 -1,-3.81l0 -4.02 -138.14 -652c-1.66,-8.18 -6.69,-12.16 -15.18,-12.16l-66 0c-8,0 -12.68,3.98 -13.65,12.16l-86.34 552.84 -104.01 -552.84c-1.32,-8.18 -6.17,-12.16 -14.66,-12.16l-61.01 0c-8.49,0 -13.48,3.98 -15.14,12.16l-125.01 653.84c-0.66,3.67 -1,6.17 -1,7.83 0,4.02 3.98,6.69 12.16,8.35l51.83 9.84c3.5,0.66 6.34,0.97 8.35,0.97 3.81,0 6.48,-3.81 7.66,-11.64l86 -494.35c4.16,-23.98 7.17,-65.66 8.84,-125.01 2.01,28.69 5.99,69.36 12.16,122.03l97.19 489.81c1.66,8.18 6.48,12.16 14.66,12.16l53.15 0c8.84,0 13.86,-3.98 15.18,-12.16l82.01 -493.66c3.98,-23.84 7.48,-64.51 10.81,-121.99 0.69,27.65 3.67,68.33 9.35,121.99l91.68 501.18c1.32,7.83 4.33,11.64 8.8,11.64 1.7,0 4.02,-0.31 7.35,-0.97l51.83 -10.67c8,-2.01 12.16,-5.16 12.16,-9.35z"
   id="glyph33" />
   <glyph
   unicode="a"
   horiz-adv-x="462"
   d="M405.65 24.67c0,-2.01 -1.32,-3.5 -3.81,-4.85l-43 -26.82c-2.67,-2.01 -5.16,-3.01 -7.83,-3.01 -12.68,0 -25.36,21 -38.18,63.02 -42.82,-42.03 -90.67,-63.02 -142.99,-63.02 -40.33,0 -72.52,12.33 -96.18,36.83 -23.84,24.67 -35.65,58 -35.65,100.03 0,112.99 88,170.99 263.98,174l0 33.16c0,31.98 -7.17,54.85 -21.31,68.5 -14.17,13.65 -37.7,20.51 -70.68,20.51 -33.16,0 -73,-9.67 -119.15,-29 -2.67,-1.18 -5.02,-1.84 -6.86,-1.84 -3.64,0 -5.99,1.49 -6.83,4.82l-15.18 40.02 -0.97 7.66c0,4.99 8.84,11.33 26.82,18.99 41.33,18.19 85.82,27.34 133.32,27.34 103.84,0 155.85,-46.67 155.85,-140.15l0 -189c0,-55.33 8.84,-99.02 26.68,-131.35 1.32,-2.15 1.97,-4.16 1.97,-5.82zm-103.67 85.16l0 128.99c-124.66,-1 -186.99,-36.31 -186.99,-105.99 0,-23.49 6.83,-42.51 20.51,-57.34 13.65,-14.83 31.32,-22.35 52.66,-22.35 33.33,0 71.17,19.02 113.82,56.68z"
   id="glyph34" />
   <glyph
   unicode="b"
   horiz-adv-x="500"
   d="M450 271.98c0,-190.67 -60.84,-285.98 -182.66,-285.98 -46.32,0 -89.01,16.32 -128.16,49.16 -12.02,-30.18 -22.83,-45.18 -32.36,-45.18 -1.97,0 -4.47,1 -7.83,3.01l-43 26.82c-1.97,1.84 -2.98,3.5 -2.98,4.85 0.31,2.67 1.32,4.99 2.98,7.35 18.68,24.5 28,59.49 28,104.98l0 561.15c0,6.86 3.67,11.02 11.19,12.68l51.66 12.16c0.66,0.66 2.98,1 6.83,1 4.16,0 6.34,-3.67 6.34,-11.16l0 -268c47.33,32.81 91.82,49.16 133.32,49.16 104.5,0 156.68,-74.01 156.68,-222.02zm-82.01 -10.64c0,110.49 -29.83,165.65 -89.32,165.65 -32.5,0 -72.17,-16.32 -118.67,-48.82l0 -285.5c29.66,-25.85 64.34,-38.67 104.01,-38.67 69.33,0 103.98,69.16 103.98,207.33z"
   id="glyph35" />
   <glyph
   unicode="c"
   horiz-adv-x="408"
   d="M398.17 430.15l-1 -6.31 -22 -39.01c-2.49,-4.68 -5.16,-6.83 -7.83,-6.83 -2.84,0 -5.68,1.18 -8.18,3.81 -40.64,30.18 -74.98,45.18 -103.01,45.18 -80.83,0 -121.16,-61.98 -121.16,-185.82 0,-124.84 37.18,-187.17 111.36,-187.17 22.14,0 43,4.47 62.5,13.65 11.33,5.68 29.83,17.32 55.16,35.34 2.98,2.01 5.34,2.98 7.31,2.98 2.67,0 4.85,-1.97 6.86,-5.82l15.14 -38.18c1.66,-4.16 2.53,-7.48 2.84,-10.15 0,-4.5 -5.34,-10.67 -16.01,-18.5 -42.65,-31.49 -89.32,-47.33 -139.66,-47.33 -59.66,0 -106.16,21.48 -139.49,64.34 -33.33,43 -50,102.49 -50,178.64 0,82.01 18.16,146.66 54.5,194.03 36.17,47.33 85.82,70.99 148.67,70.99 44.14,0 84.99,-12.99 121.99,-39.01 14.66,-10.5 22,-18.68 22,-24.84z"
   id="glyph36" />
   <glyph
   unicode="d"
   horiz-adv-x="500"
   d="M448.51 23.66c0,-2.01 -1.84,-3.85 -5.34,-5.82l-45.01 -24.84c-2.01,-2.01 -4.5,-3.01 -7.83,-3.01 -12.02,0 -23.01,20.03 -33.16,59.84 -56.68,-42.48 -106.33,-63.82 -149.02,-63.82 -49.16,0 -87.49,23.01 -115.34,68.84 -27.82,45.8 -41.82,109.31 -41.82,190.32 0,76.68 16.01,137.34 48.16,182 32.01,44.49 75.67,66.84 131,66.84 34.51,0 71.17,-10.67 109.83,-32.01l0 236.16c0,6.17 3.33,10.36 10.19,12.68l51.66 12.16c1.32,0.66 3.5,1 6.34,1 4.47,0 6.83,-3.67 6.83,-11.16l0 -554.85c0,-52.14 8.32,-91.5 25.15,-118.15 5.51,-8.52 8.35,-13.86 8.35,-16.18zm-108.52 88l0 283.49c-37,21.17 -70.82,31.84 -101.48,31.84 -37.35,0 -64.17,-14 -80.69,-41.82 -16.49,-27.86 -24.81,-73.18 -24.81,-136.17 0,-69.02 7.14,-118.84 21.65,-149.33 14.34,-30.52 38.18,-45.67 71.17,-45.67 34.99,0 73,19.16 114.16,57.65z"
   id="glyph37" />
   <glyph
   unicode="e"
   horiz-adv-x="462"
   d="M431.99 241.01c0,-12.02 -3.64,-18.02 -11.16,-18.02l-287.82 0c5.16,-112.67 49.34,-168.98 132.32,-168.98 35.51,0 74.01,11.99 115.65,35.83 3.67,1.97 7,2.98 10.36,2.98 2.32,0 4.5,-1.66 6.83,-4.99l17.98 -39.01c1.35,-2.81 2.01,-5.16 2.01,-6.83 0,-7.31 -11.99,-16.67 -36.17,-27.65 -39.67,-18.85 -80.66,-28.34 -123,-28.34 -63.47,0 -113.99,22.83 -151.65,68.5 -37.49,45.84 -56.34,107.17 -56.34,184.33 0,77.99 17.84,140.01 53.5,186.16 35.83,46.01 83.85,69.02 144.17,69.02 83.67,0 139.84,-40.02 168.18,-120.16 10.15,-28.34 15.14,-72.52 15.14,-132.84zm-81.98 44c-2.36,98.64 -38.01,147.98 -107.34,147.98 -68.84,0 -105.33,-49.34 -109.66,-147.98l217 0z"
   id="glyph38" />
   <glyph
   unicode="f"
   horiz-adv-x="295"
   d="M341.66 688.83c0,-0.66 -0.66,-2.49 -2.01,-5.82l-16.49 -41.02c-1.32,-3.81 -3.81,-5.82 -7.31,-5.82 -2.67,0 -5.86,1 -9.84,3.01 -28.83,13.82 -54.5,20.82 -77.02,20.82 -24.98,0 -42.17,-9.84 -51.14,-29.35 -5.86,-11.64 -8.84,-36.17 -8.84,-73.66l0 -76.99 143.82 0c7.48,0 11.33,-2.36 11.33,-6.83 0,-2.67 -0.35,-4.68 -1,-6.34l-13.17 -40.02c-2.01,-5.82 -6.34,-8.84 -13.17,-8.84l-127.82 0 0 -405.83c0,-6.17 -1,-9.67 -3.01,-10.67 -1.84,-1 -4.5,-1.49 -7.83,-1.49l-53.32 0c-5.02,0 -8,0.83 -9.18,2.67 -1.18,1.84 -1.66,4.99 -1.66,9.49l0 405.83 -66.32 0c-5.86,0 -9.18,1 -10.19,3.01 -1,1.84 -1.49,4.68 -1.49,8.18l0 38.67c0,6.17 1.32,9.81 3.81,11.16 1.35,0.66 4.02,1 7.87,1l66.32 0 0 77.99c0,54.15 8.66,92.68 25.85,115.65 25.15,33.5 62.5,50.34 111.98,50.34 23.35,0 47.5,-3.98 72.52,-11.99 24.81,-7.83 37.32,-15.66 37.32,-23.18z"
   id="glyph39" />
   <glyph
   unicode="g"
   horiz-adv-x="500"
   d="M446.99 461.82c0,-2.15 -1.97,-6.48 -5.82,-12.65 -16.84,-26.33 -25.15,-60.01 -25.15,-101l0 -154.36c0,-47.16 1.66,-104.15 4.99,-170.99 1.32,-26.68 2.01,-45.67 2.01,-57 0,-117.84 -59.18,-176.84 -177.67,-176.84 -53.67,0 -103.67,12.33 -149.85,37.18 -12.16,6.17 -18.16,11.68 -18.16,16.49 0,1 0.66,3.5 2.01,7.35l17.98 40.16c1,3.85 3.01,5.82 5.86,5.82 2.32,0 4.99,-1 7.83,-2.98 47.16,-25.33 90.81,-38.01 131.14,-38.01 43.69,0 73.83,12.16 90.67,36.35 10.19,14 15.18,38.32 15.18,73 0,7 -0.35,24.15 -1,51.49l-1 52.01c-44.49,-36.52 -90.81,-54.85 -139.01,-54.85 -47.64,0 -85.48,19.85 -113.33,59.49 -27.82,39.84 -41.65,93.86 -41.65,162.19 0,82.98 16.49,147.01 49.34,191.98 32.81,44.83 79.48,67.35 140.15,67.35 40.68,0 80.83,-14 120.5,-41.85 12.16,30.52 21.52,45.84 28.34,45.84 2.98,0 5.51,-0.66 7.83,-1.97l46.01 -28.34c1.8,-0.83 2.81,-2.84 2.81,-5.86zm-105.99 -331.99l0 269.84c-37,18.85 -68.01,28.34 -93.34,28.34 -75.84,0 -113.64,-58 -113.64,-174.17 0,-60.84 7,-104.84 20.82,-132.01 14,-27.16 36.66,-40.81 68.15,-40.81 33.68,0 73,16.32 118.01,48.82z"
   id="glyph40" />
   <glyph
   unicode="h"
   horiz-adv-x="518"
   d="M436.01 12.16c0,-6.17 -1,-9.67 -3.01,-10.67 -1.84,-1 -4.64,-1.49 -8.14,-1.49l-52.7 0c-4.82,0 -7.97,0.83 -9.15,2.67 -1.35,1.84 -2.01,4.99 -2.01,9.49l0 332.17c0,31.18 -4.99,52.84 -14.83,65.17 -10.01,12.33 -28,18.5 -54.15,18.5 -36.83,0 -80.83,-21 -132.01,-62.85l0 -352.99c0,-6.17 -1.35,-9.84 -3.85,-11.16 -1.32,-0.66 -3.81,-1 -7.31,-1l-52.66 0c-4.85,0 -8,0.83 -9.18,2.67 -1.32,1.84 -2.01,4.99 -2.01,9.49l0 685.99c0,6.17 3.33,10.36 10.19,12.68l51.66 12.16c0.66,0.66 2.98,1 6.83,1 4.16,0 6.34,-3.67 6.34,-11.16l0 -284.66c48.51,43.83 100.17,65.83 154.84,65.83 53.5,0 89.49,-19.51 108.48,-58.52 8.52,-17.98 12.68,-48.82 12.68,-92.82l0 -330.5z"
   id="glyph41" />
   <glyph
   unicode="i"
   horiz-adv-x="258"
   d="M191.01 658.17c0,-16.84 -5.86,-31.32 -17.5,-43.34 -11.85,-11.81 -26.02,-17.81 -42.51,-17.81 -17.01,0 -31.32,5.82 -43.17,17.67 -11.81,11.64 -17.84,26.33 -17.84,43.48 0,16.67 6.03,30.84 18.02,42.51 12.16,11.5 26.68,17.32 44,17.32 16.15,0 30.14,-5.82 41.65,-17.67 11.5,-11.68 17.36,-25.85 17.36,-42.17zm-15 -646.01c0,-6.17 -0.83,-9.67 -2.67,-10.67 -1.84,-1 -4.5,-1.49 -8.18,-1.49l-53.32 0c-5.02,0 -8,0.83 -9.18,2.67 -1.18,1.84 -1.66,4.99 -1.66,9.49l0 405.83 -79.83 0c-5.82,0 -9.32,1 -10.5,3.01 -1.18,1.84 -1.66,4.68 -1.66,8.18l0 38.67c0,6.17 1.32,9.81 3.81,11.16 1.66,0.66 4.5,1 8.35,1l144.17 0c4.82,0 7.83,-0.83 9.01,-2.67 1.14,-1.84 1.66,-5.02 1.66,-9.49l0 -455.69z"
   id="glyph42" />
   <glyph
   unicode="k"
   horiz-adv-x="443"
   d="M429.18 36c0,-2.01 -1.66,-4.82 -5.34,-8.32l-41.02 -30.84c-3.33,-2.53 -5.82,-3.85 -7.83,-3.85 -1.32,0 -3.33,1.32 -5.82,3.85l-209.17 250.16 0 -234.84c0,-6.17 -1.35,-9.84 -3.85,-11.16 -1.32,-0.66 -3.81,-1 -7.31,-1l-52.66 0c-4.85,0 -8,0.83 -9.18,2.67 -1.32,1.84 -2.01,4.99 -2.01,9.49l0 685.99c0,6.17 3.33,10.36 10.19,12.68l51.66 12.16 6.83 1c4.16,0 6.34,-3.67 6.34,-11.16l0 -453.02 200.82 225.83c3.5,4.19 7,6.34 10.36,6.34 2.49,0 5.47,-1.49 8.66,-4.33l38.15 -25.02c3.36,-3.15 4.85,-6.13 4.85,-8.66 0,-2.67 -1.49,-5.82 -4.85,-9.32l-170.81 -185.99 178.64 -214.85c2.36,-2.01 3.36,-4.68 3.36,-7.83z"
   id="glyph43" />
   <glyph
   unicode="l"
   horiz-adv-x="258"
   d="M272.85 14c0,-5.16 -9.53,-10.5 -28.69,-16.01 -19.33,-5.34 -38.01,-8 -56.16,-8 -58,0 -91.99,23.35 -102.18,69.85 -3.15,15.31 -4.82,56.34 -4.82,123l0 516.32c0,6.86 3.67,10.67 10.81,11.68l51.52 12.16c0.49,0.66 2.84,1 6.83,1 3.85,0 5.82,-3.67 5.82,-11.16l0 -530.49c0,-51.87 0.87,-82.53 2.53,-92.34 3.15,-25.36 16.8,-38.01 40.81,-38.01 14,0 29,3.98 44.83,11.99 3.85,1.35 6.51,2.01 7.83,2.01 2.18,0 4.5,-2.32 6.83,-7l12.2 -37.18c1.14,-4.16 1.84,-6.83 1.84,-7.83z"
   id="glyph44" />
   <glyph
   unicode="m"
   horiz-adv-x="722"
   d="M641.02 12.16c0,-6.17 -1,-9.67 -3.19,-10.67 -2.15,-1 -5.16,-1.49 -9.01,-1.49l-50.65 0c-6.17,0 -9.84,1.32 -11.16,3.85 -0.66,1.66 -1,4.5 -1,8.32l0 342.84c0,48.68 -21.34,73 -63.99,73 -28.34,0 -62.33,-13.34 -102,-40.02l0 -375.82c0,-6.17 -1,-9.67 -3.01,-10.67 -1.84,-1 -4.5,-1.49 -7.83,-1.49l-52.32 0c-5.02,0 -8,0.83 -9.18,2.67 -1.18,1.84 -1.66,4.99 -1.66,9.49l0 341.83c0,49.34 -21.34,74.01 -63.99,74.01 -29.83,0 -63.16,-14.34 -99.99,-42.82l0 -373.02c0,-6.17 -1,-9.67 -3.19,-10.67 -2.15,-1 -5.16,-1.49 -9.01,-1.49l-50.65 0c-6.17,0 -9.67,1.32 -10.67,3.85 -1,1.66 -1.49,4.5 -1.49,8.32l0 358.85c0,28 -5.99,55.99 -18.02,83.81 -0.66,0.69 -0.97,2.36 -0.97,5.02 0,2.81 1.66,4.82 4.82,5.82l40.02 22.83c3.64,2.32 6.65,3.5 9.32,3.5 10.15,0 19.68,-18.99 28.83,-57 50.34,39.33 97.19,59 140.01,59 46.5,0 78.17,-19.68 94.66,-59 55.33,39.33 104.01,59 146.01,59 43.66,0 74.01,-14.66 91.33,-44 11.99,-20.51 18.02,-52.84 18.02,-97.01l0 -340.83z"
   id="glyph45" />
   <glyph
   unicode="n"
   horiz-adv-x="518"
   d="M437.01 12.16c0,-6.17 -1,-9.67 -3.01,-10.67 -1.84,-1 -4.68,-1.49 -8.18,-1.49l-52.66 0c-4.82,0 -8,0.83 -9.15,2.67 -1.35,1.84 -2.01,4.99 -2.01,9.49l0 333c0,55.16 -22,82.84 -66,82.84 -42.34,0 -86.34,-21 -132.01,-62.85l0 -352.99c0,-6.17 -0.97,-9.67 -2.98,-10.67 -1.84,-1 -4.68,-1.49 -8.18,-1.49l-52.66 0c-4.82,0 -8,0.83 -9.18,2.67 -1.32,1.84 -1.97,4.99 -1.97,9.49l0 342.67c0,36.52 -6.34,68.5 -19.02,96.18 -1,2.67 -1.66,4.5 -1.97,5.82 0,3.01 1.66,4.85 4.82,5.82l45.49 25.85c3.19,2.32 5.86,3.5 7.69,3.5 12.82,0 22.97,-22 30.84,-66.18 56.65,45.53 110.32,68.19 160.97,68.19 49.51,0 83.5,-16.18 102.18,-48.33 11.33,-19.16 17.01,-52.66 17.01,-100.51l0 -333z"
   id="glyph46" />
   <glyph
   unicode="o"
   horiz-adv-x="500"
   d="M450 243.16c0,-81.01 -18.16,-144.17 -54.33,-189.31 -36.17,-45.18 -86.52,-67.84 -150.99,-67.84 -61.36,0 -108.86,22.17 -142.85,66.32 -33.82,44.35 -50.83,106.19 -50.83,185.5 0,81.01 18.16,144 54.33,188.83 36.17,44.83 86.52,67.35 150.99,67.35 60.67,0 108.17,-22.17 142.33,-66.66 34.16,-44.35 51.35,-105.85 51.35,-184.19zm-82.01 1c0,124.49 -39.5,186.85 -118.49,186.85 -77.68,0 -116.49,-61.01 -116.49,-183.01 0,-68.84 10.32,-120.68 30.97,-155.19 17.5,-29.14 46.67,-43.83 87.52,-43.83 39.15,0 67.32,14 84.51,41.99 21.31,34.51 31.98,85.51 31.98,153.18z"
   id="glyph47" />
   <glyph
   unicode="p"
   horiz-adv-x="500"
   d="M450 249.98c0,-81.98 -14.83,-146.49 -44.49,-193.47 -29.87,-47.02 -70.33,-70.51 -122.03,-70.51 -37.49,0 -76.99,14.66 -118.49,43.83l0 -213.98c0,-7.17 -2.98,-11.36 -9.15,-12.68l-52.66 -14.17c-2.36,-0.66 -4.19,-1 -5.86,-1 -4.82,0 -7.31,3.5 -7.31,10.67l0 543c0,43.66 -6.69,76.02 -20.16,97.19 -6.51,10.81 -9.84,17.15 -9.84,19.16 0,2.15 1,3.81 2.98,4.82l43 30.18c2.01,2.01 4.5,3.01 7.83,3.01 10.84,0 23.18,-20.03 37.18,-60.01 50.52,38.67 98.68,58 144.34,58 58.17,0 98.5,-23.18 121.34,-69.33 22.17,-44.18 33.33,-102.52 33.33,-174.69zm-82.01 -1.97c0,57.17 -4.99,99.51 -15.18,127.16 -12.3,34.51 -36.31,51.83 -72.14,51.83 -29.69,0 -68.19,-16.32 -115.69,-48.82l0 -282.17c41.68,-28 77.99,-41.99 108.83,-41.99 34.16,0 58.35,14.83 72.69,44.49 14.31,29.66 21.48,79.48 21.48,149.5z"
   id="glyph48" />
   <glyph
   unicode="r"
   horiz-adv-x="332"
   d="M333.17 478c0,-1.66 -0.66,-3.98 -2.01,-6.83l-24.01 -56.16c-0.97,-1.84 -2.67,-2.84 -5.3,-2.84 -0.35,0 -5.86,1.66 -16.7,4.82 -6.83,1.35 -12.47,2.01 -16.98,2.01 -22.17,0 -55.16,-25.33 -99.16,-76.16l0 -330.68c0,-6.17 -1,-9.67 -3.01,-10.67 -1.84,-1 -4.5,-1.49 -7.83,-1.49l-53.32 0c-5.02,0 -8,0.83 -9.18,2.67 -1.18,1.84 -1.66,4.99 -1.66,9.49l0 299.84c0,34.65 -0.83,57.52 -2.32,68.33 -3.01,22.66 -10.19,44.52 -21.83,65.35 -2.53,4.82 -3.85,8.32 -3.85,10.32 0,3.85 1.66,6.83 4.82,8.66l42.03 26.33c3.33,2.01 5.99,3.01 8.32,3.01 5.82,0 12.85,-8.66 20.82,-26.02 7.83,-17.5 13.69,-36.31 17.36,-56.82 31.15,34.99 54.33,57.65 69.5,67.67 15.14,10.19 33.33,15.18 54.5,15.18 11.33,0 22.49,-1.84 33.33,-5.34 10.98,-3.67 16.49,-7.17 16.49,-10.67z"
   id="glyph49" />
   <glyph
   unicode="s"
   horiz-adv-x="389"
   d="M349.01 127.99c0,-42.3 -14.66,-76.5 -44,-102.66 -29.17,-26.16 -67.67,-39.33 -115.17,-39.33 -54.33,0 -103.67,12.99 -148.01,39.01 -3.81,2.32 -5.82,5.3 -5.82,9.32 0,0.83 0.35,2.15 1,3.85l18.99 43.83c1,2.67 3.01,3.98 5.86,3.98 1.32,0 3.98,-0.66 7.83,-2.01 45.67,-22.66 86.31,-33.99 122.17,-33.99 24.15,0 43.48,6.69 58.14,19.99 14.69,13.34 22,30.84 22,52.18 0,31.01 -21.31,56.34 -63.99,76.16 -55.82,25.67 -93.17,46.19 -111.67,61.5 -30.84,25.33 -46.32,57 -46.32,95.18 0,40.68 14.17,74.01 42.69,99.99 28.48,26.02 65,39.01 109.49,39.01 25.99,0 53.98,-4.85 83.85,-14.66 29.97,-9.67 44.97,-18.85 44.97,-27.34 0,-1.84 -0.66,-4.33 -1.97,-7.17l-18.02 -36.66c-2.49,-4.19 -5.65,-6.34 -9.15,-6.34 0,0 -2.67,0.66 -7.87,1.97 -36.31,17.53 -67.32,26.19 -93.17,26.19 -50.48,0 -75.81,-22.52 -75.81,-67.35 0,-20.16 6.65,-36.48 19.99,-48.82 9.01,-8.35 43.83,-27.51 104.32,-57 37,-18.02 62.85,-36.35 77.51,-55.51 14.83,-18.99 22.17,-43.52 22.17,-73.35z"
   id="glyph50" />
   <glyph
   unicode="t"
   horiz-adv-x="332"
   d="M343.01 29.66c0,-7.83 -15.18,-16.32 -45.67,-25.67 -30.52,-9.32 -58.52,-14 -84.33,-14 -62.5,0 -101,24.36 -115.69,72.83 -4.16,13.69 -6.34,38.01 -6.34,73.35l0 281.82 -70.82 0c-8.18,0 -12.16,3.67 -12.16,11.19l0 38.67c0,6.17 1.32,9.81 3.85,11.16 1.66,0.66 4.47,1 8.32,1l70.82 0 0 137.17c0,6.83 3.36,11.16 10.19,12.65l51.66 14.17c3.67,1.35 5.68,2.01 6.34,2.01 4.5,0 6.83,-4.02 6.83,-12.16l0 -153.84 150.16 0c6.17,0 9.18,-2.36 9.18,-6.83 0,-1.7 -0.35,-3.67 -1,-6.34l-11.16 -38.49c-2.01,-6.86 -6.69,-10.36 -14.17,-10.36l-133.01 0 0 -281.17c0,-31.81 3.33,-52.14 9.84,-60.81 10.32,-13.34 27.16,-20.03 50.34,-20.03 20.82,0 50.83,8 89.81,24.18 3.36,1.14 5.86,1.84 7.52,1.84 3.5,0 5.82,-2.01 6.83,-5.86l10.67 -41.16c1.32,-2.84 2.01,-4.68 2.01,-5.34z"
   id="glyph51" />
   <glyph
   unicode="u"
   horiz-adv-x="500"
   d="M451.01 23.01c-0.66,-0.83 -2.18,-2.49 -4.5,-4.85l-44.83 -29.14c-3.01,-2.01 -5.34,-3.01 -6.83,-3.01 -10.84,0 -22.52,19.99 -35.17,59.84 -51.83,-39.84 -101.83,-59.84 -150.02,-59.84 -91.16,0 -136.65,44.66 -136.65,134.16l0 344.5c0,6.83 3.33,11.33 9.84,13.17l52.01 14.17c2.49,0.66 4.64,1 6.31,1 4.5,0 6.86,-3.67 6.86,-11.16l0 -312.18c0,-43.83 5.16,-74.18 15.66,-90.85 10.32,-16.49 29.17,-24.81 56.48,-24.81 43.52,0 85.51,16.98 125.84,50.83l0 359.82c0,7.17 3.19,11.5 9.67,13.17l52.84 14.17c2.18,0.66 4.16,1 5.68,1 4.5,0 6.83,-3.67 6.83,-11.16l0 -349.01c0,-43.17 9.01,-77.51 26.99,-102.83 2.01,-2.67 3.01,-4.99 3.01,-7z"
   id="glyph52" />
   <glyph
   unicode="w"
   horiz-adv-x="610"
   d="M600.17 469.51c0,-1.35 -0.35,-2.84 -1,-4.5l-1 -2.84 -132.32 -459.32c-1.84,-6.51 -5.82,-9.84 -11.68,-9.84l-38.98 0c-6.17,0 -10.36,3.33 -12.33,9.84l-78.51 303.34c-3.33,11.64 -5.99,25.99 -8.35,43l-1.97 14.66 -2.84 21c-3.33,-30 -8.35,-55.82 -15.18,-77.68l-93.83 -305.31c-1.84,-5.82 -6.34,-8.84 -13.17,-8.84l-37 0c-6.17,0 -10.15,3.33 -11.85,9.84l-115.13 458.84c-0.69,2.67 -1,4.5 -1,5.82 0,4.68 3.15,7.35 9.32,8.35l50.65 12.65c2.67,1 4.68,1.49 6.03,1.49 3.81,0 6.65,-3.33 8.14,-10.15l70.85 -347c0.66,-2.67 2.98,-15.52 6.83,-38.67 1,5.99 5.34,24.15 13.17,54.81l95.32 324.2c1.52,5.82 5.51,8.8 11.68,8.8l40.02 0c6.48,0 10.64,-2.98 12.16,-8.8l89.01 -376.03 2.81 13.69 4.85 25.5 84.99 343.84c1.66,5.82 4.5,8.84 8.35,8.84 1.66,0 3.5,-0.35 5.82,-1l46.01 -10.67c6.83,-1.66 10.15,-4.33 10.15,-7.83z"
   id="glyph53" />
   <glyph
   unicode="z"
   horiz-adv-x="407"
   d="M389.82 60.01c0,-2.36 -0.49,-5.02 -1.84,-8.35l-19.16 -42.65c-1.84,-5.99 -6.34,-9.01 -13.17,-9.01l-312 0c-7.83,0 -11.64,3.98 -11.64,12.16l0 39.67 253 365.15 -221.33 0c-7.17,0 -10.67,3.67 -10.67,11.19l0 41.16c0,7.17 3.5,10.67 10.67,10.67l304.31 0c4.85,0 7.83,-0.83 9.01,-2.49 1.18,-1.52 1.66,-4.33 1.66,-8.18l0 -42.51 -249.01 -360.82 249.01 0c4.85,0 8,-0.35 9.32,-1.18 1.35,-0.83 1.84,-2.49 1.84,-4.82z"
   id="glyph54" />
   <glyph
   unicode="ä"
   horiz-adv-x="462"
   d="M373.99 629.82c0,-14.31 -5.34,-26.64 -15.97,-37 -10.5,-10.5 -23.35,-15.66 -38.35,-15.66 -14.31,0 -26.64,5.16 -37,15.66 -10.5,10.36 -15.66,23.01 -15.66,38.01 0,14.66 5.16,27.16 15.66,37.49 10.36,10.5 23.01,15.7 38.01,15.7 14.66,0 27.16,-5.34 37.66,-15.83 10.32,-10.67 15.66,-23.35 15.66,-38.35zm-197.32 0c0,-14.31 -5.16,-26.64 -15.66,-37 -10.32,-10.5 -22.66,-15.66 -37,-15.66 -15,0 -27.82,5.16 -38.32,15.66 -10.67,10.36 -16.01,23.01 -16.01,38.01 0,14.66 5.34,27.16 16.01,37.49 10.5,10.5 23.32,15.7 38.32,15.7 14.66,0 26.99,-5.34 37.32,-15.83 10.19,-10.67 15.35,-23.35 15.35,-38.35zm228.99 -605.16c0,-2.01 -1.32,-3.5 -3.81,-4.85l-43 -26.82c-2.67,-2.01 -5.16,-3.01 -7.83,-3.01 -12.68,0 -25.36,21 -38.18,63.02 -42.82,-42.03 -90.67,-63.02 -142.99,-63.02 -40.33,0 -72.52,12.33 -96.18,36.83 -23.84,24.67 -35.65,58 -35.65,100.03 0,112.99 88,170.99 263.98,174l0 33.16c0,31.98 -7.17,54.85 -21.31,68.5 -14.17,13.65 -37.7,20.51 -70.68,20.51 -33.16,0 -73,-9.67 -119.15,-29 -2.67,-1.18 -5.02,-1.84 -6.86,-1.84 -3.64,0 -5.99,1.49 -6.83,4.82l-15.18 40.02 -0.97 7.66c0,4.99 8.84,11.33 26.82,18.99 41.33,18.19 85.82,27.34 133.32,27.34 103.84,0 155.85,-46.67 155.85,-140.15l0 -189c0,-55.33 8.84,-99.02 26.68,-131.35 1.32,-2.15 1.97,-4.16 1.97,-5.82zm-103.67 85.16l0 128.99c-124.66,-1 -186.99,-36.31 -186.99,-105.99 0,-23.49 6.83,-42.51 20.51,-57.34 13.65,-14.83 31.32,-22.35 52.66,-22.35 33.33,0 71.17,19.02 113.82,56.68z"
   id="glyph55" />
   <glyph
   unicode="“"
   horiz-adv-x="408"
   d="M360.99 695l-2.01 -7.83 -58.14 -200.33c-1.84,-7.17 -6.86,-10.84 -14.69,-10.84l-80.97 0c-8.84,0 -13.17,2.36 -13.17,6.86 0,2.98 0.97,6.31 2.98,10.32l116.17 212.01c2.49,5.82 5.51,8.8 8.84,8.8 1.49,0 4.33,-0.66 8.18,-1.97l22 -7.83c7.14,-2.49 10.81,-5.68 10.81,-9.18zm-166 0c0,-0.66 -0.35,-2.01 -1,-3.98l-1 -3.85 -59.14 -200.33c-1.84,-7.17 -6.86,-10.84 -14.69,-10.84l-80 0c-9.49,0 -14.14,2.36 -14.14,6.86 0,3.33 1.32,6.65 3.81,10.32l115.34 212.01c3.15,5.82 6.51,8.8 9.67,8.8 1.66,0 4.5,-0.66 8.32,-1.97l22 -7.83c7.17,-2.49 10.84,-5.68 10.84,-9.18z"
   id="glyph56" />
   <glyph
   unicode="„"
   horiz-adv-x="408"
   d="M382.99 107.17c0,-0.66 -1,-3.85 -2.98,-9.84l-115.69 -212.49c-3.33,-5.82 -6.34,-8.84 -9.32,-8.84 -1.35,0 -3.85,0.66 -7.83,2.01l-22.83 8.32c-6.86,2.18 -10.36,5.16 -10.36,8.66 0.69,3.67 1.35,6.34 2.01,7.87l58 200.47c2.36,7.17 7.35,10.67 15.18,10.67l81.18 0c8.32,0 12.65,-2.32 12.65,-6.83zm-166 0c0,-1.66 -1.32,-4.82 -3.98,-9.84l-114.68 -212.49c-3.33,-5.82 -6.65,-8.84 -10.32,-8.84 -1.66,0 -4.16,0.66 -7.83,2.01l-22 8.32c-7.52,2.53 -11.16,5.51 -11.16,8.66 0,0.35 0.66,3.01 1.97,7.87l58 200.47c2.36,7.17 7.35,10.67 15.18,10.67l81.18 0c8.97,0 13.65,-2.32 13.65,-6.83z"
   id="glyph57" />
  </font>
  <font
   id="FontID1"
   horiz-adv-x="556"
   font-variant="normal"
   style="fill-rule:nonzero"
   font-style="normal"
   font-weight="700">
	<font-face
   font-family="Officina Sans OS ITC TT"
   id="font-face57">
		<font-face-src>
			<font-face-name
   name="Officina Sans OS ITC TT Fett" />
		</font-face-src>
	</font-face>
   <missing-glyph
   id="missing-glyph57"><path
     d="M0 0z"
     id="path57" /></missing-glyph>
   <glyph
   unicode="-"
   horiz-adv-x="370"
   d="M330.99 215.99c0,-8.84 -1.14,-14.31 -3.5,-16.67 -2.15,-2.15 -8,-3.33 -17.5,-3.33l-249.98 0c-9.49,0 -15.35,1.18 -17.5,3.67 -2.36,2.49 -3.5,7.83 -3.5,16.32l0 79c0,9.18 1.14,14.69 3.5,16.84 2.15,2.18 8,3.19 17.5,3.19l249.98 0c11.68,0 18.33,-3.01 19.99,-8.84 0.69,-2.18 1,-6.03 1,-11.19l0 -79z"
   id="glyph58" />
   <glyph
   unicode="1"
   horiz-adv-x="537"
   d="M460.02 21c0,-9.32 -1.18,-15.31 -3.36,-17.5 -2.32,-2.32 -8.14,-3.5 -17.67,-3.5l-292.98 0c-9.01,0 -14.83,1.18 -17.32,3.5 -2.36,2.18 -3.67,8.18 -3.67,17.5l0 51c0,11.99 3.15,18.68 9.32,19.99 2.49,0.69 6.51,1 11.68,1l95 0 0 348 -80 -44.49c-5.16,-3.01 -8.84,-4.33 -11.19,-4.33 -4.16,0 -8.66,4.16 -13.65,12.65l-26.33 45.35c-2.49,4.5 -3.85,8.84 -3.85,12.65 0,5.51 3.85,10.84 11.33,16.18l160 116 69.68 0c11.68,0 18.33,-3.01 19.99,-8.84 0.69,-2.49 1,-6.34 1,-11.16l0 -482.02 71.17 0c11.68,0 18.33,-2.98 19.85,-8.84 0.66,-2.49 1,-6.65 1,-12.16l0 -51z"
   id="glyph59" />
   <glyph
   unicode="2"
   horiz-adv-x="537"
   d="M471 435.35c0,-47.02 -13.34,-87 -39.98,-120.19 -12.33,-15 -24.67,-27.16 -37,-36.66 -12.33,-9.49 -40.02,-27.16 -83.02,-53.15 -40.68,-24.84 -67.15,-44.35 -79.65,-58.69 -12.68,-14.31 -19.68,-32.5 -21.34,-54.64l234.01 0c11.99,0 18.64,-3.01 19.99,-8.84 0.66,-2.53 1,-6.69 1,-12.2l0 -69.99c0,-11.68 -3.01,-18.33 -8.84,-19.99 -2.67,-0.66 -6.69,-1 -12.16,-1l-360.02 0c-9.32,0 -14.14,4.68 -14.14,14.17l0 7.83c0,62.82 9.15,111.15 27.3,145 25.5,47.85 75.36,95.18 149.85,142.16 45.01,28.34 72,47.68 81.01,58 14.66,17.01 22,37.35 22,61.19 0,49.82 -28,74.67 -84.02,74.67 -41.47,0 -74.32,-28.69 -97.98,-86.03 -4.16,-10.15 -9.35,-15.14 -15.18,-15.14 -2.01,0 -5.51,1 -10.67,2.98l-63.99 24.36c-8.18,2.98 -12.16,7.83 -12.16,14.66 0,11.5 5.51,28 16.67,49.65 10.98,21.69 23.18,40.19 36.48,55.51 37.84,43.34 91.33,65 160.52,65 57.65,0 103.84,-16.32 138.83,-48.82 34.99,-32.5 52.49,-75.84 52.49,-129.82z"
   id="glyph60" />
   <glyph
   unicode="3"
   horiz-adv-x="537"
   d="M465.01 117.18c0,-62.5 -23.66,-113.68 -70.85,-153.35 -42.3,-35.17 -94.97,-52.84 -158.17,-52.84 -57.65,0 -111.15,11.02 -160.66,32.67 -19.51,8.84 -29.31,16.18 -29.31,22 0,2.01 0.66,5.51 1.97,10.32l20.03 71.86c1.66,6.17 5.34,9.32 11.16,9.32 2.32,0 5.51,-1 9.84,-3.01 51,-24.81 96.49,-37.14 136.17,-37.14 73.83,0 110.84,35.65 110.84,106.99 0,66.66 -42.03,99.99 -126.01,99.99l-29.66 0c-12.16,0 -18.85,3.01 -19.99,8.84 -0.69,2.49 -1,6.65 -1,12.16l0 66c0,11.68 2.81,18.33 8.66,19.99 2.67,0.69 6.83,1 12.33,1l31.67 0c33.33,0 57.65,5.68 73.31,17.19 23.18,17.15 34.68,42.82 34.68,76.64 0,25.19 -7.52,45.35 -22.52,60.53 -14.97,15.14 -34.82,22.66 -59.49,22.66 -32.33,0 -62.16,-17.01 -89.98,-51 -5.51,-6.51 -9.84,-9.67 -13.17,-9.67 -1.84,0 -4.85,1.14 -8.7,3.81l-55.33 49.86c-3.15,2.98 -4.82,6.34 -4.82,10.32 0,7.17 7,18.33 21,33.68 40.99,45.32 93.83,67.98 158.17,67.98 59,0 106.51,-16.32 142.68,-49.16 36.14,-32.67 54.15,-75.5 54.15,-128.65 0,-68.67 -31.49,-118.36 -94.66,-149.02 78.48,-25.33 117.66,-81.98 117.66,-169.98z"
   id="glyph61" />
   <glyph
   unicode="4"
   horiz-adv-x="537"
   d="M500.35 63.99c0,-11.68 -3.19,-18.33 -9.35,-19.99 -2.67,-0.66 -6.48,-1 -11.81,-1l-57.17 0 0 -128.99c0,-9.49 -1.18,-15.35 -3.33,-17.5 -2.36,-2.36 -8.18,-3.5 -17.67,-3.5l-83.02 0c-11.68,0 -18.33,3.15 -19.99,9.32 -0.66,2.49 -1,6.51 -1,11.68l0 128.99 -244.99 0c-9.49,0 -15.35,1 -17.67,3.15 -2.18,2.18 -3.33,7.69 -3.33,16.84l0 105.02 248.98 416.81c5.16,8.84 10.01,13.17 14.17,13.17 2.67,0 7,-1.32 13.17,-3.81l60.18 -26.51c9.67,-4.16 14.48,-8.35 14.48,-12.68 0,-3.15 -1.84,-8.32 -5.82,-15.14l-232.83 -395.85 155.67 0 12.99 161.18c0.66,8.84 2.15,14.31 4.68,16.67 2.49,2.15 7.83,3.33 16.32,3.33l68.01 0c11.99,0 18.64,-3.01 19.99,-9.18 0.66,-2.67 1,-6.65 1,-11.81l0 -163.16 57.17 0c9.49,0 15.31,-1.35 17.67,-3.85 2.32,-2.67 3.5,-9.32 3.5,-19.99l0 -53.18z"
   id="glyph62" />
   <glyph
   unicode=":"
   horiz-adv-x="295"
   d="M242.98 409.33c0,-26.82 -9.15,-49.34 -27.65,-67.67 -18.33,-18.5 -40.85,-27.65 -67.49,-27.65 -26.51,0 -48.85,9.32 -67.18,27.82 -18.5,18.5 -27.65,41.33 -27.65,68.33 0,26.16 9.32,48.16 28.17,66.52 18.64,18.16 41.47,27.3 68.5,27.3 25.81,0 47.64,-9.32 66,-27.82 18.16,-18.5 27.3,-40.81 27.3,-66.84zm0 -329.98c0,-26.85 -9.15,-49.34 -27.65,-67.67 -18.33,-18.5 -40.85,-27.68 -67.49,-27.68 -26.51,0 -48.85,9.35 -67.18,27.86 -18.5,18.47 -27.65,41.3 -27.65,68.33 0,26.16 9.32,48.16 28.17,66.49 18.64,18.16 41.47,27.34 68.5,27.34 25.81,0 47.64,-9.32 66,-27.82 18.16,-18.5 27.3,-40.85 27.3,-66.84z"
   id="glyph63" />
   <glyph
   unicode="K"
   horiz-adv-x="574"
   d="M582.01 45.01c0,-4.68 -4.68,-9.35 -14.17,-14.17l-86 -44c-5.16,-2.49 -9.84,-3.85 -14.17,-3.85 -3.5,0 -7.66,3.5 -12.68,10.19l-233.01 308.68 0 -280.85c0,-11.68 -3.15,-18.33 -9.32,-19.99 -2.49,-0.66 -6.51,-1 -11.68,-1l-95 0c-9.49,0 -15.31,1.18 -17.67,3.33 -2.15,2.36 -3.33,8.18 -3.33,17.67l0 644c0,9.49 1.18,15.35 3.33,17.67 2.36,2.18 8.18,3.33 17.67,3.33l95 0c11.68,0 18.33,-3.15 20.03,-9.32 0.66,-2.49 0.97,-6.51 0.97,-11.68l0 -281.17 217 299.49c5.2,7.17 10.19,10.67 15,10.67 3.36,0 7.52,-1.32 12.85,-3.81l73.14 -37.18c9.53,-4.5 14.17,-9.32 14.17,-14.66 0,-3.19 -2.32,-7.87 -7.31,-14l-207.02 -273.68 234.5 -290.66c5.2,-5.51 7.69,-10.5 7.69,-15z"
   id="glyph64" />
   <glyph
   unicode="S"
   horiz-adv-x="482"
   d="M451.98 194.02c0,-61.86 -20.14,-112.02 -60.33,-150.37 -40.14,-38.48 -92.67,-57.65 -157.8,-57.65 -40.33,0 -85.19,7.16 -134.66,21.48 -49.52,14.37 -74.19,27.16 -74.19,38.53 0,1.99 0.69,5.64 1.99,11.13l33.17 85.88c2.36,5.96 5.17,8.82 8.87,8.82 2.17,0 5.31,-1.02 9.15,-2.86 59.68,-32.66 110.69,-48.97 153,-48.97 59.82,0 89.85,27.67 89.85,82.97 0,25.04 -7.02,45.36 -21.02,61.02 -13.35,14.64 -51.32,37.65 -113.83,68.83 -59.82,29.98 -100.85,58.67 -123.02,86.16 -22.13,27.49 -33.17,63.33 -33.17,107.68 0,59.18 19.86,106.34 59.36,141.17 39.5,34.83 92.81,52.16 159.84,52.16 39.31,0 80.98,-7.16 125.01,-21.67 43.79,-14.51 65.83,-28.18 65.83,-41.16 0,-1.34 -1.02,-4.16 -2.86,-8.36l-36.17 -75.67c-2.31,-4.8 -5.31,-7.3 -8.82,-7.3 -2.31,0 -15.34,6.14 -39.17,18.15 -34.14,17.32 -67.49,26.01 -100.15,26.01 -27.99,0 -50.17,-6.51 -66.34,-19.49 -16.31,-13.03 -24.48,-30.86 -24.48,-53.17 0,-25.18 12.98,-46.2 38.99,-63.01 9.52,-6.33 44.49,-24.67 105,-55.34 51.51,-25.64 88.65,-54.65 111.52,-86.85 23.01,-32.15 34.46,-71.65 34.46,-118.12z"
   id="glyph65" />
   <glyph
   unicode="W"
   horiz-adv-x="777"
   d="M767.17 659.34c0,-4.33 -0.66,-8.35 -2.01,-12.16l-146.01 -643.2c-2.81,-11.99 -10.15,-17.98 -21.83,-17.98l-89.49 0c-8,0 -13.34,1 -15.83,3.01 -2.49,1.8 -4.5,7 -5.99,14.97l-65 341.35c-12.33,64.34 -20.34,120.68 -24.01,168.84 -3.5,-32.85 -8,-63.68 -13.17,-92.34 -2.01,-9.67 -4.5,-24.32 -7.83,-43.83 -2.49,-5.16 -4.82,-16.49 -6.83,-33.68l-77.16 -340.34c-1.84,-8.32 -3.85,-13.48 -5.99,-15.31 -2.18,-1.84 -7.52,-2.67 -15.83,-2.67l-89.84 0c-8.84,0 -14.34,0.83 -16.49,2.67 -2.01,1.84 -4.02,7 -5.51,15.31l-132.35 646.01c-1.32,3.36 -1.97,6.69 -1.97,10.36 0,6.83 5.99,11.33 17.98,13.65l88 17.01 11.16 1c6.51,0 10.84,-6.03 12.68,-18.02l60.15 -332.17c7.17,-39.67 14.17,-96.67 21.03,-170.99 0.31,0.66 3.33,19.47 9.15,56.16 1.66,15.31 6.51,45.32 14.66,89.81l79.17 348.17c2.01,8.52 4.19,13.69 6.51,15.52 2.49,1.66 8,2.67 16.49,2.67l80 0c8.49,0 13.82,-1 16.18,-2.67 2.15,-1.84 4.16,-7 5.82,-15.52l67.84 -314.81c9.15,-41.68 17.01,-87.52 23.49,-137.34l5.86 -46.84c7.14,73.66 15.14,134.99 23.8,184.19l58.17 323.82c2.01,11.99 6.17,18.02 12.68,18.02 1.32,0 4.99,-0.69 11.33,-2.01l83.81 -18.02c11.5,-2.32 17.19,-6.48 17.19,-12.65z"
   id="glyph66" />
   <glyph
   unicode="a"
   horiz-adv-x="481"
   d="M439.82 28c0,-4.68 -2.63,-7.83 -7.83,-9.84l-78.17 -31.15c-2.98,-2.01 -7,-3.01 -12.16,-3.01 -9.15,0 -19.16,19.68 -29.83,59 -37.18,-38.01 -79.65,-57 -127.99,-57 -45.84,0 -82.36,13.65 -109.35,40.99 -26.99,27.34 -40.5,64.17 -40.5,110.35 0,87.49 49.68,140.98 149.02,160.49 26.16,5.16 63.47,8.35 111.98,9.32l0 30.7c0,28.65 -4.64,48.33 -14.17,58.97 -9.49,10.84 -26.64,16.18 -51.83,16.18 -29.97,0 -67.32,-8.66 -111.98,-25.85 -4.16,-2.15 -8,-3.33 -11.16,-3.33 -4.19,0 -7.52,3.33 -9.84,10.19l-21 59.98c-1.66,3.5 -2.53,7.17 -2.53,10.67 0,10.84 18.68,21.17 55.85,31.18 37,10.15 75.67,15.14 115.65,15.14 80.52,0 132.35,-25.64 155.85,-77.16 9.49,-20.48 14.17,-47.99 14.17,-82.81l0 -204.01c0,-40.33 7.66,-76.33 22.83,-107.86 2.01,-4.33 2.98,-7.97 2.98,-11.16zm-144.83 85.68l0 110.49c-50,0 -86,-6.17 -107.48,-18.33 -21.69,-12.33 -32.5,-32.85 -32.5,-61.85 0,-19.65 6.17,-36 18.5,-49.16 12.33,-13.17 27.48,-19.82 45.32,-19.82 26.68,0 52.18,12.82 76.16,38.67z"
   id="glyph67" />
   <glyph
   unicode="c"
   horiz-adv-x="407"
   d="M405.52 453.99c0,-3.98 -0.87,-7.66 -2.84,-11.16l-34.68 -63.99c-2.67,-4.5 -5.65,-6.83 -9.32,-6.83 -2.84,0 -6.17,1.32 -9.67,3.98 -31.01,22.66 -59.18,33.99 -84.99,33.99 -66,0 -99.02,-55.99 -99.02,-167.83 0,-105.5 33.33,-158.17 99.99,-158.17 26.68,0 54.02,9.35 82.01,27.86 4.85,3.5 8.49,5.34 10.67,5.34 3.01,0 5.82,-2.36 8.32,-7.35l24.01 -61.01c1.84,-4.82 2.84,-8.66 2.84,-11.64 0,-12.68 -15.66,-24.84 -47.16,-36.69 -31.36,-11.64 -64.03,-17.5 -97.84,-17.5 -68.01,0 -120.85,22.17 -158.51,66.66 -37.49,44.35 -56.34,106.68 -56.34,187.17 0,84.85 20.68,151.86 61.85,200.68 41.16,48.99 97.5,73.49 169.18,73.49 30.49,0 61.81,-6.48 93.65,-19.33 32.01,-12.82 47.85,-25.33 47.85,-37.66z"
   id="glyph68" />
   <glyph
   unicode="e"
   horiz-adv-x="480"
   d="M449.99 237.82c0,-8.64 -1.34,-14.97 -3.83,-18.99 -2.68,-3.83 -8.64,-5.82 -17.97,-5.82l-268.17 0c1.99,-84.03 38.8,-126.02 110.5,-126.02 37.14,0 74.98,10.35 113.32,31.18 5.17,2.68 9.47,3.83 12.98,3.83 4.99,0 8.68,-3 11.36,-9.15l24.67 -59.5c1.99,-5.04 2.96,-8.68 2.96,-11.36 0,-8.64 -13.63,-18.99 -40.98,-30.67 -43.66,-18.8 -89.67,-28.32 -138.17,-28.32 -63.52,0 -113.18,16.49 -148.98,49.34 -49.85,45.5 -74.7,115.81 -74.7,210.84 0,80.33 20,145.01 60.01,194.16 40.19,49.15 92.99,73.68 158.82,73.68 132.17,0 198.18,-91.01 198.18,-273.2zm-133 68.18c-1.02,41.48 -6.98,70.82 -18.15,88 -10.99,17.32 -29.33,26.01 -54.7,26.01 -29.66,0 -51.32,-12.52 -64.63,-37.7 -8.87,-16.31 -15.01,-41.81 -18.52,-76.32l156 0z"
   id="glyph69" />
   <glyph
   unicode="f"
   horiz-adv-x="351"
   d="M380.02 687.82c0,-0.31 -0.69,-2.84 -2.01,-7.66l-18.02 -71.34c-2.32,-5.82 -5.34,-8.66 -8.84,-8.66 -2.32,0 -5.65,0.83 -10.32,2.84 -20.16,9.32 -40.16,14 -60.15,14 -22.69,0 -38.67,-7 -47.85,-21 -5.16,-8.52 -7.83,-28.52 -7.83,-60.01l0 -41.99 113.99 0c11.33,0 17.01,-3.33 17.01,-10.19 -0.35,-2.67 -0.83,-5.82 -1.84,-9.81l-14.17 -57.86c-2.32,-10.15 -8.66,-15.14 -19.16,-15.14l-95.84 0 0 -383.86c0,-11.47 -5.68,-17.15 -17.19,-17.15l-92.65 0c-11.5,0 -17.19,5.68 -17.19,17.15l0 383.86 -75.98 0c-8.35,0 -13.34,1 -14.83,3.15 -1.49,2.18 -2.18,9.01 -2.18,20.68l0 54.99c0,9.49 5.68,14.17 17.01,14.17l75.98 0 0 41.99c0,61.15 11.02,105.5 32.85,132.84 29.52,36.83 72,55.16 127.02,55.16 30.66,0 58.66,-3.67 83.99,-11.16 25.5,-7.52 38.18,-15.83 38.18,-25.02z"
   id="glyph70" />
   <glyph
   unicode="g"
   horiz-adv-x="500"
   d="M464.66 474.01c0,-2.67 -2.01,-8.7 -5.82,-18.19 -14.52,-34.65 -21.83,-72.48 -21.83,-113.16l0 -148.01c0,-54.64 1,-108.83 2.98,-162.5 1.35,-36.14 2.01,-57.17 2.01,-62.99 0,-57.34 -16.18,-101.34 -48.68,-132.01 -32.33,-30.84 -78.82,-46.15 -139.49,-46.15 -42.34,0 -86.83,6.34 -133.32,18.81 -46.67,12.51 -69.85,24.67 -69.85,36.35 0,2.32 0.69,5.51 1.84,9.84l21.52 68.84c2.01,6.83 5.65,10.15 10.81,10.15 3.01,0 5.86,-0.83 8.84,-2.84 54.36,-24.84 104.01,-37.18 148.67,-37.18 27.68,0 47.33,6.34 59,19.02 11.85,12.65 17.67,33.99 17.67,63.99 0,14.34 -1.66,36 -4.85,65 -35.31,-24.67 -73.97,-37 -116.31,-37 -50.52,0 -90.5,21.83 -119.85,65.66 -29.31,43.69 -44,102.83 -44,177.36 0,80.31 16.53,144.17 49.34,191.32 32.85,47.16 77.33,70.65 133.32,70.65 40.68,0 79.03,-15.31 115.17,-46.15 13.34,32.85 25.19,49.16 35.17,49.16 4.02,0 7.17,-0.66 9.84,-2.01l79 -28.31c5.86,-2.84 8.84,-6.17 8.84,-9.67zm-150.65 -332.86l0 236.02c-25.67,19.16 -49.34,28.83 -70.85,28.83 -54.81,0 -82.15,-50.65 -82.15,-152 0,-98.02 24.67,-147.01 73.83,-147.01 30.97,0 57.34,11.33 79.17,34.16z"
   id="glyph71" />
   <glyph
   unicode="h"
   horiz-adv-x="537"
   d="M472 17.01c0,-11.33 -5.68,-17.01 -17.19,-17.01l-93.17 0c-11.16,0 -16.67,5.68 -16.67,17.15l0 308.68c0,30.35 -4.16,52.01 -12.65,64.83 -8.52,12.85 -22.66,19.33 -42.51,19.33 -27.34,0 -55.82,-13.65 -85.82,-41.16l0 -351.67c0,-11.47 -5.68,-17.15 -17.19,-17.15l-92.65 0c-11.5,0 -17.19,5.68 -17.19,17.15l0 668.84c0,10.01 4.85,16.01 14.69,18.02l93.31 18.99c1.84,0.66 4.85,1 8.84,1 6.86,0 10.19,-5.65 10.19,-17.01l0 -253.83c40.68,38.49 86.48,57.83 137.66,57.83 51.52,0 88.18,-17.98 110.35,-54.15 13.3,-21.83 19.99,-56.16 19.99,-103.01l0 -336.81z"
   id="glyph72" />
   <glyph
   unicode="i"
   horiz-adv-x="295"
   d="M235.99 641.02c0,-22.52 -7.83,-41.51 -23.49,-57.34 -15.66,-15.83 -34.82,-23.66 -57.65,-23.66 -22.66,0 -41.68,7.83 -57.34,23.66 -15.66,15.83 -23.49,35.17 -23.49,58.31 0,21.86 8,40.5 23.98,56.34 16.01,15.83 35.17,23.66 57.69,23.66 22.31,0 41.16,-8 56.82,-23.84 15.66,-15.97 23.49,-34.99 23.49,-57.13zm-14 -624c0,-11.33 -5.65,-17.01 -17.15,-17.01l-93.17 0c-11.16,0 -16.67,5.68 -16.67,17.15l0 383.86 -76.02 0c-11.33,0 -16.98,5.65 -16.98,16.98l0 59c0,11.33 5.65,17.01 16.98,17.01l186.02 0c11.33,0 16.98,-5.68 16.98,-17.01l0 -459.98z"
   id="glyph73" />
   <glyph
   unicode="k"
   horiz-adv-x="500"
   d="M502.84 43c0,-4.16 -3.33,-8.18 -9.84,-12.16l-79 -44c-4.99,-2.49 -8.35,-3.85 -10.32,-3.85 -3.85,0 -8.18,3.19 -12.68,9.35l-186.99 239.66 0 -214.85c0,-11.47 -5.68,-17.15 -17.19,-17.15l-92.65 0c-11.5,0 -17.19,5.68 -17.19,17.15l0 668.84c0,10.01 4.85,16.01 14.69,18.02l102.14 19.99c6.86,0 10.19,-5.65 10.19,-17.01l0 -400.8 193.82 195c5.16,5.16 9.35,7.83 12.16,7.83 2.01,0 5.86,-2.36 11.68,-6.83l54.33 -43.03c5.16,-4.16 7.69,-8.32 7.69,-12.16 0,-3.33 -2.18,-7.17 -6.86,-11.64l-163.99 -158.34 184.15 -221.68c3.85,-4.33 5.86,-8.32 5.86,-12.33z"
   id="glyph74" />
   <glyph
   unicode="l"
   horiz-adv-x="277"
   d="M289.17 11.33c0,-6.83 -11.02,-13.34 -32.85,-19.33 -21.65,-5.99 -44.49,-9.01 -68.33,-9.01 -59.49,0 -97.5,24.18 -113.68,72.34 -6.17,17.15 -9.32,57.65 -9.32,121.51l0 508.14c0,10.67 4.99,17.01 15.18,19.02l89.84 17.98c6.83,1.35 10.98,2.01 12.16,2.01 6.48,0 9.84,-5.65 9.84,-17.15l0 -520.86c0,-39.15 0.66,-61.15 1.97,-66 3.5,-13.3 12.02,-19.99 25.33,-19.99 9.18,0 20.03,2.01 32.67,5.99 2.01,0.69 4.33,1 6.83,1 4.68,0 7.35,-1.97 8.35,-5.99l21 -85.82c0.66,-1.35 1,-2.49 1,-3.85z"
   id="glyph75" />
   <glyph
   unicode="m"
   horiz-adv-x="777"
   d="M715.02 17c0,-11.32 -5.68,-17 -17.18,-17l-92.67 0c-11.5,0 -17.18,5.68 -17.18,17l0 315.98c0,51.37 -14.97,77.01 -44.99,77.01 -24.67,0 -53.31,-14.97 -85.97,-44.81l0 -348.18c0,-11.32 -5.68,-17 -17.18,-17l-90.68 0c-11.5,0 -17.14,5.68 -17.14,17.18l0 307.66c0,28.13 -1.66,46.98 -4.85,56.82 -6.14,18.85 -20,28.32 -41.16,28.32 -24.99,0 -53.68,-14.32 -86.02,-43.01l0 -349.79c0,-11.5 -5.64,-17.18 -17.14,-17.18l-91.19 0c-11.13,0 -16.63,5.68 -16.63,17l0 335.84c0,40.98 -6.01,77.01 -18.02,108.01 -1.99,3.83 -3,7.67 -3,11.13 0,5.5 3.65,9.52 10.81,11.69l81.17 27.35c6.51,1.29 9.84,1.99 9.84,1.99 11.69,0 22.5,-24.02 32.2,-72.02 50.63,46.7 100.34,70.03 149.3,70.03 51.51,0 87.86,-23.33 109.02,-70.03 51.65,46.7 103.16,70.03 154.66,70.03 46.66,0 78.67,-16.86 95.81,-50.35 12.2,-23.01 18.2,-61.35 18.2,-114.66l0 -329.01z"
   id="glyph76" />
   <glyph
   unicode="n"
   horiz-adv-x="537"
   d="M473.01 17.01c0,-11.33 -5.68,-17.01 -17.19,-17.01l-93.17 0c-11.16,0 -16.67,5.68 -16.67,17.15l0 308.68c0,56.16 -18.99,84.16 -57.17,84.16 -25.99,0 -54.99,-13.65 -86.83,-41.16l0 -351.67c0,-11.47 -5.65,-17.15 -17.15,-17.15l-93.17 0c-11.19,0 -16.67,5.68 -16.67,17.15l0 335.84c0,42.86 -6.86,79.17 -20.68,108.83 -2.15,4.19 -3.33,7.69 -3.33,10.19 0,3.98 2.84,6.83 8.32,8.84l88.7 33.16c3.64,1.35 7,2.01 10.32,2.01 12.33,0 24.15,-23.01 35.65,-69.16 46.5,42.82 96.36,64.13 149.68,64.13 86.17,0 129.34,-52.66 129.34,-158.17l0 -335.8z"
   id="glyph77" />
   <glyph
   unicode="o"
   horiz-adv-x="500"
   d="M467.99 248.01c0,-81.66 -19.33,-146.35 -58.14,-193.85 -38.84,-47.5 -91.68,-71.17 -158.86,-71.17 -68.5,0 -121.82,23.35 -160.31,69.85 -38.49,46.5 -57.69,111.15 -57.69,194.17 0,81.01 19.19,144.65 57.69,190.84 40.68,48.82 95.49,73.14 164.16,73.14 65.83,0 117.84,-23.66 155.98,-70.82 38.18,-47.16 57.17,-111.15 57.17,-192.16zm-134.99 -2.01c0,59 -6.51,101 -19.51,126.15 -12.99,25.19 -34.51,37.84 -64.48,37.84 -28.69,0 -49.34,-12.82 -62.02,-38.49 -12.65,-25.81 -18.99,-67.15 -18.99,-124.49 0,-57.83 6.48,-99.51 19.33,-125.01 12.82,-25.33 33.68,-38.01 62.64,-38.01 29.35,0 50.52,12.68 63.51,38.01 12.99,25.5 19.51,66.84 19.51,124z"
   id="glyph78" />
   <glyph
   unicode="p"
   horiz-adv-x="518"
   d="M486 254.83c0,-181.17 -61.01,-271.85 -182.84,-271.85 -36.17,0 -70.16,8.66 -102.18,25.85l0 -180.83c0,-10.01 -4.99,-16.01 -15.14,-18.02l-93.34 -19.99 -9.67 -1c-5.86,0 -8.84,5.34 -8.84,16.18l0 549.65c0,32.5 -6.51,65.52 -19.68,99.02 -1.49,3.33 -2.32,5.82 -2.32,7.83 0,3.33 3.5,6.31 10.32,9.32l86.83 36.48c4.85,2.36 8,3.5 9.35,3.5 9.32,0 18.64,-17.32 27.82,-51.97 38.32,34.65 80.66,51.97 126.84,51.97 115.17,0 172.82,-85.3 172.82,-256.15zm-127.02 -3.98c0,106.16 -26.64,159.14 -80.14,159.14 -25.19,0 -51.17,-11.99 -77.85,-36.14l0 -275.86c23.53,-12.65 46.84,-18.99 70.02,-18.99 32.5,0 55.33,12.68 68.5,38.01 12.99,25.5 19.47,69.99 19.47,133.84z"
   id="glyph79" />
   <glyph
   unicode="r"
   horiz-adv-x="351"
   d="M365.15 488.5c0,-1.84 -0.66,-5.51 -2.32,-10.67l-30.84 -80.83c-2.32,-5.82 -4.82,-8.84 -7.83,-8.84 -1,0 -3.33,0.69 -7.35,2.01 -14.97,5.16 -28.31,7.83 -39.98,7.83 -21.52,0 -46.84,-16.01 -75.84,-47.81l0 -333.03c0,-11.47 -5.65,-17.15 -17.15,-17.15l-93.17 0c-11.16,0 -16.67,5.68 -16.67,17.01l0 303.65c0,47.85 -10.01,94.17 -30,139.18 -1.35,3.81 -2.01,7 -2.01,9.15 0,4.33 3.33,7.52 9.84,9.84l81.01 28.65c5.82,2.36 9.98,3.5 12.16,3.5 13.34,0 25.99,-25.99 38.18,-77.82 7.83,9.32 18.99,22.35 33.64,38.84 26.02,25.99 56.51,38.98 91.33,38.98 14.69,0 27.86,-2.32 39.5,-6.83 11.68,-4.5 17.5,-9.67 17.5,-15.66z"
   id="glyph80" />
   <glyph
   unicode="s"
   horiz-adv-x="425"
   d="M393.01 145c0,-45.49 -15.35,-84.16 -45.84,-116.17 -29.52,-30.49 -70.51,-45.84 -122.65,-45.84 -58.87,0 -115.34,14 -169.53,42.03 -14.66,7.48 -22,13.82 -22,18.99 0,2.67 1,6.65 3.01,12.16l22.83 61.01c2.67,6.48 5.99,9.81 9.84,9.81 2.32,0 5.34,-0.97 9.32,-2.98 52.84,-28.65 98.02,-43 135.85,-43 38.81,0 58.14,17.15 58.14,51.66 0,14.34 -4.82,25.5 -14.31,33.33 -9.67,7.66 -30.52,17.67 -62.68,29.66 -52.49,20.16 -87,38.35 -104.01,54.19 -26.64,25.5 -39.98,58.14 -39.98,98.16 0,47.85 16.67,87 50,117.32 33.33,30.52 76.02,45.67 127.99,45.67 31.53,0 64.86,-5.3 100.03,-16.15 34.99,-10.67 52.66,-20.68 52.66,-30.18 0,-2.49 -1,-6.17 -3.01,-10.67l-24.67 -57c-2.67,-5.82 -5.99,-8.84 -10.15,-8.84 -1.35,0 -4.02,0.69 -7.83,2.01 -38.53,17.15 -72,25.85 -100.51,25.85 -42.34,0 -63.51,-17.01 -63.51,-50.86 0,-13.65 4.19,-24.15 12.33,-31.32 8.18,-7.35 25.85,-16.32 53.01,-26.68 60.01,-23.49 98.33,-43.48 115,-59.98 27.16,-26.85 40.68,-60.84 40.68,-102.18z"
   id="glyph81" />
   <glyph
   unicode="t"
   horiz-adv-x="370"
   d="M365.98 22c0,-8.18 -10.32,-15.35 -31.15,-22 -35.17,-11.33 -68.84,-17.01 -101.17,-17.01 -59.18,0 -99.51,21.52 -120.99,64.51 -9.18,18.85 -13.69,49.82 -13.69,92.65l0 260.86 -69.33 0c-11.16,0 -16.67,5.65 -16.67,16.98l0 59c0,11.33 5.51,17.01 16.67,17.01l69.33 0 0 126.15c0,10.5 5.34,16.49 16.18,18.19l91.82 12.65 8.84 0c6.86,0 10.19,-5.34 10.19,-16.15l0 -140.84 113.64 0c11.36,0 17.19,-3.33 17.19,-10.19 0,-3.98 -0.35,-6.83 -1,-8.84l-13.17 -58.83c-2.01,-10.15 -7.83,-15.14 -17.67,-15.14l-98.99 0 0 -243.02c0,-22.83 1.14,-37.49 3.5,-44 4.5,-13.34 15.66,-19.99 33.5,-19.99 15.66,0 37.66,5.68 66,16.84 3.15,1.32 6.17,2.01 8.66,2.01 4.64,0 8,-3.36 10.32,-9.84l15.66 -69.68c1.49,-5.99 2.32,-9.67 2.32,-11.33z"
   id="glyph82" />
   <glyph
   unicode="u"
   horiz-adv-x="537"
   d="M485 15.35c0,-4.02 -3.33,-6.69 -9.84,-8.35l-83.99 -18.99c-5.86,-1.35 -9.67,-2.01 -11.16,-2.01 -11.5,0 -21.34,18.33 -29.83,54.99 -40.68,-38.67 -86.86,-58 -138.17,-58 -50.17,0 -87.66,14.34 -112.85,43 -16.32,18.5 -26.51,42.69 -30.66,72.34 -2.32,14 -3.5,40.68 -3.5,80l0 293.15c0,9.67 4.99,15.52 15.18,17.53l92.82 19.99c1.35,0.66 4.02,1 8.35,1 7.14,0 10.67,-5.2 10.67,-15.7l0 -310.17c0,-37.49 3.15,-61.81 9.32,-73.31 9.32,-17.84 26.68,-26.85 51.66,-26.85 26.68,0 54.33,12.02 83.02,36.17l0 351.19c0,9.81 4.99,15.66 15.14,17.67l92.86 19.99 10.15 1c5.86,0 8.84,-5.2 8.84,-15.7l0 -368.17c0,-42.65 6.34,-76.64 18.99,-102 2.01,-2.98 3.01,-5.99 3.01,-8.8z"
   id="glyph83" />
   <glyph
   unicode="w"
   horiz-adv-x="667"
   d="M658.17 477.17c0,0 -1.18,-3.5 -3.5,-10.32l-137.66 -461.16c-2.84,-9.18 -9.35,-13.69 -19.02,-13.69l-82.98 0c-7.17,0 -11.68,0.66 -13.51,2.18 -1.66,1.49 -3.33,5.99 -4.68,13.48l-46.81 253.52c-1,4.5 -3.36,21.48 -7.35,50.83l-3.85 37.18 -2.98 23.84c-2.49,-22.83 -8.52,-60.01 -18.02,-111.84l-59.14 -254.52c-2.18,-9.81 -8,-14.66 -17.5,-14.66l-82.01 0c-9.49,0 -15.49,4.85 -18.16,14.66l-121.02 460.19c-1.32,5.16 -1.97,9.01 -1.97,11.16 0,5.34 4.99,8.49 15.14,9.84l87.83 13.17c0.69,0.66 3.36,1 7.83,1 6.17,0 10.36,-4.68 12.2,-14.17l46.98 -229.99c5.16,-25.36 12.16,-77.68 21,-156.85 6.17,68.67 12.16,116.66 18.02,144l49.82 233.84c2.15,10.19 8.32,15.18 17.98,15.18l89.84 0c10.19,0 16.18,-4.99 18.19,-15.18l45.32 -225c6.83,-35.17 13.34,-86 19.51,-152.83 8.84,84.33 16.32,139.66 22.49,166.17l50.83 220.67c2.18,9.49 5.86,14.17 10.67,14.17 5.51,0 8.66,-0.35 9.35,-1l81.98 -13.17c10.19,-1.35 15.18,-4.85 15.18,-10.67z"
   id="glyph84" />
   <glyph
   unicode="z"
   horiz-adv-x="425"
   d="M414.18 95.18c0,-2.49 -1,-6.34 -3.01,-11.19l-30.18 -70.82c-3.98,-8.84 -10.32,-13.17 -19.16,-13.17l-319.66 0c-11.5,0 -17.15,5.68 -17.15,17.01l0 68.67 232.83 307.32 -194.69 0c-11.5,0 -17.15,5.82 -17.15,17.32l0 66.49c0,11.5 5.65,17.19 17.15,17.19l314.84 0c7.83,0 12.65,-1.35 14.48,-4.16 1.66,-2.67 2.67,-7 2.67,-12.85l0 -73.31 -226.15 -298.66 228.99 0c10.84,0 16.18,-3.36 16.18,-9.84z"
   id="glyph85" />
  </font>
  <font
   id="FontID0"
   horiz-adv-x="537"
   font-variant="normal"
   style="fill-rule:nonzero"
   font-style="normal"
   font-weight="400">
	<font-face
   font-family="Officina Sans OS ITC TT"
   id="font-face85">
		<font-face-src>
			<font-face-name
   name="Officina Sans OS ITC TT" />
		</font-face-src>
	</font-face>
   <missing-glyph
   id="missing-glyph85"><path
     d="M0 0z"
     id="path85" /></missing-glyph>
   <glyph
   unicode="("
   horiz-adv-x="370"
   d="M316.82 -202.17c0,-3.85 -5.65,-9.49 -16.8,-16.84 -11.19,-7.31 -20.03,-10.98 -26.19,-10.98 -9.67,0 -32.64,26.99 -68.81,81.01 -82.01,122.83 -123,255.49 -123,398 0,153.66 48.33,296.65 145,429.15 24.5,33.19 39.98,49.86 46.81,49.86 3.67,0 7.69,-1.35 12.33,-3.85l23.84 -15.18c4.68,-2.98 6.83,-5.82 6.83,-8.84 0,-3.81 -2.81,-9.98 -8.84,-17.98 -95.97,-128.02 -144,-272.33 -144,-433.16 0,-159.83 48.02,-304.17 144,-433.16 6.03,-8 8.84,-14.17 8.84,-18.02z"
   id="glyph86" />
   <glyph
   unicode=")"
   horiz-adv-x="370"
   d="M289 249.01c0,-153.35 -48.33,-296.34 -145.17,-429.18 -24.32,-33.16 -39.98,-49.82 -46.81,-49.82 -3.5,0 -7.69,1.32 -12.2,3.81l-23.98 14.17c-4.5,3.67 -6.83,6.83 -6.83,9.84 0,3.85 2.98,10.01 8.8,18.02 96.18,128.99 144.17,273.34 144.17,433.16 0,159.83 -47.99,304.14 -144.17,433.16 -5.82,7.83 -8.8,13.82 -8.8,17.98 0,3.01 7.66,9.35 22.97,19.02 9.35,5.82 16.18,8.84 20.03,8.84 9.15,0 31.98,-27.03 68.81,-81.01 82.18,-120.5 123.17,-253.17 123.17,-398z"
   id="glyph87" />
   <glyph
   unicode="-"
   horiz-adv-x="351"
   d="M314.84 232.17c0,-9.49 -4.68,-14.17 -14.17,-14.17l-250.02 0c-9.15,0 -13.65,4.68 -13.65,14.17l0 46.67c0,9.49 4.5,14.17 13.65,14.17l250.02 0c9.49,0 14.17,-4.68 14.17,-14.17l0 -46.67z"
   id="glyph88" />
   <glyph
   unicode="."
   horiz-adv-x="295"
   d="M219.18 57.17c0,-19.51 -7,-36.17 -20.86,-50.17 -13.82,-14 -30.32,-21 -49.48,-21 -19.85,0 -36.69,6.83 -50.34,20.51 -13.69,13.65 -20.51,30.49 -20.51,50.65 0,19.51 7,36.17 21,49.65 14,13.51 31.01,20.16 50.83,20.16 18.5,0 34.68,-6.83 48.51,-20.65 13.86,-13.82 20.86,-30.18 20.86,-49.16z"
   id="glyph89" />
   <glyph
   unicode="0"
   horiz-adv-x="500"
   d="M457 292.18c0,-204.18 -69.16,-306.18 -207.5,-306.18 -57.65,0 -102.83,19.68 -135.51,59 -45.98,55.99 -68.98,134.33 -68.98,234.84 0,96.67 18.81,171.82 56.48,225.66 37.7,53.67 90.36,80.49 157.85,80.49 63.65,0 112.5,-25.33 146.49,-75.84 34.16,-50.65 51.17,-123.31 51.17,-217.97zm-82.01 -2.36c0,150.16 -40.5,225.17 -121.47,225.17 -40.02,0 -71.03,-20.16 -93.17,-60.32 -22.17,-40.19 -33.37,-96.36 -33.37,-168.66 0,-76.85 12.02,-136.2 36.03,-178.19 19.47,-33.82 48.65,-50.83 87.49,-50.83 44.83,0 76.33,19.33 94.83,58.17 19.82,41.99 29.66,100.17 29.66,174.66z"
   id="glyph90" />
   <glyph
   unicode="1"
   horiz-adv-x="500"
   d="M424.85 14.14c0,-9.45 -4.52,-14.14 -13.67,-14.14l-264.16 0c-9.51,0 -14.2,4.69 -14.2,14.14l0 37.68c0,9.51 4.69,14.2 14.2,14.2l101.98 0 0 426.16 -111.84 -67.33c-4.52,-2.67 -8.02,-4.04 -10.16,-4.04 -2.97,0 -5.35,2.5 -6.83,7.37l-13.19 24.01c-1.96,3.51 -2.97,6.48 -2.97,8.8 0,3.21 2.32,6.66 6.83,10.16l150.35 109.82 49.62 0c9.51,0 14.2,-4.64 14.2,-14.14l0 -500.8 86.17 0c8.97,0 13.67,-4.69 13.67,-14.2l0 -37.68z"
   id="glyph91" />
   <glyph
   unicode="2"
   horiz-adv-x="500"
   d="M430.97 14.14c0,-9.45 -4.64,-14.14 -14.14,-14.14l-335.65 0c-6.18,0 -9.69,1.49 -10.7,4.34 -1.01,2.02 -1.49,5.35 -1.49,9.81 0,65.01 13.31,119.69 40.17,163.55 26.8,43.98 70.84,83.32 131.99,118.14 45.82,26.33 74.52,46.65 85.81,60.97 14.68,18.54 22.05,41.18 22.05,67.87 0,28.35 -8.5,50.51 -25.67,66.32 -17,15.99 -40.53,24.01 -70.54,24.01 -28.17,0 -50.99,-7.31 -68.46,-22.17 -17.35,-14.86 -32.33,-39.82 -44.99,-74.82 -2.67,-6.54 -6.18,-9.87 -10.34,-9.87 -2.02,0 -5.17,0.65 -9.69,2.02l-41.01 11.65c-5.47,2.32 -8.32,5.71 -8.32,10.34 0,7.49 4.34,20.5 13.13,38.98 8.85,18.66 17.89,33.99 27.04,46 35.48,45.88 84.51,68.88 147.14,68.88 53.84,0 96.15,-14.03 127.18,-42.02 31.02,-27.99 46.47,-66.32 46.47,-114.82 0,-47.19 -14.62,-86.35 -43.98,-117.37 -12.84,-13.01 -24.48,-23 -35.36,-30.13 -9.15,-6.18 -39.64,-24.19 -91.46,-53.84 -68.82,-39.7 -106.5,-91.34 -113.03,-154.87l269.69 0c9.51,0 14.14,-4.64 14.14,-14.14l0 -44.69z"
   id="glyph92" />
   <glyph
   unicode="3"
   horiz-adv-x="500"
   d="M434 109.83c0,-57.17 -19.68,-103.49 -58.83,-138.83 -39.15,-35.34 -90.67,-53.01 -154.67,-53.01 -34.34,0 -70.16,5.02 -108,15.18 -37.66,10.01 -56.51,19.68 -56.51,28.83 0,1.52 1,4.68 3.01,9.18l19.99 45.01c1.66,3.81 3.85,5.82 6.83,5.82 2.49,0 10.19,-3.01 23.01,-8.84 33.85,-16.18 70.51,-24.15 109.83,-24.15 88.84,0 133.32,41.3 133.32,123.97 0,82.01 -48.65,123 -145.97,123l-34.34 0c-9.01,0 -13.69,4.68 -13.69,14l0 40.02c0,9.32 4.68,14 13.82,14l33.19 0c39.33,0 70.82,10.84 94,32.5 23.32,21.65 34.99,50.65 34.99,87.17 0,29.31 -8.84,52.84 -26.33,70.16 -17.67,17.5 -41.33,26.16 -70.85,26.16 -36.48,0 -70.16,-16.98 -100.65,-50.83 -7.83,-8.66 -14.17,-13.17 -19.16,-13.17 -2.18,0 -4.99,1.35 -8.18,4.02l-32.81 27.82c-3.53,2.32 -5.34,4.99 -5.34,8.32 0,10.01 16.15,27.03 48.33,50.86 34.82,25.99 74.98,38.98 120.64,38.98 50.69,0 92.02,-14.83 123.69,-44.49 31.81,-29.52 47.64,-68.19 47.64,-115.69 0,-70.65 -34.34,-119.64 -103.01,-146.98 27.86,-8.52 49.34,-18.68 64.51,-30.66 40.99,-32.67 61.5,-78.68 61.5,-138.35z"
   id="glyph93" />
   <glyph
   unicode="4"
   horiz-adv-x="500"
   d="M469.48 86.82c0,-9.15 -4.81,-13.85 -14.14,-13.85l-79.34 0 0 -140.79c0,-9.51 -4.69,-14.2 -14.14,-14.2l-46.71 0c-9.51,0 -14.14,4.69 -14.14,14.2l0 140.79 -257.86 0c-6.12,0 -9.81,1.84 -11.17,5.35 -0.65,2.02 -0.95,4.81 -0.95,8.32l0 56.16 259.29 430.38c3.21,5.17 8.85,7.79 17,7.79l49.86 -7.79c8.14,-1.37 12.18,-4.34 12.18,-9.21 0,-2.32 -1.37,-5.29 -3.86,-8.8l-255.3 -416.18 190.65 0 11.17 160.81c0.65,8.85 5.53,13.19 14.14,13.19l35.72 0c9.45,0 14.14,-4.69 14.14,-14.2l0 -159.8 79.34 0c9.33,0 14.14,-4.81 14.14,-14.32l0 -37.86z"
   id="glyph94" />
   <glyph
   unicode="5"
   horiz-adv-x="500"
   d="M434 150.82c0,-72 -21.17,-128.65 -63.34,-170.33 -42.34,-41.65 -99.65,-62.5 -171.99,-62.5 -36.17,0 -67.01,3.5 -92.51,10.36 -25.5,6.83 -38.15,14.97 -38.15,24.81l0 6.86 10.32 39.98c1.18,5.16 4.5,7.83 9.67,7.83 2.01,0 5.65,-0.66 11.16,-2.01 30,-11.16 64.69,-16.8 104.01,-16.8 99.16,0 148.81,52.98 148.81,159.14 0,40.02 -9.15,71.17 -27.3,93.34 -18.19,22.35 -43.69,33.5 -76.68,33.5 -41.51,0 -80.35,-18.33 -116,-54.85 -4.02,-4.16 -6.83,-6.31 -8.84,-6.31l-9.35 1 -34.65 12.16c-7.52,2.67 -11.16,5.65 -11.16,8.84l0 7.31 32.15 319.66c0.66,8.84 5.34,13.2 13.65,13.2l260.34 0c9.49,0 14.17,-4.68 14.17,-14.17l0 -41.68c0,-9.49 -4.68,-14.17 -14.17,-14.17l-208.99 0 -22 -202.83c38.84,28.52 79,42.82 120.5,42.82 50.48,0 91.68,-17.98 123.17,-54.15 31.49,-36.17 47.16,-83.15 47.16,-141.02z"
   id="glyph95" />
   <glyph
   unicode="6"
   horiz-adv-x="500"
   d="M443 224.17c0,-69.99 -18.02,-127.16 -53.84,-171.51 -36,-44.49 -82.5,-66.66 -139.66,-66.66 -67.84,0 -118.67,30.84 -152.35,92.34 -25.5,46.15 -38.15,106.65 -38.15,181.66 0,120.02 24.98,215.68 75.01,286.5 50,70.99 117.14,106.51 201.82,106.51 23.14,0 43,-2.18 59.32,-6.34 16.53,-4.33 24.67,-9.49 24.67,-15.66 0,-2.67 -0.31,-4.68 -1,-5.82l-10.64 -42.17c-1.35,-4.5 -3.85,-6.86 -7.35,-6.86l-6.83 0.83c-20.16,6.69 -40.5,10.01 -61.01,10.01 -54.15,0 -97.98,-23.18 -131.83,-69.5 -28,-38.01 -46.15,-86.17 -54.33,-144.48 38.01,43.31 80.49,65 127.5,65 51.31,0 92.34,-19.51 122.83,-58.52 30.49,-39.15 45.84,-90.85 45.84,-155.33zm-82.01 -1.18c0,97.33 -37.18,146.01 -111.5,146.01 -34.34,0 -61.01,-12.51 -80,-37.66 -18.99,-25.02 -28.48,-60.49 -28.48,-106.33 0,-112.02 36.48,-168.01 109.49,-168.01 73.66,0 110.49,55.33 110.49,166z"
   id="glyph96" />
   <glyph
   unicode="7"
   horiz-adv-x="500"
   d="M426.65 538.84l-230.82 -605.68c-2.32,-6.65 -5.65,-10.15 -9.84,-10.15 -0.66,0 -1.97,0 -3.81,0l-2.01 0 -54.15 8.32c-8.18,1 -12.33,3.5 -12.33,7.83 0,2.01 1.14,5.02 3.5,9.35l215.82 555.47 -257.85 0c-9.49,0 -14.14,4.68 -14.14,14.17l0 43.69c0,9.49 4.64,14.17 14.14,14.17l337.85 0c9.18,0 13.65,-4.68 13.65,-14.17l0 -23.01z"
   id="glyph97" />
   <glyph
   unicode="9"
   horiz-adv-x="500"
   d="M435 313.01c0,-123.66 -22.66,-220.5 -68.15,-290.35 -45.35,-69.81 -108.34,-104.67 -189,-104.67 -35.03,0 -61.85,4.33 -80.83,13.17 -6.86,3.01 -10.36,7.17 -10.36,12.68l0 6.34 5.02 40.99c0,5.34 2.67,7.83 8.14,7.83 0.69,0 3.36,-0.66 7.83,-1.84 24.84,-7.48 48.19,-11.16 70.02,-11.16 94,0 152.48,74.67 175.32,224 -31.32,-50.65 -74.67,-75.98 -130,-75.98 -50.48,0 -91.16,20.3 -122.34,60.98 -31.15,40.68 -46.64,94 -46.64,160.18 0,68.67 17.98,124.32 54.15,166.83 36,42.65 83.15,63.99 141.15,63.99 123.83,0 185.68,-90.98 185.68,-272.99zm-82.01 49.65c0,101.52 -35.65,152.35 -106.82,152.35 -34.16,0 -61.19,-14 -81.18,-41.99 -19.99,-28 -30,-66 -30,-114.16 0,-49.16 9.53,-87.69 28.52,-115.34 18.99,-27.68 45.67,-41.51 79.83,-41.51 73.18,0 109.66,53.5 109.66,160.66z"
   id="glyph98" />
   <glyph
   unicode="A"
   horiz-adv-x="537"
   d="M517.15 7.83c0,-5.16 -4.82,-7.83 -14.14,-7.83l-64.03 0c-6.83,0 -11.81,3.67 -15.14,11.16l-54.67 194.86 -203.17 0 -56.16 -194.86c-1.84,-7.48 -6.83,-11.16 -14.66,-11.16l-60.01 0c-9.49,0 -14.17,2.32 -14.17,6.83 0,1.66 0.66,4.68 2.01,9.35l201.16 658.65c2.15,7.52 7.17,11.16 14.66,11.16l60.01 0c7.83,0 12.82,-3.64 15.18,-11.16l201.16 -658.65c1.32,-4.68 1.97,-7.35 1.97,-8.35zm-166.97 267.17l-60.18 220.19c-8.66,31.49 -16.32,63.47 -22.83,95.66 -4.68,-23.53 -12.33,-55.02 -23.01,-94.69l-60.15 -221.16 166.17 0z"
   id="glyph99" />
   <glyph
   unicode="C"
   horiz-adv-x="462"
   d="M441.17 63.99c0,-6.83 -9.32,-17.32 -27.82,-31.67 -39.67,-30.84 -84.85,-46.32 -135.33,-46.32 -73.52,0 -129.51,31.01 -168.18,93.17 -38.49,62.16 -57.83,152.48 -57.83,270.84 0,116.83 18.99,205.15 57.17,264.99 36.17,56.68 90.15,84.99 161.98,84.99 55.68,0 105.36,-18.64 149.02,-55.99 10.67,-9.15 16.15,-15.83 16.15,-19.99 0,-2.67 -0.66,-5.34 -1.97,-7.83l-29.35 -38.01c-1.32,-2.67 -3.98,-3.98 -7.83,-3.98 -2.01,0 -13.34,7.97 -34.16,23.98 -30,23.18 -60.32,34.86 -91.02,34.86 -45.67,0 -78.82,-21.86 -99.65,-65.52 -20.82,-43.66 -31.32,-113.16 -31.32,-208.65 0,-203.83 47.16,-305.83 141.33,-305.83 34.47,0 71.82,17.67 111.81,52.98 4.68,3.85 8.18,5.86 10.84,5.86 2.67,0 5.34,-2.36 8.35,-6.83l24.81 -33.19c2.01,-1.97 3.01,-4.5 3.01,-7.83z"
   id="glyph100" />
   <glyph
   unicode="E"
   horiz-adv-x="462"
   d="M431.99 679.16c0,-2.32 -0.66,-5.34 -1.97,-9.32l-15.18 -44c-2.67,-7.17 -7.66,-10.84 -15.18,-10.84l-221.68 0 0 -226.01 195.86 0c9.49,0 14.14,-4.64 14.14,-14l0 -38.49c0,-9.01 -4.64,-13.51 -14.14,-13.51l-195.86 0 0 -251.99 238.86 0c9.49,0 14.17,-4.5 14.17,-13.65l0 -43.17c0,-9.49 -4.68,-14.17 -14.17,-14.17l-307.19 0c-9.15,0 -13.65,4.68 -13.65,14.17l0 657.65c0,9.53 4.5,14.17 13.65,14.17l308.19 0c9.32,0 14.14,-2.32 14.14,-6.83z"
   id="glyph101" />
   <glyph
   unicode="G"
   horiz-adv-x="537"
   d="M468.99 41.16c0,-7.17 -2.98,-12.16 -8.84,-15.18 -42.3,-26.64 -97.67,-39.98 -166,-39.98 -78.34,0 -138.17,30.18 -179.34,90.5 -41.16,60.32 -61.81,148.15 -61.81,263.32 0,117.18 20.82,206.5 62.5,268 41.65,61.5 102.14,92.16 181.66,92.16 51.31,0 99.51,-13.65 144,-40.99 13.34,-8.32 19.99,-15 19.99,-19.99 0,-2.18 -1,-4.99 -2.84,-8.18l-21 -43c-1.32,-2.49 -3.33,-3.85 -5.99,-3.85 -2.49,0 -12.99,6.03 -31.15,18.19 -31.67,20.48 -66,30.84 -103.18,30.84 -53.5,0 -92.68,-22.69 -117.66,-68.01 -24.84,-45.18 -37.35,-116.49 -37.35,-213.98 0,-105.19 13.03,-181.17 39.01,-227.84 25.99,-46.84 68.33,-70.16 126.98,-70.16 27.34,0 53.67,6.17 79.03,18.64l0 206.36 -77.68 0c-9.49,0 -14.17,4.64 -14.17,14.17l0 40.64c0,9.49 4.68,14.17 14.17,14.17l146.01 0c9.15,0 13.65,-4.68 13.65,-14.17l0 -291.66z"
   id="glyph102" />
   <glyph
   unicode="I"
   horiz-adv-x="332"
   d="M310.17 14.34c0,-9.53 -4.82,-14.34 -14.17,-14.34l-258.82 0c-9.49,0 -14.17,4.82 -14.17,14.34l0 37.32c0,9.49 4.68,14.34 14.17,14.34l87.83 0 0 553.98 -87.83 0c-9.49,0 -14.17,4.68 -14.17,13.86l0 37.84c0,9.49 4.68,14.31 14.17,14.31l258.82 0c9.35,0 14.17,-4.82 14.17,-14.31l0 -37.84c0,-9.18 -4.82,-13.86 -14.17,-13.86l-89.01 0 0 -553.98 89.01 0c9.35,0 14.17,-4.85 14.17,-14.34l0 -37.32z"
   id="glyph103" />
   <glyph
   unicode="K"
   horiz-adv-x="518"
   d="M503.67 37c0,-3.67 -2.18,-7 -6.83,-10.32l-45.84 -31.84c-4.02,-2.49 -7,-3.85 -9.35,-3.85 -2.81,0 -6.17,2.36 -9.67,6.83l-254 327.35 0 -311c0,-9.49 -4.64,-14.17 -14.14,-14.17l-54.19 0c-9.15,0 -13.65,4.68 -13.65,14.17l0 657.65c0,9.53 4.5,14.17 13.65,14.17l54.19 0c9.49,0 14.14,-4.64 14.14,-14.17l0 -324.65 256.84 340c4.02,5.16 7.17,7.83 9.84,7.83 2.32,0 5.34,-1.66 9.32,-4.82l37 -25.02c5.16,-3.5 7.83,-7 7.83,-10.15 0,-2.36 -1.66,-5.68 -4.82,-9.84l-235.33 -304.34 240.14 -295.16c3.36,-3.15 4.85,-6.17 4.85,-8.66z"
   id="glyph104" />
   <glyph
   unicode="M"
   horiz-adv-x="667"
   d="M592.99 9.84c0,-6.51 -4.16,-9.84 -12.65,-9.84l-58.17 0c-9.18,0 -13.82,4.33 -14.17,13.17l-15 512.68c0,-5.86 1,11.33 2.84,51.31l1 19.99c-4.5,-31.15 -11.5,-60.67 -21,-88.32l-117.18 -337.99c-2.67,-7.17 -7.52,-10.67 -14.66,-10.67l-29.35 0c-7.52,0 -12.51,3.5 -15,10.67l-112.85 337.99c-8.84,26.33 -15.14,55.82 -18.99,88.32l0 -18.99 1.84 -38.18 0 -18.99 -14.66 -507.83c0,-8.84 -4.33,-13.17 -12.85,-13.17l-54.33 0c-6.34,0 -10.15,0.83 -11.68,2.49 -1.49,1.49 -2.15,4.02 -2.15,7.35l0 4.33 37.66 658.65c0.66,8.84 5.34,13.17 14.17,13.17l59.14 0c7.52,0 12.51,-3.64 15,-11.16l117.84 -344.85c6.86,-19.82 11.68,-40.47 14.17,-61.98 1.35,11.5 5.68,32.15 13.17,61.98l118.84 344.85c2.67,7.52 7.66,11.16 15.18,11.16l62.99 0c8.18,0 12.51,-4.33 13.17,-13.17l37.66 -662.98z"
   id="glyph105" />
   <glyph
   unicode="P"
   horiz-adv-x="481"
   d="M466.01 502.01c0,-91.85 -33.19,-155.19 -99.68,-190.01 -28.48,-14.66 -67.15,-22 -116.49,-22l-71.86 0 0 -275.83c0,-9.49 -4.64,-14.17 -14.14,-14.17l-54.19 0c-9.15,0 -13.65,4.68 -13.65,14.17l0 657.65c0,9.53 4.5,14.17 13.65,14.17l153.52 0c59.66,0 102.31,-7.66 127.99,-22.97 49.82,-29.87 74.84,-83.67 74.84,-161.01zm-84.02 -1c0,57.48 -18.64,93.48 -55.82,107.65 -13.69,5.51 -37.18,8.35 -70.33,8.35l-77.85 0 0 -255.01 66 0c43.69,0 75.01,7.66 94,23.01 29.35,23.66 44,62.33 44,116z"
   id="glyph106" />
   <glyph
   unicode="R"
   horiz-adv-x="518"
   d="M504.68 8.49c0,-2.81 -3.85,-5.16 -11.68,-6.83l-61.01 -11.68 -5.47 0c-4.5,0 -8,2.67 -10.67,7.83l-162.19 313.18 -75.67 0 0 -296.83c0,-9.49 -4.64,-14.17 -14.14,-14.17l-54.19 0c-9.15,0 -13.65,4.68 -13.65,14.17l0 657.65c0,9.53 4.5,14.17 13.65,14.17l153.52 0c57,0 98.99,-7 125.98,-21 49.82,-25.99 74.84,-75.98 74.84,-149.99 0,-102.18 -43.34,-168.01 -130.17,-197.35l167 -297.83c2.49,-4.99 3.85,-8.66 3.85,-11.33zm-124.66 499.69c0,59 -21.52,94.66 -64.51,106.99 -11.5,3.15 -30.66,4.82 -57.83,4.82l-79.69 0 0 -246 76.85 0c36.17,0 63.51,7.69 82.15,22.83 28.69,23.35 43.03,60.53 43.03,111.36z"
   id="glyph107" />
   <glyph
   unicode="S"
   horiz-adv-x="481"
   d="M438.99 182.35c0,-58.69 -19.33,-106.02 -58.14,-142.19 -38.67,-36.17 -89.36,-54.15 -151.86,-54.15 -37.49,0 -78.3,7 -122.48,21 -44.35,14 -66.52,26.99 -66.52,39.01 0,1.97 0.69,4.64 2.01,8.32l19.02 47.68c1.32,3.33 3.5,4.99 6.83,4.99 2.98,0 8.66,-2.32 17.15,-6.83 51,-28.17 99.33,-42.17 145,-42.17 36.69,0 66.35,10.32 88.52,31.01 22.31,20.65 33.47,47.99 33.47,81.84 0,30.49 -8.49,55.99 -25.33,76.16 -16.98,20.16 -50.17,44.31 -99.65,72.66 -65.35,37.84 -107.34,67.18 -126.01,88.35 -26.68,30.32 -39.98,67.32 -39.98,110.84 0,53.15 18.33,96.49 54.99,130.31 36.48,33.85 83.85,50.83 141.85,50.83 33.47,0 69.64,-6.31 108.48,-19.16 39.01,-12.82 58.52,-24.5 58.52,-34.99 0,-1.84 -0.69,-4.5 -2.01,-7.66l-18.02 -45.35c-1.66,-3.98 -4.33,-5.82 -7.83,-5.82 -1.32,0 -15.66,6.65 -43,19.99 -30.32,14.69 -62.68,22 -97.15,22 -34.51,0 -61.5,-8.66 -80.83,-26.16 -19.33,-17.32 -29,-41.68 -29,-73 0,-35.65 13.34,-63.99 39.98,-84.82 7.17,-5.68 47.19,-30.52 120.16,-74.84 48.19,-28.52 81.01,-55.33 98.68,-80 22.17,-30.66 33.16,-66.52 33.16,-107.82z"
   id="glyph108" />
   <glyph
   unicode="V"
   horiz-adv-x="481"
   d="M467.67 673l-1 -8.84 -176.84 -652.83c-1.84,-7.48 -7,-11.33 -15,-11.33l-69.81 0c-8.18,0 -13.34,3.67 -15.18,11.16l-173.83 652.17c-1.35,4.85 -2.01,7.35 -2.01,7.66 0,3.36 3.85,6.51 11.68,9.35l59.14 13.65c1.35,0.66 2.84,1 4.85,1 3.67,0 6.34,-3.85 8.32,-11.68l127.02 -529.49c2.84,-12.68 6.51,-31.18 10.67,-55.68l4.33 -23.01c6.34,35.86 11.16,61.5 14.66,76.85l131.35 532.15c1.66,7.17 4.64,10.84 8.84,10.84 3.98,0 6.48,-0.35 7.83,-1l54.15 -12.65c7.17,-2.01 10.84,-4.85 10.84,-8.35z"
   id="glyph109" />
   <glyph
   unicode="W"
   horiz-adv-x="684"
   d="M663.16 671.99c0,-1 -0.31,-2.32 -1,-3.81l0 -4.02 -138.14 -652c-1.66,-8.18 -6.69,-12.16 -15.18,-12.16l-66 0c-8,0 -12.68,3.98 -13.65,12.16l-86.34 552.84 -104.01 -552.84c-1.32,-8.18 -6.17,-12.16 -14.66,-12.16l-61.01 0c-8.49,0 -13.48,3.98 -15.14,12.16l-125.01 653.84c-0.66,3.67 -1,6.17 -1,7.83 0,4.02 3.98,6.69 12.16,8.35l51.83 9.84c3.5,0.66 6.34,0.97 8.35,0.97 3.81,0 6.48,-3.81 7.66,-11.64l86 -494.35c4.16,-23.98 7.17,-65.66 8.84,-125.01 2.01,28.69 5.99,69.36 12.16,122.03l97.19 489.81c1.66,8.18 6.48,12.16 14.66,12.16l53.15 0c8.84,0 13.86,-3.98 15.18,-12.16l82.01 -493.66c3.98,-23.84 7.48,-64.51 10.81,-121.99 0.69,27.65 3.67,68.33 9.35,121.99l91.68 501.18c1.32,7.83 4.33,11.64 8.8,11.64 1.7,0 4.02,-0.31 7.35,-0.97l51.83 -10.67c8,-2.01 12.16,-5.16 12.16,-9.35z"
   id="glyph110" />
   <glyph
   unicode="a"
   horiz-adv-x="462"
   d="M405.65 24.67c0,-2.01 -1.32,-3.5 -3.81,-4.85l-43 -26.82c-2.67,-2.01 -5.16,-3.01 -7.83,-3.01 -12.68,0 -25.36,21 -38.18,63.02 -42.82,-42.03 -90.67,-63.02 -142.99,-63.02 -40.33,0 -72.52,12.33 -96.18,36.83 -23.84,24.67 -35.65,58 -35.65,100.03 0,112.99 88,170.99 263.98,174l0 33.16c0,31.98 -7.17,54.85 -21.31,68.5 -14.17,13.65 -37.7,20.51 -70.68,20.51 -33.16,0 -73,-9.67 -119.15,-29 -2.67,-1.18 -5.02,-1.84 -6.86,-1.84 -3.64,0 -5.99,1.49 -6.83,4.82l-15.18 40.02 -0.97 7.66c0,4.99 8.84,11.33 26.82,18.99 41.33,18.19 85.82,27.34 133.32,27.34 103.84,0 155.85,-46.67 155.85,-140.15l0 -189c0,-55.33 8.84,-99.02 26.68,-131.35 1.32,-2.15 1.97,-4.16 1.97,-5.82zm-103.67 85.16l0 128.99c-124.66,-1 -186.99,-36.31 -186.99,-105.99 0,-23.49 6.83,-42.51 20.51,-57.34 13.65,-14.83 31.32,-22.35 52.66,-22.35 33.33,0 71.17,19.02 113.82,56.68z"
   id="glyph111" />
   <glyph
   unicode="b"
   horiz-adv-x="500"
   d="M450 271.98c0,-190.67 -60.84,-285.98 -182.66,-285.98 -46.32,0 -89.01,16.32 -128.16,49.16 -12.02,-30.18 -22.83,-45.18 -32.36,-45.18 -1.97,0 -4.47,1 -7.83,3.01l-43 26.82c-1.97,1.84 -2.98,3.5 -2.98,4.85 0.31,2.67 1.32,4.99 2.98,7.35 18.68,24.5 28,59.49 28,104.98l0 561.15c0,6.86 3.67,11.02 11.19,12.68l51.66 12.16c0.66,0.66 2.98,1 6.83,1 4.16,0 6.34,-3.67 6.34,-11.16l0 -268c47.33,32.81 91.82,49.16 133.32,49.16 104.5,0 156.68,-74.01 156.68,-222.02zm-82.01 -10.64c0,110.49 -29.83,165.65 -89.32,165.65 -32.5,0 -72.17,-16.32 -118.67,-48.82l0 -285.5c29.66,-25.85 64.34,-38.67 104.01,-38.67 69.33,0 103.98,69.16 103.98,207.33z"
   id="glyph112" />
   <glyph
   unicode="c"
   horiz-adv-x="408"
   d="M398.17 430.15l-1 -6.31 -22 -39.01c-2.49,-4.68 -5.16,-6.83 -7.83,-6.83 -2.84,0 -5.68,1.18 -8.18,3.81 -40.64,30.18 -74.98,45.18 -103.01,45.18 -80.83,0 -121.16,-61.98 -121.16,-185.82 0,-124.84 37.18,-187.17 111.36,-187.17 22.14,0 43,4.47 62.5,13.65 11.33,5.68 29.83,17.32 55.16,35.34 2.98,2.01 5.34,2.98 7.31,2.98 2.67,0 4.85,-1.97 6.86,-5.82l15.14 -38.18c1.66,-4.16 2.53,-7.48 2.84,-10.15 0,-4.5 -5.34,-10.67 -16.01,-18.5 -42.65,-31.49 -89.32,-47.33 -139.66,-47.33 -59.66,0 -106.16,21.48 -139.49,64.34 -33.33,43 -50,102.49 -50,178.64 0,82.01 18.16,146.66 54.5,194.03 36.17,47.33 85.82,70.99 148.67,70.99 44.14,0 84.99,-12.99 121.99,-39.01 14.66,-10.5 22,-18.68 22,-24.84z"
   id="glyph113" />
   <glyph
   unicode="d"
   horiz-adv-x="500"
   d="M448.51 23.66c0,-2.01 -1.84,-3.85 -5.34,-5.82l-45.01 -24.84c-2.01,-2.01 -4.5,-3.01 -7.83,-3.01 -12.02,0 -23.01,20.03 -33.16,59.84 -56.68,-42.48 -106.33,-63.82 -149.02,-63.82 -49.16,0 -87.49,23.01 -115.34,68.84 -27.82,45.8 -41.82,109.31 -41.82,190.32 0,76.68 16.01,137.34 48.16,182 32.01,44.49 75.67,66.84 131,66.84 34.51,0 71.17,-10.67 109.83,-32.01l0 236.16c0,6.17 3.33,10.36 10.19,12.68l51.66 12.16c1.32,0.66 3.5,1 6.34,1 4.47,0 6.83,-3.67 6.83,-11.16l0 -554.85c0,-52.14 8.32,-91.5 25.15,-118.15 5.51,-8.52 8.35,-13.86 8.35,-16.18zm-108.52 88l0 283.49c-37,21.17 -70.82,31.84 -101.48,31.84 -37.35,0 -64.17,-14 -80.69,-41.82 -16.49,-27.86 -24.81,-73.18 -24.81,-136.17 0,-69.02 7.14,-118.84 21.65,-149.33 14.34,-30.52 38.18,-45.67 71.17,-45.67 34.99,0 73,19.16 114.16,57.65z"
   id="glyph114" />
   <glyph
   unicode="e"
   horiz-adv-x="462"
   d="M431.99 241.01c0,-12.02 -3.64,-18.02 -11.16,-18.02l-287.82 0c5.16,-112.67 49.34,-168.98 132.32,-168.98 35.51,0 74.01,11.99 115.65,35.83 3.67,1.97 7,2.98 10.36,2.98 2.32,0 4.5,-1.66 6.83,-4.99l17.98 -39.01c1.35,-2.81 2.01,-5.16 2.01,-6.83 0,-7.31 -11.99,-16.67 -36.17,-27.65 -39.67,-18.85 -80.66,-28.34 -123,-28.34 -63.47,0 -113.99,22.83 -151.65,68.5 -37.49,45.84 -56.34,107.17 -56.34,184.33 0,77.99 17.84,140.01 53.5,186.16 35.83,46.01 83.85,69.02 144.17,69.02 83.67,0 139.84,-40.02 168.18,-120.16 10.15,-28.34 15.14,-72.52 15.14,-132.84zm-81.98 44c-2.36,98.64 -38.01,147.98 -107.34,147.98 -68.84,0 -105.33,-49.34 -109.66,-147.98l217 0z"
   id="glyph115" />
   <glyph
   unicode="f"
   horiz-adv-x="295"
   d="M341.66 688.83c0,-0.66 -0.66,-2.49 -2.01,-5.82l-16.49 -41.02c-1.32,-3.81 -3.81,-5.82 -7.31,-5.82 -2.67,0 -5.86,1 -9.84,3.01 -28.83,13.82 -54.5,20.82 -77.02,20.82 -24.98,0 -42.17,-9.84 -51.14,-29.35 -5.86,-11.64 -8.84,-36.17 -8.84,-73.66l0 -76.99 143.82 0c7.48,0 11.33,-2.36 11.33,-6.83 0,-2.67 -0.35,-4.68 -1,-6.34l-13.17 -40.02c-2.01,-5.82 -6.34,-8.84 -13.17,-8.84l-127.82 0 0 -405.83c0,-6.17 -1,-9.67 -3.01,-10.67 -1.84,-1 -4.5,-1.49 -7.83,-1.49l-53.32 0c-5.02,0 -8,0.83 -9.18,2.67 -1.18,1.84 -1.66,4.99 -1.66,9.49l0 405.83 -66.32 0c-5.86,0 -9.18,1 -10.19,3.01 -1,1.84 -1.49,4.68 -1.49,8.18l0 38.67c0,6.17 1.32,9.81 3.81,11.16 1.35,0.66 4.02,1 7.87,1l66.32 0 0 77.99c0,54.15 8.66,92.68 25.85,115.65 25.15,33.5 62.5,50.34 111.98,50.34 23.35,0 47.5,-3.98 72.52,-11.99 24.81,-7.83 37.32,-15.66 37.32,-23.18z"
   id="glyph116" />
   <glyph
   unicode="g"
   horiz-adv-x="500"
   d="M446.99 461.82c0,-2.15 -1.97,-6.48 -5.82,-12.65 -16.84,-26.33 -25.15,-60.01 -25.15,-101l0 -154.36c0,-47.16 1.66,-104.15 4.99,-170.99 1.32,-26.68 2.01,-45.67 2.01,-57 0,-117.84 -59.18,-176.84 -177.67,-176.84 -53.67,0 -103.67,12.33 -149.85,37.18 -12.16,6.17 -18.16,11.68 -18.16,16.49 0,1 0.66,3.5 2.01,7.35l17.98 40.16c1,3.85 3.01,5.82 5.86,5.82 2.32,0 4.99,-1 7.83,-2.98 47.16,-25.33 90.81,-38.01 131.14,-38.01 43.69,0 73.83,12.16 90.67,36.35 10.19,14 15.18,38.32 15.18,73 0,7 -0.35,24.15 -1,51.49l-1 52.01c-44.49,-36.52 -90.81,-54.85 -139.01,-54.85 -47.64,0 -85.48,19.85 -113.33,59.49 -27.82,39.84 -41.65,93.86 -41.65,162.19 0,82.98 16.49,147.01 49.34,191.98 32.81,44.83 79.48,67.35 140.15,67.35 40.68,0 80.83,-14 120.5,-41.85 12.16,30.52 21.52,45.84 28.34,45.84 2.98,0 5.51,-0.66 7.83,-1.97l46.01 -28.34c1.8,-0.83 2.81,-2.84 2.81,-5.86zm-105.99 -331.99l0 269.84c-37,18.85 -68.01,28.34 -93.34,28.34 -75.84,0 -113.64,-58 -113.64,-174.17 0,-60.84 7,-104.84 20.82,-132.01 14,-27.16 36.66,-40.81 68.15,-40.81 33.68,0 73,16.32 118.01,48.82z"
   id="glyph117" />
   <glyph
   unicode="h"
   horiz-adv-x="518"
   d="M436.01 12.16c0,-6.17 -1,-9.67 -3.01,-10.67 -1.84,-1 -4.64,-1.49 -8.14,-1.49l-52.7 0c-4.82,0 -7.97,0.83 -9.15,2.67 -1.35,1.84 -2.01,4.99 -2.01,9.49l0 332.17c0,31.18 -4.99,52.84 -14.83,65.17 -10.01,12.33 -28,18.5 -54.15,18.5 -36.83,0 -80.83,-21 -132.01,-62.85l0 -352.99c0,-6.17 -1.35,-9.84 -3.85,-11.16 -1.32,-0.66 -3.81,-1 -7.31,-1l-52.66 0c-4.85,0 -8,0.83 -9.18,2.67 -1.32,1.84 -2.01,4.99 -2.01,9.49l0 685.99c0,6.17 3.33,10.36 10.19,12.68l51.66 12.16c0.66,0.66 2.98,1 6.83,1 4.16,0 6.34,-3.67 6.34,-11.16l0 -284.66c48.51,43.83 100.17,65.83 154.84,65.83 53.5,0 89.49,-19.51 108.48,-58.52 8.52,-17.98 12.68,-48.82 12.68,-92.82l0 -330.5z"
   id="glyph118" />
   <glyph
   unicode="i"
   horiz-adv-x="258"
   d="M191.01 658.17c0,-16.84 -5.86,-31.32 -17.5,-43.34 -11.85,-11.81 -26.02,-17.81 -42.51,-17.81 -17.01,0 -31.32,5.82 -43.17,17.67 -11.81,11.64 -17.84,26.33 -17.84,43.48 0,16.67 6.03,30.84 18.02,42.51 12.16,11.5 26.68,17.32 44,17.32 16.15,0 30.14,-5.82 41.65,-17.67 11.5,-11.68 17.36,-25.85 17.36,-42.17zm-15 -646.01c0,-6.17 -0.83,-9.67 -2.67,-10.67 -1.84,-1 -4.5,-1.49 -8.18,-1.49l-53.32 0c-5.02,0 -8,0.83 -9.18,2.67 -1.18,1.84 -1.66,4.99 -1.66,9.49l0 405.83 -79.83 0c-5.82,0 -9.32,1 -10.5,3.01 -1.18,1.84 -1.66,4.68 -1.66,8.18l0 38.67c0,6.17 1.32,9.81 3.81,11.16 1.66,0.66 4.5,1 8.35,1l144.17 0c4.82,0 7.83,-0.83 9.01,-2.67 1.14,-1.84 1.66,-5.02 1.66,-9.49l0 -455.69z"
   id="glyph119" />
   <glyph
   unicode="j"
   horiz-adv-x="258"
   d="M191.01 658.17c0,-16.84 -5.86,-31.32 -17.5,-43.34 -11.85,-11.81 -26.02,-17.81 -42.51,-17.81 -17.01,0 -31.32,5.82 -43.17,17.67 -11.81,11.64 -17.84,26.33 -17.84,43.48 0,16.67 6.03,30.84 18.02,42.51 12.16,11.5 26.68,17.32 44,17.32 15.83,0 29.66,-5.99 41.51,-17.84 11.64,-11.99 17.5,-25.99 17.5,-41.99zm-16.01 -711.49c0,-52.35 -11.02,-90.67 -32.85,-114.68 -26.64,-29.31 -63.82,-44 -111.5,-44 -24.32,0 -51,4.5 -79.65,13.51 -28.69,8.84 -43,17.5 -43,25.67 0,2.15 0.66,4.82 1.97,7.83l19.02 39.98c1.32,3.85 3.98,5.86 7.83,5.86 0.66,0 2.98,-0.69 6.83,-2.01 31.01,-16.49 61.01,-24.84 90.33,-24.84 30.35,0 49.51,11.16 57.69,33.33 5.47,13.69 8.32,38.84 8.32,75.67l0 454.99 -80.17 0c-7.48,0 -11.33,3.67 -11.33,11.19l0 38.67c0,8.14 3.85,12.16 11.33,12.16l144.34 0c4.99,0 8,-0.83 9.18,-2.67 1.14,-1.84 1.66,-5.02 1.66,-9.49l0 -521.17z"
   id="glyph120" />
   <glyph
   unicode="k"
   horiz-adv-x="443"
   d="M429.18 36c0,-2.01 -1.66,-4.82 -5.34,-8.32l-41.02 -30.84c-3.33,-2.53 -5.82,-3.85 -7.83,-3.85 -1.32,0 -3.33,1.32 -5.82,3.85l-209.17 250.16 0 -234.84c0,-6.17 -1.35,-9.84 -3.85,-11.16 -1.32,-0.66 -3.81,-1 -7.31,-1l-52.66 0c-4.85,0 -8,0.83 -9.18,2.67 -1.32,1.84 -2.01,4.99 -2.01,9.49l0 685.99c0,6.17 3.33,10.36 10.19,12.68l51.66 12.16 6.83 1c4.16,0 6.34,-3.67 6.34,-11.16l0 -453.02 200.82 225.83c3.5,4.19 7,6.34 10.36,6.34 2.49,0 5.47,-1.49 8.66,-4.33l38.15 -25.02c3.36,-3.15 4.85,-6.13 4.85,-8.66 0,-2.67 -1.49,-5.82 -4.85,-9.32l-170.81 -185.99 178.64 -214.85c2.36,-2.01 3.36,-4.68 3.36,-7.83z"
   id="glyph121" />
   <glyph
   unicode="l"
   horiz-adv-x="258"
   d="M272.85 14c0,-5.16 -9.53,-10.5 -28.69,-16.01 -19.33,-5.34 -38.01,-8 -56.16,-8 -58,0 -91.99,23.35 -102.18,69.85 -3.15,15.31 -4.82,56.34 -4.82,123l0 516.32c0,6.86 3.67,10.67 10.81,11.68l51.52 12.16c0.49,0.66 2.84,1 6.83,1 3.85,0 5.82,-3.67 5.82,-11.16l0 -530.49c0,-51.87 0.87,-82.53 2.53,-92.34 3.15,-25.36 16.8,-38.01 40.81,-38.01 14,0 29,3.98 44.83,11.99 3.85,1.35 6.51,2.01 7.83,2.01 2.18,0 4.5,-2.32 6.83,-7l12.2 -37.18c1.14,-4.16 1.84,-6.83 1.84,-7.83z"
   id="glyph122" />
   <glyph
   unicode="m"
   horiz-adv-x="722"
   d="M641.02 12.16c0,-6.17 -1,-9.67 -3.19,-10.67 -2.15,-1 -5.16,-1.49 -9.01,-1.49l-50.65 0c-6.17,0 -9.84,1.32 -11.16,3.85 -0.66,1.66 -1,4.5 -1,8.32l0 342.84c0,48.68 -21.34,73 -63.99,73 -28.34,0 -62.33,-13.34 -102,-40.02l0 -375.82c0,-6.17 -1,-9.67 -3.01,-10.67 -1.84,-1 -4.5,-1.49 -7.83,-1.49l-52.32 0c-5.02,0 -8,0.83 -9.18,2.67 -1.18,1.84 -1.66,4.99 -1.66,9.49l0 341.83c0,49.34 -21.34,74.01 -63.99,74.01 -29.83,0 -63.16,-14.34 -99.99,-42.82l0 -373.02c0,-6.17 -1,-9.67 -3.19,-10.67 -2.15,-1 -5.16,-1.49 -9.01,-1.49l-50.65 0c-6.17,0 -9.67,1.32 -10.67,3.85 -1,1.66 -1.49,4.5 -1.49,8.32l0 358.85c0,28 -5.99,55.99 -18.02,83.81 -0.66,0.69 -0.97,2.36 -0.97,5.02 0,2.81 1.66,4.82 4.82,5.82l40.02 22.83c3.64,2.32 6.65,3.5 9.32,3.5 10.15,0 19.68,-18.99 28.83,-57 50.34,39.33 97.19,59 140.01,59 46.5,0 78.17,-19.68 94.66,-59 55.33,39.33 104.01,59 146.01,59 43.66,0 74.01,-14.66 91.33,-44 11.99,-20.51 18.02,-52.84 18.02,-97.01l0 -340.83z"
   id="glyph123" />
   <glyph
   unicode="n"
   horiz-adv-x="518"
   d="M437.01 12.16c0,-6.17 -1,-9.67 -3.01,-10.67 -1.84,-1 -4.68,-1.49 -8.18,-1.49l-52.66 0c-4.82,0 -8,0.83 -9.15,2.67 -1.35,1.84 -2.01,4.99 -2.01,9.49l0 333c0,55.16 -22,82.84 -66,82.84 -42.34,0 -86.34,-21 -132.01,-62.85l0 -352.99c0,-6.17 -0.97,-9.67 -2.98,-10.67 -1.84,-1 -4.68,-1.49 -8.18,-1.49l-52.66 0c-4.82,0 -8,0.83 -9.18,2.67 -1.32,1.84 -1.97,4.99 -1.97,9.49l0 342.67c0,36.52 -6.34,68.5 -19.02,96.18 -1,2.67 -1.66,4.5 -1.97,5.82 0,3.01 1.66,4.85 4.82,5.82l45.49 25.85c3.19,2.32 5.86,3.5 7.69,3.5 12.82,0 22.97,-22 30.84,-66.18 56.65,45.53 110.32,68.19 160.97,68.19 49.51,0 83.5,-16.18 102.18,-48.33 11.33,-19.16 17.01,-52.66 17.01,-100.51l0 -333z"
   id="glyph124" />
   <glyph
   unicode="o"
   horiz-adv-x="500"
   d="M450 243.16c0,-81.01 -18.16,-144.17 -54.33,-189.31 -36.17,-45.18 -86.52,-67.84 -150.99,-67.84 -61.36,0 -108.86,22.17 -142.85,66.32 -33.82,44.35 -50.83,106.19 -50.83,185.5 0,81.01 18.16,144 54.33,188.83 36.17,44.83 86.52,67.35 150.99,67.35 60.67,0 108.17,-22.17 142.33,-66.66 34.16,-44.35 51.35,-105.85 51.35,-184.19zm-82.01 1c0,124.49 -39.5,186.85 -118.49,186.85 -77.68,0 -116.49,-61.01 -116.49,-183.01 0,-68.84 10.32,-120.68 30.97,-155.19 17.5,-29.14 46.67,-43.83 87.52,-43.83 39.15,0 67.32,14 84.51,41.99 21.31,34.51 31.98,85.51 31.98,153.18z"
   id="glyph125" />
   <glyph
   unicode="p"
   horiz-adv-x="500"
   d="M450 249.98c0,-81.98 -14.83,-146.49 -44.49,-193.47 -29.87,-47.02 -70.33,-70.51 -122.03,-70.51 -37.49,0 -76.99,14.66 -118.49,43.83l0 -213.98c0,-7.17 -2.98,-11.36 -9.15,-12.68l-52.66 -14.17c-2.36,-0.66 -4.19,-1 -5.86,-1 -4.82,0 -7.31,3.5 -7.31,10.67l0 543c0,43.66 -6.69,76.02 -20.16,97.19 -6.51,10.81 -9.84,17.15 -9.84,19.16 0,2.15 1,3.81 2.98,4.82l43 30.18c2.01,2.01 4.5,3.01 7.83,3.01 10.84,0 23.18,-20.03 37.18,-60.01 50.52,38.67 98.68,58 144.34,58 58.17,0 98.5,-23.18 121.34,-69.33 22.17,-44.18 33.33,-102.52 33.33,-174.69zm-82.01 -1.97c0,57.17 -4.99,99.51 -15.18,127.16 -12.3,34.51 -36.31,51.83 -72.14,51.83 -29.69,0 -68.19,-16.32 -115.69,-48.82l0 -282.17c41.68,-28 77.99,-41.99 108.83,-41.99 34.16,0 58.35,14.83 72.69,44.49 14.31,29.66 21.48,79.48 21.48,149.5z"
   id="glyph126" />
   <glyph
   unicode="q"
   horiz-adv-x="500"
   d="M441.17 460.85c0,-1.35 -2.01,-6.34 -5.99,-15.18 -14.83,-31.84 -22.17,-64.69 -22.17,-98.68l0 -530.32c0,-8.7 -3.01,-14.17 -9.18,-16.01l-53.63 -15.66c-2.36,-0.69 -4.37,-1 -6.34,-1 -4.5,0 -6.86,3.67 -6.86,10.67l0 250.33c-42.3,-39.33 -86.13,-59 -131.8,-59 -47.19,0 -84.51,22.17 -112.02,66.66 -27.51,44.35 -41.16,104.5 -41.16,180.34 0,81.84 15.31,145.83 46.15,191.98 30.66,46.01 73.52,69.02 128.16,69.02 43.69,0 87.52,-16.01 131.83,-48.16 10.67,33.5 21.17,50.17 31.18,50.17 1.32,-0.35 3.01,-1 4.99,-2.01l41.99 -24.84c3.19,-2.32 4.85,-4.99 4.85,-8.32zm-104.19 -350.18l0 278.67c-38.15,25.15 -72.97,37.66 -104.32,37.66 -65.83,0 -98.64,-61.67 -98.64,-184.85 0,-69.33 8.97,-119.5 27.16,-150.47 14.66,-25.19 36.14,-37.66 64.65,-37.66 31.67,0 68.84,18.81 111.15,56.65z"
   id="glyph127" />
   <glyph
   unicode="r"
   horiz-adv-x="332"
   d="M333.17 478c0,-1.66 -0.66,-3.98 -2.01,-6.83l-24.01 -56.16c-0.97,-1.84 -2.67,-2.84 -5.3,-2.84 -0.35,0 -5.86,1.66 -16.7,4.82 -6.83,1.35 -12.47,2.01 -16.98,2.01 -22.17,0 -55.16,-25.33 -99.16,-76.16l0 -330.68c0,-6.17 -1,-9.67 -3.01,-10.67 -1.84,-1 -4.5,-1.49 -7.83,-1.49l-53.32 0c-5.02,0 -8,0.83 -9.18,2.67 -1.18,1.84 -1.66,4.99 -1.66,9.49l0 299.84c0,34.65 -0.83,57.52 -2.32,68.33 -3.01,22.66 -10.19,44.52 -21.83,65.35 -2.53,4.82 -3.85,8.32 -3.85,10.32 0,3.85 1.66,6.83 4.82,8.66l42.03 26.33c3.33,2.01 5.99,3.01 8.32,3.01 5.82,0 12.85,-8.66 20.82,-26.02 7.83,-17.5 13.69,-36.31 17.36,-56.82 31.15,34.99 54.33,57.65 69.5,67.67 15.14,10.19 33.33,15.18 54.5,15.18 11.33,0 22.49,-1.84 33.33,-5.34 10.98,-3.67 16.49,-7.17 16.49,-10.67z"
   id="glyph128" />
   <glyph
   unicode="s"
   horiz-adv-x="389"
   d="M349.01 127.99c0,-42.3 -14.66,-76.5 -44,-102.66 -29.17,-26.16 -67.67,-39.33 -115.17,-39.33 -54.33,0 -103.67,12.99 -148.01,39.01 -3.81,2.32 -5.82,5.3 -5.82,9.32 0,0.83 0.35,2.15 1,3.85l18.99 43.83c1,2.67 3.01,3.98 5.86,3.98 1.32,0 3.98,-0.66 7.83,-2.01 45.67,-22.66 86.31,-33.99 122.17,-33.99 24.15,0 43.48,6.69 58.14,19.99 14.69,13.34 22,30.84 22,52.18 0,31.01 -21.31,56.34 -63.99,76.16 -55.82,25.67 -93.17,46.19 -111.67,61.5 -30.84,25.33 -46.32,57 -46.32,95.18 0,40.68 14.17,74.01 42.69,99.99 28.48,26.02 65,39.01 109.49,39.01 25.99,0 53.98,-4.85 83.85,-14.66 29.97,-9.67 44.97,-18.85 44.97,-27.34 0,-1.84 -0.66,-4.33 -1.97,-7.17l-18.02 -36.66c-2.49,-4.19 -5.65,-6.34 -9.15,-6.34 0,0 -2.67,0.66 -7.87,1.97 -36.31,17.53 -67.32,26.19 -93.17,26.19 -50.48,0 -75.81,-22.52 -75.81,-67.35 0,-20.16 6.65,-36.48 19.99,-48.82 9.01,-8.35 43.83,-27.51 104.32,-57 37,-18.02 62.85,-36.35 77.51,-55.51 14.83,-18.99 22.17,-43.52 22.17,-73.35z"
   id="glyph129" />
   <glyph
   unicode="t"
   horiz-adv-x="332"
   d="M343.01 29.66c0,-7.83 -15.18,-16.32 -45.67,-25.67 -30.52,-9.32 -58.52,-14 -84.33,-14 -62.5,0 -101,24.36 -115.69,72.83 -4.16,13.69 -6.34,38.01 -6.34,73.35l0 281.82 -70.82 0c-8.18,0 -12.16,3.67 -12.16,11.19l0 38.67c0,6.17 1.32,9.81 3.85,11.16 1.66,0.66 4.47,1 8.32,1l70.82 0 0 137.17c0,6.83 3.36,11.16 10.19,12.65l51.66 14.17c3.67,1.35 5.68,2.01 6.34,2.01 4.5,0 6.83,-4.02 6.83,-12.16l0 -153.84 150.16 0c6.17,0 9.18,-2.36 9.18,-6.83 0,-1.7 -0.35,-3.67 -1,-6.34l-11.16 -38.49c-2.01,-6.86 -6.69,-10.36 -14.17,-10.36l-133.01 0 0 -281.17c0,-31.81 3.33,-52.14 9.84,-60.81 10.32,-13.34 27.16,-20.03 50.34,-20.03 20.82,0 50.83,8 89.81,24.18 3.36,1.14 5.86,1.84 7.52,1.84 3.5,0 5.82,-2.01 6.83,-5.86l10.67 -41.16c1.32,-2.84 2.01,-4.68 2.01,-5.34z"
   id="glyph130" />
   <glyph
   unicode="u"
   horiz-adv-x="500"
   d="M451.01 23.01c-0.66,-0.83 -2.18,-2.49 -4.5,-4.85l-44.83 -29.14c-3.01,-2.01 -5.34,-3.01 -6.83,-3.01 -10.84,0 -22.52,19.99 -35.17,59.84 -51.83,-39.84 -101.83,-59.84 -150.02,-59.84 -91.16,0 -136.65,44.66 -136.65,134.16l0 344.5c0,6.83 3.33,11.33 9.84,13.17l52.01 14.17c2.49,0.66 4.64,1 6.31,1 4.5,0 6.86,-3.67 6.86,-11.16l0 -312.18c0,-43.83 5.16,-74.18 15.66,-90.85 10.32,-16.49 29.17,-24.81 56.48,-24.81 43.52,0 85.51,16.98 125.84,50.83l0 359.82c0,7.17 3.19,11.5 9.67,13.17l52.84 14.17c2.18,0.66 4.16,1 5.68,1 4.5,0 6.83,-3.67 6.83,-11.16l0 -349.01c0,-43.17 9.01,-77.51 26.99,-102.83 2.01,-2.67 3.01,-4.99 3.01,-7z"
   id="glyph131" />
   <glyph
   unicode="v"
   horiz-adv-x="425"
   d="M423.01 466.67c0,-1.35 -0.69,-3.67 -2.01,-6.83l-182.18 -458.01c-2.15,-5.82 -6.48,-8.84 -12.65,-8.84l-38.18 0c-6.51,0 -10.84,3.01 -13.17,8.84l-168.84 460.81c-1.32,2.67 -2.01,4.68 -2.01,6.34 0,3.85 3.5,6.51 10.36,7.83l59 13.17 2.98 0c3.19,0 5.82,-3.15 7.66,-9.32l107.03 -326.83c1.97,-4.33 4.33,-11.33 7.31,-21l11.68 -41.99c5.34,20.48 11.68,40.99 19.16,61.81l119.19 328.18c1.84,6.17 4.47,9.15 7.66,9.15 1.32,0 3.33,-0.31 5.99,-0.97l52.18 -14.17c5.82,-1.52 8.84,-4.33 8.84,-8.18z"
   id="glyph132" />
   <glyph
   unicode="w"
   horiz-adv-x="610"
   d="M600.17 469.51c0,-1.35 -0.35,-2.84 -1,-4.5l-1 -2.84 -132.32 -459.32c-1.84,-6.51 -5.82,-9.84 -11.68,-9.84l-38.98 0c-6.17,0 -10.36,3.33 -12.33,9.84l-78.51 303.34c-3.33,11.64 -5.99,25.99 -8.35,43l-1.97 14.66 -2.84 21c-3.33,-30 -8.35,-55.82 -15.18,-77.68l-93.83 -305.31c-1.84,-5.82 -6.34,-8.84 -13.17,-8.84l-37 0c-6.17,0 -10.15,3.33 -11.85,9.84l-115.13 458.84c-0.69,2.67 -1,4.5 -1,5.82 0,4.68 3.15,7.35 9.32,8.35l50.65 12.65c2.67,1 4.68,1.49 6.03,1.49 3.81,0 6.65,-3.33 8.14,-10.15l70.85 -347c0.66,-2.67 2.98,-15.52 6.83,-38.67 1,5.99 5.34,24.15 13.17,54.81l95.32 324.2c1.52,5.82 5.51,8.8 11.68,8.8l40.02 0c6.48,0 10.64,-2.98 12.16,-8.8l89.01 -376.03 2.81 13.69 4.85 25.5 84.99 343.84c1.66,5.82 4.5,8.84 8.35,8.84 1.66,0 3.5,-0.35 5.82,-1l46.01 -10.67c6.83,-1.66 10.15,-4.33 10.15,-7.83z"
   id="glyph133" />
   <glyph
   unicode="z"
   horiz-adv-x="407"
   d="M389.82 60.01c0,-2.36 -0.49,-5.02 -1.84,-8.35l-19.16 -42.65c-1.84,-5.99 -6.34,-9.01 -13.17,-9.01l-312 0c-7.83,0 -11.64,3.98 -11.64,12.16l0 39.67 253 365.15 -221.33 0c-7.17,0 -10.67,3.67 -10.67,11.19l0 41.16c0,7.17 3.5,10.67 10.67,10.67l304.31 0c4.85,0 7.83,-0.83 9.01,-2.49 1.18,-1.52 1.66,-4.33 1.66,-8.18l0 -42.51 -249.01 -360.82 249.01 0c4.85,0 8,-0.35 9.32,-1.18 1.35,-0.83 1.84,-2.49 1.84,-4.82z"
   id="glyph134" />
   <glyph
   unicode="ä"
   horiz-adv-x="462"
   d="M373.99 629.82c0,-14.31 -5.34,-26.64 -15.97,-37 -10.5,-10.5 -23.35,-15.66 -38.35,-15.66 -14.31,0 -26.64,5.16 -37,15.66 -10.5,10.36 -15.66,23.01 -15.66,38.01 0,14.66 5.16,27.16 15.66,37.49 10.36,10.5 23.01,15.7 38.01,15.7 14.66,0 27.16,-5.34 37.66,-15.83 10.32,-10.67 15.66,-23.35 15.66,-38.35zm-197.32 0c0,-14.31 -5.16,-26.64 -15.66,-37 -10.32,-10.5 -22.66,-15.66 -37,-15.66 -15,0 -27.82,5.16 -38.32,15.66 -10.67,10.36 -16.01,23.01 -16.01,38.01 0,14.66 5.34,27.16 16.01,37.49 10.5,10.5 23.32,15.7 38.32,15.7 14.66,0 26.99,-5.34 37.32,-15.83 10.19,-10.67 15.35,-23.35 15.35,-38.35zm228.99 -605.16c0,-2.01 -1.32,-3.5 -3.81,-4.85l-43 -26.82c-2.67,-2.01 -5.16,-3.01 -7.83,-3.01 -12.68,0 -25.36,21 -38.18,63.02 -42.82,-42.03 -90.67,-63.02 -142.99,-63.02 -40.33,0 -72.52,12.33 -96.18,36.83 -23.84,24.67 -35.65,58 -35.65,100.03 0,112.99 88,170.99 263.98,174l0 33.16c0,31.98 -7.17,54.85 -21.31,68.5 -14.17,13.65 -37.7,20.51 -70.68,20.51 -33.16,0 -73,-9.67 -119.15,-29 -2.67,-1.18 -5.02,-1.84 -6.86,-1.84 -3.64,0 -5.99,1.49 -6.83,4.82l-15.18 40.02 -0.97 7.66c0,4.99 8.84,11.33 26.82,18.99 41.33,18.19 85.82,27.34 133.32,27.34 103.84,0 155.85,-46.67 155.85,-140.15l0 -189c0,-55.33 8.84,-99.02 26.68,-131.35 1.32,-2.15 1.97,-4.16 1.97,-5.82zm-103.67 85.16l0 128.99c-124.66,-1 -186.99,-36.31 -186.99,-105.99 0,-23.49 6.83,-42.51 20.51,-57.34 13.65,-14.83 31.32,-22.35 52.66,-22.35 33.33,0 71.17,19.02 113.82,56.68z"
   id="glyph135" />
   <glyph
   unicode="“"
   horiz-adv-x="408"
   d="M360.99 695l-2.01 -7.83 -58.14 -200.33c-1.84,-7.17 -6.86,-10.84 -14.69,-10.84l-80.97 0c-8.84,0 -13.17,2.36 -13.17,6.86 0,2.98 0.97,6.31 2.98,10.32l116.17 212.01c2.49,5.82 5.51,8.8 8.84,8.8 1.49,0 4.33,-0.66 8.18,-1.97l22 -7.83c7.14,-2.49 10.81,-5.68 10.81,-9.18zm-166 0c0,-0.66 -0.35,-2.01 -1,-3.98l-1 -3.85 -59.14 -200.33c-1.84,-7.17 -6.86,-10.84 -14.69,-10.84l-80 0c-9.49,0 -14.14,2.36 -14.14,6.86 0,3.33 1.32,6.65 3.81,10.32l115.34 212.01c3.15,5.82 6.51,8.8 9.67,8.8 1.66,0 4.5,-0.66 8.32,-1.97l22 -7.83c7.17,-2.49 10.84,-5.68 10.84,-9.18z"
   id="glyph136" />
   <glyph
   unicode="„"
   horiz-adv-x="408"
   d="M382.99 107.17c0,-0.66 -1,-3.85 -2.98,-9.84l-115.69 -212.49c-3.33,-5.82 -6.34,-8.84 -9.32,-8.84 -1.35,0 -3.85,0.66 -7.83,2.01l-22.83 8.32c-6.86,2.18 -10.36,5.16 -10.36,8.66 0.69,3.67 1.35,6.34 2.01,7.87l58 200.47c2.36,7.17 7.35,10.67 15.18,10.67l81.18 0c8.32,0 12.65,-2.32 12.65,-6.83zm-166 0c0,-1.66 -1.32,-4.82 -3.98,-9.84l-114.68 -212.49c-3.33,-5.82 -6.65,-8.84 -10.32,-8.84 -1.66,0 -4.16,0.66 -7.83,2.01l-22 8.32c-7.52,2.53 -11.16,5.51 -11.16,8.66 0,0.35 0.66,3.01 1.97,7.87l58 200.47c2.36,7.17 7.35,10.67 15.18,10.67l81.18 0c8.97,0 13.65,-2.32 13.65,-6.83z"
   id="glyph137" />
  </font>
</defs>
</svg>
