<?xml version="1.0" encoding="UTF-8" standalone="no"?>
<!-- Creator: CorelDRAW 2021 (64-Bit) -->

<svg
   xml:space="preserve"
   width="209.969mm"
   height="139.634mm"
   version="1.0"
   style="shape-rendering:geometricPrecision; text-rendering:geometricPrecision; image-rendering:optimizeQuality; fill-rule:evenodd; clip-rule:evenodd"
   viewBox="0 0 20993.7 13961.34"
   id="svg175"
   sodipodi:docname="kunst-_und_designwissenschaft__m.a._.svg"
   inkscape:version="1.3-dev (77bc73e, 2022-05-18)"
   xmlns:inkscape="http://www.inkscape.org/namespaces/inkscape"
   xmlns:sodipodi="http://sodipodi.sourceforge.net/DTD/sodipodi-0.dtd"
   xmlns="http://www.w3.org/2000/svg"
   xmlns:svg="http://www.w3.org/2000/svg"><sodipodi:namedview
   id="namedview175"
   pagecolor="#ffffff"
   bordercolor="#000000"
   borderopacity="0.25"
   inkscape:showpageshadow="2"
   inkscape:pageopacity="0.0"
   inkscape:pagecheckerboard="0"
   inkscape:deskcolor="#d1d1d1"
   inkscape:document-units="mm"
   showgrid="false"
   inkscape:zoom="0.44718095"
   inkscape:cx="396.93104"
   inkscape:cy="263.87528"
   inkscape:window-width="1440"
   inkscape:window-height="900"
   inkscape:window-x="0"
   inkscape:window-y="0"
   inkscape:window-maximized="0"
   inkscape:current-layer="Ebene_x0020_1" />
 <defs
   id="defs75">
  <font
   id="FontID1"
   horiz-adv-x="556"
   font-variant="normal"
   style="fill-rule:nonzero"
   font-style="normal"
   font-weight="700">
	<font-face
   font-family="Officina Sans OS ITC TT"
   id="font-face1">
		<font-face-src>
			<font-face-name
   name="Officina Sans OS ITC TT Fett" />
		</font-face-src>
	</font-face>
   <missing-glyph
   id="missing-glyph1"><path
     d="M0 0z"
     id="path1" /></missing-glyph>
   <glyph
   unicode="-"
   horiz-adv-x="370"
   d="M330.99 216c0,-8.84 -1.16,-14.34 -3.49,-16.67 -2.17,-2.17 -7.99,-3.33 -17.49,-3.33l-250.01 0c-9.5,0 -15.32,1.16 -17.49,3.68 -2.33,2.49 -3.49,7.83 -3.49,16.33l0 79c0,9.18 1.16,14.66 3.49,16.83 2.17,2.17 7.99,3.17 17.49,3.17l250.01 0c11.67,0 18.34,-2.99 20.01,-8.84 0.66,-2.17 0.98,-6.01 0.98,-11.17l0 -79z"
   id="glyph1" />
   <glyph
   unicode="1"
   horiz-adv-x="537"
   d="M460 21.01c0,-9.34 -1.16,-15.35 -3.33,-17.52 -2.33,-2.33 -8.18,-3.49 -17.68,-3.49l-292.99 0c-9,0 -14.84,1.16 -17.33,3.49 -2.33,2.17 -3.68,8.18 -3.68,17.52l0 51c0,11.99 3.17,18.66 9.34,19.98 2.51,0.69 6.51,1 11.67,1l95.01 0 0 348 -80 -44.49c-5.18,-3.01 -8.84,-4.34 -11.17,-4.34 -4.18,0 -8.68,4.16 -13.68,12.65l-26.33 45.33c-2.49,4.5 -3.84,8.84 -3.84,12.67 0,5.5 3.84,10.83 11.35,16.17l160 115.99 69.66 0c11.67,0 18.34,-2.99 20.01,-8.84 0.66,-2.49 1,-6.33 1,-11.14l0 -482.02 71.16 0c11.67,0 18.34,-2.99 19.82,-8.84 0.66,-2.49 1,-6.67 1,-12.15l0 -51z"
   id="glyph2" />
   <glyph
   unicode="2"
   horiz-adv-x="537"
   d="M471.01 435.33c0,-47 -13.34,-87.01 -40.01,-120.17 -12.33,-15 -24.66,-27.15 -37,-36.65 -12.33,-9.5 -39.99,-27.18 -82.99,-53.17 -40.67,-24.85 -67.17,-44.35 -79.68,-58.67 -12.65,-14.34 -19.66,-32.5 -21.33,-54.67l234 0c12.01,0 18.68,-2.99 20.01,-8.84 0.66,-2.49 1,-6.67 1,-12.15l0 -70c0,-11.67 -2.99,-18.34 -8.84,-20.01 -2.67,-0.66 -6.67,-1 -12.17,-1l-359.99 0c-9.34,0 -14.16,4.66 -14.16,14.16l0 7.83c0,62.85 9.16,111.17 27.34,145 25.49,47.85 75.32,95.17 149.82,142.17 45.01,28.34 72.01,47.69 81.01,58.01 14.66,17.01 21.99,37.34 21.99,61.16 0,49.83 -28,74.68 -84,74.68 -41.5,0 -74.31,-28.66 -98,-86.01 -4.16,-10.16 -9.32,-15.16 -15.16,-15.16 -1.99,0 -5.5,1 -10.67,2.99l-63.99 24.35c-8.18,2.99 -12.17,7.83 -12.17,14.66 0,11.51 5.5,28 16.67,49.67 10.98,21.67 23.16,40.17 36.49,55.5 37.84,43.35 91.33,65 160.5,65 57.67,0 103.82,-16.33 138.83,-48.83 34.99,-32.5 52.5,-75.84 52.5,-129.83z"
   id="glyph3" />
   <glyph
   unicode="3"
   horiz-adv-x="537"
   d="M465 117.16c0,-62.48 -23.66,-113.66 -70.84,-153.33 -42.32,-35.15 -94.98,-52.82 -158.15,-52.82 -57.67,0 -111.17,11.01 -160.66,32.66 -19.5,8.84 -29.35,16.17 -29.35,22.02 0,1.99 0.66,5.48 2.01,10.32l20.01 71.82c1.64,6.17 5.32,9.34 11.14,9.34 2.35,0 5.5,-1 9.84,-2.99 51,-24.85 96.49,-37.18 136.16,-37.18 73.83,0 110.83,35.67 110.83,107.02 0,66.66 -42,99.98 -126,99.98l-29.67 0c-12.15,0 -18.82,3.01 -19.98,8.84 -0.69,2.51 -1,6.67 -1,12.17l0 66c0,11.67 2.83,18.34 8.66,19.98 2.67,0.69 6.83,1 12.33,1l31.68 0c33.32,0 57.67,5.66 73.33,17.17 23.16,17.17 34.67,42.84 34.67,76.67 0,25.17 -7.51,45.33 -22.5,60.5 -15,15.16 -34.85,22.68 -59.52,22.68 -32.32,0 -62.16,-17.01 -90,-51.02 -5.48,-6.49 -9.82,-9.66 -13.15,-9.66 -1.83,0 -4.84,1.16 -8.68,3.84l-55.31 49.83c-3.17,2.99 -4.84,6.33 -4.84,10.35 0,7.15 6.99,18.32 20.99,33.66 41.02,45.33 93.84,67.99 158.17,67.99 59.01,0 106.49,-16.33 142.67,-49.17 36.18,-32.66 54.17,-75.5 54.17,-128.67 0,-68.65 -31.49,-118.32 -94.66,-148.99 78.49,-25.33 117.66,-81.99 117.66,-170z"
   id="glyph4" />
   <glyph
   unicode="4"
   horiz-adv-x="537"
   d="M500.33 63.99c0,-11.65 -3.17,-18.32 -9.34,-19.98 -2.65,-0.69 -6.49,-1 -11.83,-1l-57.16 0 0 -129.01c0,-9.5 -1.16,-15.32 -3.33,-17.49 -2.33,-2.33 -8.15,-3.49 -17.65,-3.49l-83.02 0c-11.67,0 -18.32,3.15 -19.98,9.32 -0.69,2.51 -1,6.51 -1,11.67l0 129.01 -245 0c-9.5,0 -15.32,1 -17.68,3.15 -2.17,2.17 -3.33,7.67 -3.33,16.85l0 104.99 249 416.84c5.18,8.84 10,13.18 14.18,13.18 2.65,0 6.99,-1.35 13.15,-3.84l60.18 -26.51c9.66,-4.16 14.5,-8.31 14.5,-12.65 0,-3.17 -1.85,-8.34 -5.85,-15.16l-232.83 -395.85 155.66 0 13.02 161.17c0.66,8.84 2.15,14.34 4.66,16.67 2.49,2.17 7.83,3.33 16.33,3.33l68.01 0c11.99,0 18.66,-2.99 19.98,-9.16 0.69,-2.67 1,-6.67 1,-11.83l0 -163.18 57.16 0c9.5,0 15.35,-1.32 17.68,-3.84 2.33,-2.67 3.49,-9.34 3.49,-20.01l0 -53.17z"
   id="glyph5" />
   <glyph
   unicode="D"
   horiz-adv-x="592"
   d="M553 341.84c0,-168.34 -42.5,-274.01 -127.32,-317.01 -32.5,-16.49 -86.67,-24.82 -162.51,-24.82l-157.17 0c-11.65,0 -18.32,3.17 -19.98,9.34 -0.69,2.49 -1,6.49 -1,11.67l0 643.98c0,11.67 3.17,18.34 9.34,20.01 2.49,0.66 6.49,1 11.65,1l157.17 0c47.85,0 82.51,-2.01 103.84,-5.85 123.99,-23.5 185.99,-136.16 185.99,-338.32zm-143.99 -5.85c0,118.67 -21.01,192.34 -63.01,221 -19.82,13.34 -49.65,20.01 -89.32,20.01l-34.67 0 0 -467.99 34.67 0c50.15,0 84.82,8.66 104,25.83 32.16,28.66 48.32,95.67 48.32,201.16z"
   id="glyph6" />
   <glyph
   unicode="K"
   horiz-adv-x="574"
   d="M582 44.99c0,-4.66 -4.66,-9.32 -14.16,-14.16l-86.01 -44.01c-5.16,-2.49 -9.84,-3.81 -14.16,-3.81 -3.52,0 -7.67,3.49 -12.67,10.16l-232.99 308.65 0 -280.81c0,-11.67 -3.17,-18.34 -9.34,-20.01 -2.49,-0.66 -6.51,-1 -11.67,-1l-95.01 0c-9.5,0 -15.32,1.16 -17.65,3.33 -2.17,2.33 -3.33,8.18 -3.33,17.68l0 643.98c0,9.5 1.16,15.35 3.33,17.68 2.33,2.17 8.15,3.33 17.65,3.33l95.01 0c11.67,0 18.34,-3.17 20.01,-9.34 0.66,-2.49 1,-6.49 1,-11.67l0 -281.16 216.98 299.5c5.18,7.17 10.19,10.67 15,10.67 3.33,0 7.51,-1.32 12.83,-3.84l73.17 -37.16c9.5,-4.5 14.16,-9.34 14.16,-14.66 0,-3.17 -2.33,-7.83 -7.33,-14l-207 -273.67 234.5 -290.68c5.18,-5.5 7.67,-10.51 7.67,-15z"
   id="glyph7" />
   <glyph
   unicode="S"
   horiz-adv-x="482"
   d="M452.01 194c0,-61.85 -20.19,-112 -60.35,-150.33 -40.16,-38.49 -92.66,-57.67 -157.83,-57.67 -40.32,0 -85.17,7.19 -134.65,21.5 -49.51,14.34 -74.18,27.16 -74.18,38.52 0,1.98 0.67,5.66 2.01,11.14l33.16 85.84c2.34,6 5.18,8.83 8.83,8.83 2.16,0 5.33,-1 9.17,-2.83 59.65,-32.67 110.66,-49 153.01,-49 59.81,0 89.83,27.68 89.83,83.01 0,25 -7,45.31 -21.01,60.99 -13.34,14.68 -51.34,37.67 -113.82,68.82 -59.84,30.02 -100.85,58.68 -123.02,86.18 -22.17,27.5 -33.16,63.34 -33.16,107.67 0,59.17 19.85,106.33 59.35,141.17 39.49,34.84 92.81,52.16 159.84,52.16 39.31,0 81,-7.16 125,-21.68 43.82,-14.49 65.83,-28.17 65.83,-41.14 0,-1.34 -1,-4.17 -2.83,-8.34l-36.18 -75.67c-2.34,-4.84 -5.33,-7.34 -8.83,-7.34 -2.34,0 -15.35,6.18 -39.16,18.18 -34.2,17.33 -67.51,26 -100.18,26 -27.98,0 -50.15,-6.52 -66.32,-19.52 -16.35,-13 -24.51,-30.82 -24.51,-53.17 0,-25.15 13,-46.16 39.01,-63 9.5,-6.33 44.49,-24.67 104.99,-55.33 51.49,-25.67 88.67,-54.66 111.51,-86.81 22.99,-32.19 34.5,-71.68 34.5,-118.18z"
   id="glyph8" />
   <glyph
   unicode="a"
   horiz-adv-x="481"
   d="M439.83 28c0,-4.66 -2.67,-7.83 -7.83,-9.84l-78.17 -31.15c-2.99,-2.01 -6.99,-3.01 -12.15,-3.01 -9.18,0 -19.18,19.69 -29.85,59.01 -37.16,-38 -79.66,-57 -127.98,-57 -45.84,0 -82.35,13.66 -109.35,40.99 -26.99,27.34 -40.49,64.17 -40.49,110.33 0,87.51 49.67,141 148.99,160.5 26.17,5.16 63.49,8.34 112,9.34l0 30.67c0,28.66 -4.66,48.32 -14.16,58.99 -9.5,10.85 -26.67,16.17 -51.84,16.17 -29.99,0 -67.33,-8.66 -112,-25.83 -4.16,-2.17 -7.99,-3.33 -11.17,-3.33 -4.16,0 -7.49,3.33 -9.82,10.16l-21.01 59.99c-1.67,3.52 -2.49,7.17 -2.49,10.67 0,10.85 18.66,21.17 55.82,31.17 37,10.16 75.68,15.16 115.67,15.16 80.5,0 132.35,-25.67 155.85,-77.17 9.48,-20.49 14.16,-48.01 14.16,-82.83l0 -203.99c0,-40.33 7.67,-76.35 22.84,-107.84 1.99,-4.34 2.99,-7.99 2.99,-11.17zm-144.84 85.66l0 110.51c-49.99,0 -86.01,-6.17 -107.5,-18.34 -21.67,-12.33 -32.5,-32.84 -32.5,-61.84 0,-19.66 6.17,-35.99 18.5,-49.17 12.33,-13.15 27.5,-19.82 45.33,-19.82 26.67,0 52.16,12.83 76.16,38.66z"
   id="glyph9" />
   <glyph
   unicode="c"
   horiz-adv-x="407"
   d="M405.51 453.99c0,-4 -0.84,-7.65 -2.83,-11.17l-34.67 -63.99c-2.67,-4.5 -5.69,-6.83 -9.34,-6.83 -2.83,0 -6.17,1.32 -9.66,4 -31.01,22.66 -59.17,34.01 -85,34.01 -66,0 -99,-56 -99,-167.84 0,-105.51 33.32,-158.17 100.01,-158.17 26.65,0 53.99,9.34 81.99,27.84 4.84,3.49 8.5,5.32 10.67,5.32 3.01,0 5.85,-2.33 8.34,-7.33l24 -61c1.83,-4.82 2.83,-8.66 2.83,-11.67 0,-12.65 -15.67,-24.82 -47.16,-36.65 -31.33,-11.67 -64.01,-17.49 -97.84,-17.49 -68.01,0 -120.83,22.15 -158.49,66.66 -37.5,44.33 -56.34,106.65 -56.34,187.16 0,84.84 20.67,151.85 61.82,200.68 41.18,48.99 97.52,73.49 169.18,73.49 30.49,0 61.82,-6.49 93.66,-19.32 32,-12.83 47.85,-25.35 47.85,-37.68z"
   id="glyph10" />
   <glyph
   unicode="d"
   horiz-adv-x="518"
   d="M465.66 30.83c0,-3.49 -2.99,-6.51 -8.84,-8.66l-82.99 -33.18c-5.16,-1.99 -8.66,-2.99 -10.16,-2.99 -11.17,0 -20.17,16.99 -26.99,51.16 -43.85,-36.15 -90.67,-54.15 -140.02,-54.15 -51.82,0 -91.83,22.15 -120.15,66.66 -28.34,44.33 -42.5,107 -42.5,188 0,95.33 19.5,166.49 58.67,213.33 33.82,39.99 76.48,59.99 127.66,59.99 32.16,0 65.16,-9.34 98.66,-28.16l0 203.17c0,10 5,15.99 15.16,18l101.99 20.01c6.51,0 9.84,-5.66 9.84,-17.01l0 -583.83c0,-30.33 5.82,-58.83 17.68,-85.82 0.66,-1.67 1.32,-3.84 1.99,-6.51zm-146.66 85.34l0 275.84c-23.84,11.99 -47.82,18 -71.82,18 -31.68,0 -54.01,-12.33 -66.85,-37.18 -12.83,-24.66 -19.32,-67.33 -19.32,-127.82 0,-57.85 6.17,-99.66 18.32,-125.49 12.17,-25.67 32.02,-38.5 59.52,-38.5 31.33,0 57.99,11.67 80.16,35.17z"
   id="glyph11" />
   <glyph
   unicode="e"
   horiz-adv-x="481"
   d="M450 237.83c0,-8.66 -1.32,-15 -3.84,-19 -2.65,-3.84 -8.66,-5.82 -18,-5.82l-268.16 0c1.99,-84 38.82,-126.02 110.49,-126.02 37.18,0 75,10.35 113.34,31.17 5.16,2.67 9.5,3.84 12.99,3.84 5,0 8.68,-2.99 11.33,-9.16l24.66 -59.52c2.01,-5 3.01,-8.66 3.01,-11.33 0,-8.66 -13.68,-19 -40.99,-30.67 -43.67,-18.82 -89.68,-28.32 -138.17,-28.32 -63.51,0 -113.18,16.49 -149.02,49.33 -49.83,45.49 -74.66,115.83 -74.66,210.84 0,80.32 20.01,145 59.99,194.17 40.17,49.15 93,73.65 158.84,73.65 132.16,0 198.16,-90.99 198.16,-273.16zm-133.01 68.17c-0.98,41.5 -6.99,70.82 -18.16,87.99 -11.01,17.33 -29.32,26.01 -54.67,26.01 -29.67,0 -51.32,-12.52 -64.65,-37.68 -8.84,-16.33 -15,-41.84 -18.5,-76.32l155.98 0z"
   id="glyph12" />
   <glyph
   unicode="f"
   horiz-adv-x="351"
   d="M380 687.83c0,-0.32 -0.66,-2.83 -2.01,-7.67l-18 -71.32c-2.33,-5.82 -5.32,-8.68 -8.82,-8.68 -2.35,0 -5.69,0.84 -10.35,2.85 -20.17,9.32 -40.17,14 -60.15,14 -22.68,0 -38.69,-7.01 -47.85,-21.01 -5.16,-8.5 -7.83,-28.5 -7.83,-59.99l0 -42 114.01 0c11.33,0 16.99,-3.33 16.99,-10.16 -0.32,-2.67 -0.82,-5.85 -1.83,-9.84l-14.16 -57.83c-2.35,-10.16 -8.68,-15.16 -19.18,-15.16l-95.83 0 0 -383.84c0,-11.51 -5.66,-17.17 -17.17,-17.17l-92.65 0c-11.51,0 -17.17,5.66 -17.17,17.17l0 383.84 -76 0c-8.34,0 -13.34,0.98 -14.82,3.15 -1.51,2.17 -2.17,9 -2.17,20.67l0 54.99c0,9.5 5.66,14.18 16.99,14.18l76 0 0 42c0,61.16 11.01,105.49 32.84,132.82 29.51,36.84 71.98,55.18 127,55.18 30.67,0 58.67,-3.68 84,-11.17 25.49,-7.51 38.16,-15.83 38.16,-25.01z"
   id="glyph13" />
   <glyph
   unicode="g"
   horiz-adv-x="500"
   d="M464.66 474c0,-2.67 -1.99,-8.66 -5.82,-18.16 -14.5,-34.67 -21.83,-72.51 -21.83,-113.18l0 -147.99c0,-54.67 1,-108.85 2.99,-162.51 1.35,-36.15 2.01,-57.16 2.01,-62.99 0,-57.35 -16.17,-101.33 -48.67,-132 -32.34,-30.83 -78.84,-46.16 -139.49,-46.16 -42.34,0 -86.85,6.33 -133.35,18.82 -46.66,12.52 -69.82,24.66 -69.82,36.33 0,2.33 0.66,5.5 1.83,9.84l21.49 68.83c2.01,6.83 5.66,10.16 10.85,10.16 2.99,0 5.82,-0.84 8.82,-2.83 54.33,-24.85 104,-37.18 148.67,-37.18 27.66,0 47.34,6.35 58.99,19 11.85,12.67 17.68,34.01 17.68,64.01 0,14.32 -1.67,35.99 -4.84,65 -35.33,-24.66 -73.99,-37 -116.31,-37 -50.52,0 -90.51,21.83 -119.85,65.66 -29.32,43.67 -43.99,102.84 -43.99,177.34 0,80.34 16.49,144.18 49.33,191.34 32.84,47.16 77.33,70.66 133.33,70.66 40.67,0 79,-15.32 115.17,-46.16 13.34,32.82 25.17,49.17 35.17,49.17 4,0 7.17,-0.69 9.82,-2.01l79.02 -28.34c5.82,-2.83 8.82,-6.17 8.82,-9.66zm-150.66 -332.84l0 236.01c-25.67,19.16 -49.33,28.84 -70.82,28.84 -54.83,0 -82.17,-50.68 -82.17,-152.01 0,-98 24.66,-147.01 73.83,-147.01 30.99,0 57.32,11.33 79.16,34.17z"
   id="glyph14" />
   <glyph
   unicode="h"
   horiz-adv-x="537"
   d="M471.99 16.99c0,-11.33 -5.66,-16.99 -17.15,-16.99l-93.18 0c-11.17,0 -16.65,5.66 -16.65,17.17l0 308.65c0,30.33 -4.18,52 -12.67,64.84 -8.5,12.83 -22.68,19.34 -42.5,19.34 -27.34,0 -55.84,-13.68 -85.82,-41.18l0 -351.66c0,-11.51 -5.69,-17.17 -17.17,-17.17l-92.68 0c-11.49,0 -17.15,5.66 -17.15,17.17l0 668.83c0,10 4.82,15.99 14.66,18l93.34 19c1.83,0.66 4.82,1 8.82,1 6.85,0 10.19,-5.66 10.19,-17.01l0 -253.82c40.65,38.5 86.49,57.83 137.67,57.83 51.5,0 88.15,-18 110.33,-54.17 13.34,-21.83 19.98,-56.16 19.98,-103l0 -336.84z"
   id="glyph15" />
   <glyph
   unicode="i"
   horiz-adv-x="295"
   d="M236.01 640.99c0,-22.5 -7.83,-41.5 -23.5,-57.32 -15.67,-15.83 -34.85,-23.66 -57.67,-23.66 -22.68,0 -41.68,7.83 -57.35,23.66 -15.67,15.83 -23.5,35.17 -23.5,58.33 0,21.83 8.02,40.51 24,56.34 16.01,15.83 35.17,23.66 57.67,23.66 22.34,0 41.18,-7.99 56.84,-23.82 15.67,-16.01 23.5,-35.01 23.5,-57.19zm-14 -624c0,-11.33 -5.66,-16.99 -17.17,-16.99l-93.16 0c-11.17,0 -16.67,5.66 -16.67,17.17l0 383.84 -76 0c-11.33,0 -16.99,5.66 -16.99,16.99l0 58.99c0,11.35 5.66,17.01 16.99,17.01l185.99 0c11.35,0 17.01,-5.66 17.01,-17.01l0 -460z"
   id="glyph16" />
   <glyph
   unicode="m"
   horiz-adv-x="777"
   d="M715.01 16.99c0,-11.33 -5.66,-16.99 -17.17,-16.99l-92.66 0c-11.51,0 -17.17,5.66 -17.17,16.99l0 316.02c0,51.34 -15.01,76.98 -45.01,76.98 -24.67,0 -53.32,-14.98 -85.99,-44.82l0 -348.17c0,-11.33 -5.66,-16.99 -17.17,-16.99l-90.65 0c-11.51,0 -17.17,5.66 -17.17,17.17l0 307.67c0,28.17 -1.67,46.99 -4.84,56.82 -6.15,18.82 -20.01,28.32 -41.17,28.32 -25,0 -53.65,-14.31 -85.99,-43l0 -349.82c0,-11.51 -5.66,-17.17 -17.17,-17.17l-91.17 0c-11.14,0 -16.66,5.66 -16.66,16.99l0 335.84c0,40.99 -6,77.01 -18,108.01 -2.01,3.84 -3.01,7.67 -3.01,11.14 0,5.51 3.68,9.5 10.84,11.69l81.18 27.31c6.49,1.34 9.84,2.01 9.84,2.01 11.66,0 22.47,-24 32.16,-72.02 50.67,46.68 100.33,70.01 149.33,70.01 51.49,0 87.82,-23.33 109.01,-70.01 51.64,46.68 103.17,70.01 154.66,70.01 46.65,0 78.65,-16.84 95.83,-50.33 12.18,-22.99 18.18,-61.33 18.18,-114.65l0 -329.02z"
   id="glyph17" />
   <glyph
   unicode="n"
   horiz-adv-x="537"
   d="M472.99 16.99c0,-11.33 -5.66,-16.99 -17.15,-16.99l-93.18 0c-11.17,0 -16.67,5.66 -16.67,17.17l0 308.65c0,56.18 -19,84.18 -57.16,84.18 -25.99,0 -54.99,-13.68 -86.83,-41.18l0 -351.66c0,-11.51 -5.66,-17.17 -17.17,-17.17l-93.16 0c-11.17,0 -16.67,5.66 -16.67,17.17l0 335.83c0,42.82 -6.83,79.16 -20.67,108.82 -2.17,4.18 -3.33,7.67 -3.33,10.16 0,4.02 2.83,6.85 8.34,8.84l88.66 33.18c3.68,1.32 7.01,1.99 10.35,1.99 12.33,0 24.16,-23 35.67,-69.18 46.5,42.84 96.33,64.17 149.66,64.17 86.17,0 129.33,-52.66 129.33,-158.15l0 -335.85z"
   id="glyph18" />
   <glyph
   unicode="r"
   horiz-adv-x="352"
   d="M365.16 488.49c0,-1.83 -0.67,-5.48 -2.34,-10.66l-30.82 -80.85c-2.34,-5.82 -4.84,-8.83 -7.83,-8.83 -1,0 -3.35,0.67 -7.34,2.01 -15.01,5.18 -28.35,7.83 -40.01,7.83 -21.5,0 -46.83,-15.99 -75.82,-47.84l0 -332.98c0,-11.51 -5.66,-17.17 -17.17,-17.17l-93.18 0c-11.14,0 -16.66,5.66 -16.66,16.99l0 303.68c0,47.84 -9.99,94.15 -29.99,139.16 -1.34,3.84 -2.01,7 -2.01,9.17 0,4.32 3.35,7.49 9.84,9.84l81 28.65c5.85,2.34 10.02,3.5 12.18,3.5 13.34,0 26,-26 38.15,-77.83 7.83,9.35 19,22.35 33.68,38.82 26,26 56.49,39.01 91.32,39.01 14.68,0 27.83,-2.31 39.49,-6.82 11.69,-4.51 17.51,-9.68 17.51,-15.68z"
   id="glyph19" />
   <glyph
   unicode="s"
   horiz-adv-x="425"
   d="M392.99 145c0,-45.49 -15.32,-84.16 -45.84,-116.15 -29.48,-30.51 -70.5,-45.84 -122.66,-45.84 -58.83,0 -115.33,14 -169.5,42 -14.66,7.49 -21.99,13.82 -21.99,19 0,2.65 1,6.67 2.99,12.15l22.84 61c2.67,6.51 6.01,9.84 9.84,9.84 2.33,0 5.32,-1 9.32,-2.99 52.85,-28.68 98.02,-43 135.84,-43 38.85,0 58.17,17.15 58.17,51.66 0,14.34 -4.84,25.51 -14.34,33.34 -9.66,7.65 -30.49,17.65 -62.67,29.67 -52.48,20.17 -86.99,38.32 -103.98,54.15 -26.67,25.51 -40.01,58.17 -40.01,98.18 0,47.82 16.67,86.99 49.99,117.34 33.34,30.49 76,45.65 128.01,45.65 31.52,0 64.84,-5.32 100.01,-16.17 34.99,-10.67 52.66,-20.67 52.66,-30.17 0,-2.49 -1,-6.17 -2.99,-10.67l-24.66 -57c-2.67,-5.82 -6.01,-8.82 -10.19,-8.82 -1.32,0 -4,0.66 -7.83,1.99 -38.48,17.17 -71.98,25.83 -100.49,25.83 -42.34,0 -63.51,-16.99 -63.51,-50.81 0,-13.68 4.18,-24.19 12.33,-31.33 8.18,-7.35 25.85,-16.35 53.01,-26.67 59.99,-23.5 98.34,-43.51 115.01,-59.99 27.15,-26.83 40.65,-60.84 40.65,-102.18z"
   id="glyph20" />
   <glyph
   unicode="t"
   horiz-adv-x="370"
   d="M366 21.99c0,-8.15 -10.32,-15.32 -31.17,-21.99 -35.15,-11.33 -68.83,-16.99 -101.15,-16.99 -59.17,0 -99.5,21.49 -121.02,64.49 -9.16,18.84 -13.66,49.83 -13.66,92.65l0 260.85 -69.34 0c-11.17,0 -16.67,5.66 -16.67,16.99l0 58.99c0,11.35 5.5,17.01 16.67,17.01l69.34 0 0 126.16c0,10.51 5.32,16.51 16.17,18.18l91.83 12.65 8.84 0c6.83,0 10.16,-5.32 10.16,-16.17l0 -140.82 113.66 0c11.33,0 17.17,-3.33 17.17,-10.16 0,-4.02 -0.34,-6.85 -1,-8.84l-13.18 -58.83c-1.99,-10.16 -7.83,-15.16 -17.65,-15.16l-99 0 0 -243.02c0,-22.81 1.16,-37.5 3.49,-43.99 4.5,-13.34 15.67,-20.01 33.5,-20.01 15.67,0 37.66,5.66 66,16.83 3.17,1.32 6.17,2.01 8.66,2.01 4.68,0 8.02,-3.33 10.35,-9.84l15.67 -69.66c1.51,-6.01 2.33,-9.68 2.33,-11.35z"
   id="glyph21" />
   <glyph
   unicode="u"
   horiz-adv-x="537"
   d="M485.01 15.32c0,-4 -3.33,-6.67 -9.84,-8.31l-84 -19c-5.82,-1.35 -9.66,-2.01 -11.17,-2.01 -11.49,0 -21.33,18.34 -29.83,54.99 -40.67,-38.66 -86.83,-57.99 -138.17,-57.99 -50.17,0 -87.67,14.32 -112.84,42.98 -16.33,18.52 -26.49,42.68 -30.67,72.35 -2.33,14 -3.49,40.65 -3.49,80l0 293.17c0,9.66 5,15.48 15.16,17.49l92.84 20.01c1.35,0.66 4,0.98 8.34,0.98 7.17,0 10.67,-5.16 10.67,-15.67l0 -310.16c0,-37.5 3.17,-61.82 9.34,-73.33 9.32,-17.84 26.65,-26.83 51.66,-26.83 26.67,0 54.33,12.01 82.99,36.18l0 351.15c0,9.84 5,15.67 15.19,17.68l92.81 20.01 10.19 0.98c5.82,0 8.82,-5.16 8.82,-15.67l0 -368.17c0,-42.66 6.35,-76.67 19,-101.99 2.01,-2.99 3.01,-6.01 3.01,-8.84z"
   id="glyph22" />
   <glyph
   unicode="w"
   horiz-adv-x="667"
   d="M658.16 477.17c0,0 -1.16,-3.52 -3.49,-10.35l-137.67 -461.16c-2.83,-9.16 -9.34,-13.66 -19,-13.66l-82.99 0c-7.17,0 -11.67,0.66 -13.52,2.17 -1.64,1.48 -3.31,5.98 -4.66,13.5l-46.84 253.5c-0.98,4.5 -3.33,21.49 -7.33,50.84l-3.84 37.16 -2.99 23.84c-2.49,-22.84 -8.5,-60.02 -18,-111.84l-59.17 -254.5c-2.17,-9.84 -7.99,-14.66 -17.49,-14.66l-82.01 0c-9.5,0 -15.48,4.82 -18.16,14.66l-120.99 460.16c-1.35,5.16 -2.01,9 -2.01,11.17 0,5.34 5,8.5 15.16,9.84l87.83 13.15c0.66,0.66 3.33,1 7.83,1 6.17,0 10.35,-4.66 12.17,-14.16l47 -230c5.16,-25.35 12.17,-77.67 20.99,-156.85 6.19,68.67 12.17,116.68 18.02,144.02l49.83 233.84c2.17,10.16 8.34,15.16 18,15.16l89.82 0c10.19,0 16.17,-5 18.18,-15.16l45.33 -225c6.83,-35.17 13.34,-86.01 19.5,-152.85 8.84,84.34 16.33,139.68 22.5,166.17l50.84 220.68c2.17,9.5 5.82,14.16 10.67,14.16 5.5,0 8.66,-0.34 9.34,-1l81.99 -13.15c10.16,-1.35 15.16,-4.84 15.16,-10.67z"
   id="glyph23" />
  </font>
  <font
   id="FontID0"
   horiz-adv-x="537"
   font-variant="normal"
   style="fill-rule:nonzero"
   font-style="normal"
   font-weight="400">
	<font-face
   font-family="Officina Sans OS ITC TT"
   id="font-face23">
		<font-face-src>
			<font-face-name
   name="Officina Sans OS ITC TT" />
		</font-face-src>
	</font-face>
   <missing-glyph
   id="missing-glyph23"><path
     d="M0 0z"
     id="path23" /></missing-glyph>
   <glyph
   unicode="("
   horiz-adv-x="370"
   d="M316.83 -202.16c0,-3.84 -5.66,-9.5 -16.83,-16.83 -11.17,-7.33 -20.01,-11.01 -26.17,-11.01 -9.66,0 -32.66,26.99 -68.83,81.01 -81.99,122.82 -122.98,255.49 -122.98,397.99 0,153.68 48.32,296.66 145,429.17 24.48,33.16 39.99,49.83 46.82,49.83 3.68,0 7.67,-1.32 12.33,-3.84l23.84 -15.16c4.66,-2.99 6.83,-5.82 6.83,-8.84 0,-3.84 -2.83,-10 -8.84,-18 -95.99,-128.01 -143.99,-272.34 -143.99,-433.17 0,-159.84 48.01,-304.18 143.99,-433.17 6.01,-7.99 8.84,-14.16 8.84,-18z"
   id="glyph24" />
   <glyph
   unicode=")"
   horiz-adv-x="370"
   d="M288.99 249c0,-153.33 -48.32,-296.34 -145.16,-429.17 -24.32,-33.16 -39.99,-49.83 -46.84,-49.83 -3.49,0 -7.65,1.32 -12.15,3.84l-24 14.16c-4.5,3.68 -6.85,6.83 -6.85,9.84 0,3.84 3.01,10 8.84,18 96.17,128.99 144.18,273.32 144.18,433.17 0,159.84 -48.01,304.18 -144.18,433.17 -5.82,7.83 -8.84,13.84 -8.84,18 0,3.01 7.67,9.34 23.02,19 9.32,5.85 16.15,8.84 19.98,8.84 9.18,0 32.02,-26.99 68.83,-81.01 82.17,-120.49 123.16,-253.16 123.16,-397.99z"
   id="glyph25" />
   <glyph
   unicode="*"
   horiz-adv-x="500"
   d="M415.01 542.99c0,-4.32 -3.68,-7.15 -11.17,-8.82l-113.85 -26.35 77.17 -87.99c3.33,-3.84 5,-6.83 5,-8.84 0,-3.49 -2.83,-7.33 -8.34,-11.14l-34.67 -25.01c-5,-3.17 -7.99,-4.84 -9.32,-4.84 -3.17,0 -6.51,2.67 -9.84,7.83l-59.99 100.17 -59.99 -100.17c-3.33,-5.16 -6.51,-7.83 -9.84,-7.83 -2.17,0 -5.66,1.67 -10.16,4.84l-35.17 25.99c-5.34,3.84 -7.83,7.01 -7.83,9.18 0,1.99 2.01,5.32 5.82,9.82l76.16 87.99 -112.82 26.35c-8.18,1.67 -12.17,4.5 -12.17,8.82 0,1.16 0.66,3.84 2.01,7.83l14.16 42c2.17,7.51 5.16,11.17 8.66,11.17 0.34,0 3.17,-0.98 8.34,-2.99l108 -45.84 -11.33 121.5c0,6.17 4.84,9.34 14.16,9.34l44.01 0c8.84,0 13.18,-2.67 13.18,-7.83l0 -6.33 -10.19 -116.68 111.33 46.84c2.51,1.32 4.18,1.99 4.84,1.99 3.49,0 6.51,-3.65 8.84,-11.17l14.5 -46.5c0.32,-1.32 0.5,-2.33 0.5,-3.33z"
   id="glyph26" />
   <glyph
   unicode="-"
   horiz-adv-x="351"
   d="M314.84 232.17c0,-9.5 -4.68,-14.16 -14.18,-14.16l-249.98 0c-9.18,0 -13.68,4.66 -13.68,14.16l0 46.66c0,9.5 4.5,14.18 13.68,14.18l249.98 0c9.5,0 14.18,-4.68 14.18,-14.18l0 -46.66z"
   id="glyph27" />
   <glyph
   unicode="."
   horiz-adv-x="295"
   d="M219.17 57.16c0,-19.5 -7.01,-36.15 -20.85,-50.15 -13.82,-14.02 -30.33,-21.01 -49.49,-21.01 -19.82,0 -36.68,6.83 -50.33,20.51 -13.66,13.66 -20.51,30.49 -20.51,50.65 0,19.5 7.01,36.18 21.01,49.67 14,13.5 30.99,20.17 50.84,20.17 18.5,0 34.67,-6.83 48.48,-20.67 13.84,-13.84 20.85,-30.17 20.85,-49.17z"
   id="glyph28" />
   <glyph
   unicode="/"
   horiz-adv-x="443"
   d="M428 721.17c0,-2.01 -1,-5.34 -3.01,-10.35l-387.65 -930.98c-2.51,-5.85 -8.02,-8.84 -16.01,-8.84l-39.17 0c-8.84,0 -13.15,2.33 -13.15,6.83 0,2.99 1.16,6.01 3.49,9.34l386.67 930.66c2.83,6.83 8.34,10.16 16.17,10.16l38.98 0c9.18,0 13.68,-2.33 13.68,-6.83z"
   id="glyph29" />
   <glyph
   unicode="0"
   horiz-adv-x="500"
   d="M457.01 292.16c0,-204.17 -69.18,-306.16 -207.5,-306.16 -57.67,0 -102.84,19.66 -135.5,58.99 -46,56 -69.02,134.33 -69.02,234.84 0,96.67 18.84,171.83 56.5,225.66 37.68,53.67 90.35,80.5 157.83,80.5 63.67,0 112.5,-25.33 146.5,-75.82 34.17,-50.68 51.18,-123.35 51.18,-218.01zm-82.01 -2.33c0,150.16 -40.49,225.16 -121.5,225.16 -39.99,0 -71,-20.17 -93.16,-60.34 -22.18,-40.15 -33.34,-96.33 -33.34,-168.66 0,-76.83 11.99,-136.16 35.99,-178.16 19.5,-33.85 48.67,-50.84 87.51,-50.84 44.83,0 76.32,19.32 94.82,58.17 19.85,42 29.67,100.17 29.67,174.66z"
   id="glyph30" />
   <glyph
   unicode="1"
   horiz-adv-x="500"
   d="M424.83 14.16c0,-9.5 -4.5,-14.16 -13.66,-14.16l-264.17 0c-9.5,0 -14.18,4.66 -14.18,14.16l0 37.68c0,9.5 4.68,14.16 14.18,14.16l101.99 0 0 426.18 -111.84 -67.35c-4.5,-2.67 -7.99,-4 -10.16,-4 -2.99,0 -5.34,2.49 -6.83,7.33l-13.18 24c-1.99,3.49 -2.99,6.51 -2.99,8.84 0,3.15 2.33,6.67 6.83,10.16l150.34 109.83 49.65 0c9.5,0 14.18,-4.66 14.18,-14.16l0 -500.83 86.17 0c9,0 13.66,-4.66 13.66,-14.16l0 -37.68z"
   id="glyph31" />
   <glyph
   unicode="2"
   horiz-adv-x="500"
   d="M431 14.16c0,-9.5 -4.66,-14.16 -14.16,-14.16l-335.67 0c-6.17,0 -9.66,1.51 -10.67,4.34 -1,1.99 -1.51,5.32 -1.51,9.82 0,65 13.34,119.67 40.17,163.5 26.83,44.01 70.84,83.34 132,118.19 45.84,26.33 74.5,46.66 85.82,61 14.68,18.5 22.02,41.15 22.02,67.83 0,28.34 -8.52,50.49 -25.67,66.32 -17.01,16.01 -40.51,24 -70.5,24 -28.18,0 -51,-7.33 -68.51,-22.15 -17.33,-14.84 -32.32,-39.83 -44.99,-74.84 -2.67,-6.51 -6.17,-9.84 -10.32,-9.84 -2.01,0 -5.18,0.69 -9.68,2.01l-40.99 11.67c-5.5,2.33 -8.34,5.66 -8.34,10.32 0,7.51 4.34,20.51 13.18,39.01 8.82,18.66 17.81,34.01 26.99,46 35.49,45.84 84.5,68.83 147.17,68.83 53.83,0 96.17,-14 127.16,-42 30.99,-28 46.5,-66.32 46.5,-114.83 0,-47.16 -14.66,-86.33 -43.99,-117.34 -12.83,-12.99 -24.5,-23 -35.35,-30.17 -9.16,-6.17 -39.65,-24.16 -91.49,-53.83 -68.83,-39.67 -106.49,-91.33 -113,-154.84l269.67 0c9.5,0 14.16,-4.66 14.16,-14.16l0 -44.67z"
   id="glyph32" />
   <glyph
   unicode="3"
   horiz-adv-x="500"
   d="M434.01 109.83c0,-57.16 -19.69,-103.5 -58.85,-138.83 -39.17,-35.33 -90.67,-53.01 -154.66,-53.01 -34.33,0 -70.16,5 -108,15.19 -37.66,9.98 -56.5,19.66 -56.5,28.82 0,1.51 1,4.66 2.99,9.16l20.01 45.01c1.67,3.84 3.84,5.82 6.83,5.82 2.51,0 10.19,-2.99 23,-8.82 33.85,-16.17 70.5,-24.19 109.85,-24.19 88.84,0 133.33,41.34 133.33,124.01 0,81.99 -48.67,123 -146,123l-34.33 0c-9,0 -13.68,4.66 -13.68,14l0 39.99c0,9.34 4.68,14 13.84,14l33.16 0c39.35,0 70.84,10.85 94,32.5 23.34,21.67 35.01,50.68 35.01,87.17 0,29.35 -8.84,52.85 -26.33,70.16 -17.68,17.52 -41.34,26.17 -70.84,26.17 -36.49,0 -70.16,-16.99 -100.67,-50.84 -7.83,-8.66 -14.16,-13.15 -19.16,-13.15 -2.17,0 -5,1.32 -8.18,4l-32.82 27.84c-3.49,2.33 -5.34,5 -5.34,8.34 0,10 16.17,26.99 48.35,50.81 34.83,26.01 75,39.01 120.65,39.01 50.68,0 92.01,-14.82 123.67,-44.49 31.84,-29.51 47.66,-68.17 47.66,-115.67 0,-70.66 -34.33,-119.67 -103,-147.01 27.84,-8.5 49.35,-18.66 64.52,-30.67 40.99,-32.66 61.5,-78.65 61.5,-138.33z"
   id="glyph33" />
   <glyph
   unicode="4"
   horiz-adv-x="500"
   d="M469.5 86.83c0,-9.16 -4.84,-13.84 -14.16,-13.84l-79.34 0 0 -140.82c0,-9.5 -4.66,-14.18 -14.16,-14.18l-46.68 0c-9.5,0 -14.16,4.68 -14.16,14.18l0 140.82 -257.84 0c-6.17,0 -9.82,1.85 -11.17,5.34 -0.66,2.01 -1,4.84 -1,8.34l0 56.16 259.35 430.33c3.15,5.16 8.84,7.83 16.99,7.83l49.83 -7.83c8.18,-1.32 12.17,-4.32 12.17,-9.16 0,-2.33 -1.32,-5.34 -3.84,-8.84l-255.33 -416.17 190.67 0 11.17 160.85c0.66,8.84 5.48,13.15 14.16,13.15l35.67 0c9.5,0 14.16,-4.66 14.16,-14.16l0 -159.84 79.34 0c9.32,0 14.16,-4.82 14.16,-14.32l0 -37.84z"
   id="glyph34" />
   <glyph
   unicode="5"
   horiz-adv-x="500"
   d="M434.01 150.84c0,-72.01 -21.17,-128.67 -63.35,-170.35 -42.32,-41.66 -99.66,-62.51 -171.99,-62.51 -36.18,0 -67.01,3.52 -92.49,10.35 -25.51,6.83 -38.16,15 -38.16,24.82l0 6.85 10.32 39.99c1.16,5.16 4.5,7.83 9.66,7.83 2.01,0 5.66,-0.66 11.17,-2.01 30.01,-11.17 64.68,-16.83 104,-16.83 99.16,0 148.83,53.01 148.83,159.18 0,39.99 -9.16,71.16 -27.34,93.34 -18.16,22.31 -43.67,33.48 -76.67,33.48 -41.5,0 -80.32,-18.32 -115.99,-54.83 -4,-4.16 -6.83,-6.33 -8.84,-6.33l-9.34 1 -34.67 12.17c-7.49,2.65 -11.14,5.66 -11.14,8.82l0 7.35 32.16 319.66c0.66,8.84 5.34,13.15 13.66,13.15l260.35 0c9.5,0 14.16,-4.66 14.16,-14.16l0 -41.66c0,-9.5 -4.66,-14.18 -14.16,-14.18l-209.01 0 -21.99 -202.82c38.82,28.5 79,42.82 120.49,42.82 50.49,0 91.67,-18 123.16,-54.15 31.52,-36.18 47.18,-83.18 47.18,-141z"
   id="glyph35" />
   <glyph
   unicode="6"
   horiz-adv-x="500"
   d="M443.01 224.18c0,-70.02 -18.02,-127.18 -53.85,-171.51 -35.99,-44.49 -82.49,-66.66 -139.65,-66.66 -67.83,0 -118.67,30.83 -152.33,92.33 -25.51,46.16 -38.18,106.68 -38.18,181.67 0,119.99 25.01,215.66 75,286.5 50.01,70.98 117.18,106.49 201.84,106.49 23.18,0 43,-2.17 59.33,-6.33 16.51,-4.34 24.66,-9.5 24.66,-15.67 0,-2.67 -0.32,-4.68 -1,-5.85l-10.67 -42.16c-1.32,-4.5 -3.81,-6.83 -7.33,-6.83l-6.83 0.82c-20.17,6.67 -40.49,10 -61,10 -54.17,0 -98,-23.16 -131.84,-69.5 -28,-38 -46.16,-86.17 -54.33,-144.49 38,43.32 80.5,65 127.5,65 51.34,0 92.33,-19.5 122.84,-58.51 30.49,-39.17 45.84,-90.83 45.84,-155.32zm-82.01 -1.16c0,97.31 -37.16,145.98 -111.49,145.98 -34.33,0 -61,-12.49 -80,-37.66 -19,-25.01 -28.5,-60.5 -28.5,-106.33 0,-112 36.49,-168 109.51,-168 73.65,0 110.49,55.34 110.49,166.01z"
   id="glyph36" />
   <glyph
   unicode="7"
   horiz-adv-x="500"
   d="M426.66 538.84l-230.82 -605.66c-2.33,-6.67 -5.66,-10.19 -9.84,-10.19 -0.66,0 -1.99,0 -3.81,0l-2.01 0 -54.17 8.34c-8.15,1 -12.33,3.52 -12.33,7.83 0,2.01 1.16,5 3.49,9.34l215.84 555.51 -257.84 0c-9.5,0 -14.16,4.66 -14.16,14.16l0 43.67c0,9.5 4.66,14.16 14.16,14.16l337.84 0c9.16,0 13.66,-4.66 13.66,-14.16l0 -23z"
   id="glyph37" />
   <glyph
   unicode=":"
   horiz-adv-x="295"
   d="M219.17 402.84c0,-19.5 -6.85,-35.99 -20.51,-49.51 -13.66,-13.5 -30.33,-20.33 -49.83,-20.33 -19.82,0 -36.68,6.83 -50.33,20.51 -13.66,13.66 -20.51,30.33 -20.51,50.33 0,19.48 7.01,35.99 21.01,49.65 14,13.68 30.99,20.51 50.84,20.51 18.5,0 34.67,-6.99 48.48,-20.99 13.84,-14.02 20.85,-30.67 20.85,-50.17zm0 -345.67c0,-19.5 -7.01,-36.15 -20.85,-50.15 -13.82,-14.02 -30.33,-21.01 -49.49,-21.01 -19.82,0 -36.68,6.83 -50.33,20.51 -13.66,13.66 -20.51,30.49 -20.51,50.65 0,19.5 7.01,36.18 21.01,49.67 14,13.5 30.99,20.17 50.84,20.17 18.5,0 34.67,-6.83 48.48,-20.67 13.84,-13.84 20.85,-30.17 20.85,-49.17z"
   id="glyph38" />
   <glyph
   unicode="A"
   horiz-adv-x="537"
   d="M517.16 7.83c0,-5.16 -4.82,-7.83 -14.16,-7.83l-64.01 0c-6.83,0 -11.83,3.68 -15.16,11.17l-54.65 194.83 -203.17 0 -56.18 -194.83c-1.83,-7.49 -6.83,-11.17 -14.66,-11.17l-59.99 0c-9.5,0 -14.16,2.33 -14.16,6.83 0,1.67 0.66,4.68 1.99,9.34l201.18 658.67c2.15,7.49 7.15,11.17 14.66,11.17l59.99 0c7.83,0 12.83,-3.68 15.16,-11.17l201.18 -658.67c1.32,-4.66 1.99,-7.33 1.99,-8.34zm-166.99 267.16l-60.18 220.18c-8.66,31.49 -16.33,63.49 -22.84,95.67 -4.66,-23.5 -12.33,-54.99 -23,-94.66l-60.15 -221.18 166.17 0z"
   id="glyph39" />
   <glyph
   unicode="C"
   horiz-adv-x="462"
   d="M441.16 63.99c0,-6.83 -9.32,-17.33 -27.82,-31.65 -39.67,-30.83 -84.84,-46.34 -135.34,-46.34 -73.51,0 -129.51,30.99 -168.18,93.16 -38.5,62.19 -57.83,152.51 -57.83,270.83 0,116.84 19,205.18 57.16,265.01 36.18,56.66 90.16,85 162.01,85 55.66,0 105.33,-18.66 148.99,-56 10.67,-9.18 16.17,-15.83 16.17,-20.01 0,-2.67 -0.66,-5.32 -2.01,-7.83l-29.32 -38c-1.35,-2.67 -4,-4 -7.83,-4 -2.01,0 -13.34,7.99 -34.17,24 -30.01,23.16 -60.34,34.83 -91.01,34.83 -45.68,0 -78.84,-21.83 -99.66,-65.5 -20.83,-43.67 -31.33,-113.16 -31.33,-208.67 0,-203.83 47.16,-305.82 141.34,-305.82 34.49,0 71.82,17.65 111.81,52.98 4.68,3.84 8.18,5.85 10.85,5.85 2.67,0 5.32,-2.33 8.34,-6.83l24.82 -33.18c2.01,-1.99 2.99,-4.5 2.99,-7.83z"
   id="glyph40" />
   <glyph
   unicode="D"
   horiz-adv-x="556"
   d="M503 354.99c0,-236.67 -93.34,-354.99 -279.99,-354.99l-113.34 0c-9.16,0 -13.66,4.66 -13.66,14.16l0 657.68c0,9.5 4.5,14.16 13.66,14.16l104.16 0c79.66,0 139.17,-13.34 178.34,-40.01 73.83,-50.81 110.83,-147.83 110.83,-291zm-87.99 0c0,129.35 -28.34,209.51 -85,240 -25.17,13.34 -62.16,20.01 -111.01,20.01l-40.99 0 0 -544 50.84 0c39.01,0 68.49,4.34 88.5,12.99 19.85,8.5 37.66,24.5 53.67,48.01 29.32,43.16 44.01,117.5 44.01,222.99z"
   id="glyph41" />
   <glyph
   unicode="E"
   horiz-adv-x="462"
   d="M432 679.17c0,-2.33 -0.66,-5.34 -2.01,-9.34l-15.16 -44.01c-2.65,-7.15 -7.65,-10.83 -15.16,-10.83l-221.66 0 0 -226 195.83 0c9.5,0 14.16,-4.66 14.16,-14l0 -38.5c0,-9 -4.66,-13.5 -14.16,-13.5l-195.83 0 0 -251.99 238.84 0c9.5,0 14.16,-4.5 14.16,-13.68l0 -43.16c0,-9.5 -4.66,-14.16 -14.16,-14.16l-307.17 0c-9.16,0 -13.66,4.66 -13.66,14.16l0 657.68c0,9.5 4.5,14.16 13.66,14.16l308.17 0c9.32,0 14.16,-2.33 14.16,-6.83z"
   id="glyph42" />
   <glyph
   unicode="F"
   horiz-adv-x="425"
   d="M432 679.17c0,-2.33 -0.34,-4.18 -1,-5.34l-1 -4 -15.16 -44.01c-2.65,-7.15 -7.65,-10.83 -15.16,-10.83l-221.66 0 0 -232.99 195.83 0c9.5,0 14.16,-4.5 14.16,-13.5l0 -38.5c0,-9.34 -4.66,-14 -14.16,-14l-195.83 0 0 -301.85c0,-9.5 -4.66,-14.16 -14.16,-14.16l-54.17 0c-9.16,0 -13.66,4.66 -13.66,14.16l0 657.68c0,9.5 4.5,14.16 13.66,14.16l308.17 0c9.32,0 14.16,-2.33 14.16,-6.83z"
   id="glyph43" />
   <glyph
   unicode="K"
   horiz-adv-x="518"
   d="M503.67 37c0,-3.65 -2.17,-6.99 -6.83,-10.32l-45.84 -31.84c-4,-2.51 -7.01,-3.84 -9.34,-3.84 -2.83,0 -6.17,2.33 -9.66,6.83l-254 327.33 0 -311.01c0,-9.5 -4.66,-14.16 -14.16,-14.16l-54.17 0c-9.16,0 -13.66,4.66 -13.66,14.16l0 657.68c0,9.5 4.5,14.16 13.66,14.16l54.17 0c9.5,0 14.16,-4.66 14.16,-14.16l0 -324.69 256.83 340.01c4,5.16 7.17,7.83 9.84,7.83 2.33,0 5.32,-1.67 9.32,-4.84l37 -24.98c5.18,-3.52 7.83,-7.01 7.83,-10.19 0,-2.33 -1.67,-5.66 -4.82,-9.82l-235.34 -304.34 240.16 -295.16c3.33,-3.17 4.84,-6.17 4.84,-8.68z"
   id="glyph44" />
   <glyph
   unicode="M"
   horiz-adv-x="667"
   d="M593.01 9.84c0,-6.51 -4.18,-9.84 -12.67,-9.84l-58.17 0c-9.16,0 -13.84,4.34 -14.16,13.18l-15 512.66c0,-5.85 1,11.33 2.83,51.32l1 20.01c-4.5,-31.17 -11.51,-60.66 -21.01,-88.34l-117.16 -338c-2.67,-7.17 -7.49,-10.67 -14.66,-10.67l-29.35 0c-7.49,0 -12.49,3.49 -14.98,10.67l-112.84 338c-8.84,26.33 -15.16,55.84 -19,88.34l0 -19 1.83 -38.16 0 -19 -14.66 -507.82c0,-8.84 -4.34,-13.18 -12.83,-13.18l-54.33 0c-6.33,0 -10.16,0.82 -11.67,2.49 -1.51,1.51 -2.17,4.02 -2.17,7.35l0 4.32 37.68 658.67c0.66,8.84 5.32,13.18 14.16,13.18l59.17 0c7.49,0 12.49,-3.68 14.98,-11.17l117.84 -344.83c6.83,-19.85 11.67,-40.51 14.16,-62 1.35,11.49 5.66,32.16 13.18,62l118.83 344.83c2.67,7.49 7.67,11.17 15.16,11.17l63.01 0c8.15,0 12.49,-4.34 13.15,-13.18l37.68 -662.98z"
   id="glyph45" />
   <glyph
   unicode="P"
   horiz-adv-x="481"
   d="M466.01 502c0,-91.83 -33.18,-155.16 -99.66,-189.99 -28.5,-14.68 -67.17,-22.02 -116.52,-22.02l-71.82 0 0 -275.84c0,-9.5 -4.66,-14.16 -14.16,-14.16l-54.17 0c-9.16,0 -13.66,4.66 -13.66,14.16l0 657.68c0,9.5 4.5,14.16 13.66,14.16l153.49 0c59.68,0 102.34,-7.67 128.01,-23 49.83,-29.85 74.84,-83.68 74.84,-161.01zm-84 -1c0,57.51 -18.68,93.5 -55.84,107.68 -13.68,5.5 -37.18,8.34 -70.34,8.34l-77.83 0 0 -255.01 66 0c43.67,0 75,7.67 94,23 29.32,23.66 44.01,62.32 44.01,115.99z"
   id="glyph46" />
   <glyph
   unicode="S"
   horiz-adv-x="481"
   d="M438.99 182.34c0,-58.67 -19.32,-106.01 -58.15,-142.17 -38.69,-36.18 -89.34,-54.17 -151.85,-54.17 -37.5,0 -78.33,6.99 -122.5,21.01 -44.33,14 -66.5,26.99 -66.5,38.98 0,2.01 0.69,4.68 2.01,8.34l19 47.66c1.32,3.33 3.49,5 6.83,5 3.01,0 8.68,-2.33 17.17,-6.83 51,-28.16 99.32,-42.16 145,-42.16 36.68,0 66.34,10.32 88.5,30.99 22.34,20.67 33.5,48.01 33.5,81.83 0,30.51 -8.5,56 -25.33,76.16 -17.01,20.17 -50.17,44.35 -99.66,72.67 -65.34,37.84 -107.34,67.17 -126.02,88.34 -26.65,30.33 -39.99,67.33 -39.99,110.83 0,53.17 18.34,96.51 54.99,130.34 36.52,33.85 83.84,50.84 141.85,50.84 33.5,0 69.66,-6.33 108.5,-19.16 38.98,-12.83 58.49,-24.5 58.49,-35.01 0,-1.83 -0.66,-4.5 -1.99,-7.67l-18.02 -45.33c-1.67,-4 -4.32,-5.82 -7.83,-5.82 -1.32,0 -15.67,6.67 -42.98,20.01 -30.35,14.66 -62.67,21.99 -97.17,21.99 -34.51,0 -61.5,-8.66 -80.82,-26.17 -19.34,-17.33 -29,-41.66 -29,-72.99 0,-35.67 13.34,-64.01 39.99,-84.84 7.17,-5.66 47.16,-30.49 120.17,-74.84 48.16,-28.48 81.01,-55.31 98.66,-79.98 22.18,-30.67 33.16,-66.5 33.16,-107.84z"
   id="glyph47" />
   <glyph
   unicode="T"
   horiz-adv-x="407"
   d="M422 679.17c0,-3.01 -0.32,-5 -1,-6.35l-0.98 -2.99 -15.19 -43c-2.33,-7.17 -7.15,-10.83 -14.66,-10.83l-144.15 0 0 -601.85c0,-9.5 -4.68,-14.16 -14.18,-14.16l-53.67 0c-9.5,0 -14.16,4.66 -14.16,14.16l0 601.85 -145.84 0c-9.5,0 -14.16,4.5 -14.16,13.66l0 42.18c0,9.5 4.66,14.16 14.16,14.16l390.18 0c9,0 13.66,-2.33 13.66,-6.83z"
   id="glyph48" />
   <glyph
   unicode="W"
   horiz-adv-x="684"
   d="M663.16 672c0,-1 -0.34,-2.33 -1,-3.84l0 -4 -138.17 -652c-1.67,-8.18 -6.67,-12.17 -15.16,-12.17l-66 0c-7.99,0 -12.65,4 -13.66,12.17l-86.33 552.84 -104 -552.84c-1.35,-8.18 -6.17,-12.17 -14.66,-12.17l-61 0c-8.52,0 -13.52,4 -15.19,12.17l-124.99 653.82c-0.66,3.68 -1,6.17 -1,7.83 0,4 4,6.67 12.17,8.34l51.84 9.84c3.49,0.66 6.33,0.98 8.34,0.98 3.81,0 6.49,-3.81 7.65,-11.65l86.01 -494.35c4.16,-24 7.17,-65.66 8.84,-124.99 1.99,28.66 5.98,69.34 12.15,122l97.17 489.83c1.67,8.18 6.51,12.17 14.66,12.17l53.17 0c8.84,0 13.84,-4 15.16,-12.17l82.01 -493.66c4,-23.84 7.49,-64.49 10.83,-122 0.69,27.66 3.68,68.33 9.34,122l91.67 501.18c1.32,7.83 4.34,11.65 8.84,11.65 1.67,0 4,-0.32 7.33,-0.98l51.82 -10.67c8.02,-2.01 12.17,-5.18 12.17,-9.34z"
   id="glyph49" />
   <glyph
   unicode="Z"
   horiz-adv-x="443"
   d="M426.84 14.16c0,-9.5 -4.5,-14.16 -13.68,-14.16l-372.99 0c-9.5,0 -14.18,4.66 -14.18,14.16l0 51.68 294.01 551.17 -263.66 0c-9.5,0 -14.18,2.65 -14.18,7.83 0,0.66 0.34,1.99 1,4l0.84 2.83 10.32 42.16c1.67,8.18 6.51,12.17 14.66,12.17l333 0c9.5,0 14.18,-4.66 14.18,-14.16l0 -47.85 -295.84 -553 292.83 0c9.18,0 13.68,-4.5 13.68,-13.68l0 -43.16z"
   id="glyph50" />
   <glyph
   unicode="a"
   horiz-adv-x="462"
   d="M405.67 24.66c0,-1.99 -1.32,-3.49 -3.84,-4.84l-43 -26.83c-2.67,-1.99 -5.16,-2.99 -7.83,-2.99 -12.65,0 -25.33,21.01 -38.16,63.01 -42.84,-42 -90.67,-63.01 -143.01,-63.01 -40.33,0 -72.49,12.33 -96.15,36.84 -23.84,24.66 -35.67,58.01 -35.67,100.01 0,113 87.99,170.99 264.01,174l0 33.16c0,32 -7.17,54.83 -21.33,68.49 -14.18,13.68 -37.68,20.51 -70.68,20.51 -33.16,0 -72.99,-9.66 -119.17,-29 -2.65,-1.16 -5,-1.83 -6.83,-1.83 -3.65,0 -6.01,1.48 -6.83,4.82l-15.16 40.01 -1 7.67c0,5 8.84,11.33 26.83,19 41.34,18.16 85.82,27.31 133.33,27.31 103.84,0 155.85,-46.66 155.85,-140.16l0 -189.01c0,-55.34 8.82,-99 26.65,-131.32 1.35,-2.17 2.01,-4.18 2.01,-5.85zm-103.66 85.16l0 129.01c-124.67,-1 -187,-36.33 -187,-106.01 0,-23.5 6.83,-42.5 20.49,-57.32 13.68,-14.84 31.33,-22.34 52.66,-22.34 33.34,0 71.16,19 113.85,56.66z"
   id="glyph51" />
   <glyph
   unicode="b"
   horiz-adv-x="500"
   d="M450 272c0,-190.67 -60.84,-286 -182.66,-286 -46.34,0 -89,16.33 -128.17,49.17 -12.01,-30.17 -22.84,-45.17 -32.34,-45.17 -2.01,0 -4.5,1 -7.83,2.99l-43 26.83c-2.01,1.85 -2.99,3.52 -2.99,4.84 0.32,2.67 1.32,5 2.99,7.33 18.66,24.5 28,59.52 28,105.01l0 561.17c0,6.83 3.68,10.98 11.17,12.65l51.66 12.17c0.69,0.66 3.01,1 6.85,1 4.16,0 6.33,-3.68 6.33,-11.17l0 -268c47.34,32.84 91.83,49.17 133.33,49.17 104.51,0 156.67,-73.99 156.67,-222.01zm-81.99 -10.67c0,110.49 -29.85,165.67 -89.34,165.67 -32.5,0 -72.17,-16.33 -118.67,-48.83l0 -285.5c29.67,-25.85 64.33,-38.69 104,-38.69 69.34,0 104,69.18 104,207.34z"
   id="glyph52" />
   <glyph
   unicode="c"
   horiz-adv-x="408"
   d="M398.18 430.17l-1 -6.35 -22.02 -38.98c-2.49,-4.68 -5.16,-6.85 -7.83,-6.85 -2.83,0 -5.66,1.19 -8.15,3.84 -40.67,30.17 -75,45.17 -103,45.17 -80.85,0 -121.18,-62 -121.18,-185.83 0,-124.83 37.18,-187.18 111.33,-187.18 22.18,0 43,4.52 62.51,13.68 11.33,5.66 29.83,17.33 55.15,35.33 3.01,2.01 5.34,2.99 7.35,2.99 2.65,0 4.82,-1.99 6.83,-5.82l15.16 -38.16c1.67,-4.18 2.49,-7.51 2.83,-10.16 0,-4.5 -5.34,-10.67 -16.01,-18.5 -42.66,-31.52 -89.32,-47.34 -139.65,-47.34 -59.68,0 -106.17,21.49 -139.52,64.33 -33.32,43 -49.99,102.5 -49.99,178.66 0,82.01 18.18,146.66 54.51,194.01 36.15,47.32 85.82,71 148.65,71 44.17,0 85,-12.99 122,-39.01 14.66,-10.51 22.02,-18.66 22.02,-24.82z"
   id="glyph53" />
   <glyph
   unicode="d"
   horiz-adv-x="500"
   d="M448.49 23.66c0,-1.99 -1.83,-3.84 -5.32,-5.82l-44.99 -24.85c-2.01,-1.99 -4.52,-2.99 -7.83,-2.99 -12.01,0 -23.02,20.01 -33.18,59.84 -56.66,-42.5 -106.33,-63.83 -148.99,-63.83 -49.17,0 -87.49,23 -115.33,68.83 -27.84,45.84 -41.84,109.32 -41.84,190.33 0,76.67 16.01,137.35 48.16,181.99 32,44.51 75.66,66.85 131,66.85 34.51,0 71.16,-10.67 109.85,-32l0 236.17c0,6.17 3.33,10.32 10.16,12.65l51.66 12.17c1.32,0.66 3.49,1 6.33,1 4.5,0 6.85,-3.68 6.85,-11.17l0 -554.85c0,-52.16 8.31,-91.49 25.17,-118.16 5.48,-8.5 8.31,-13.84 8.31,-16.17zm-108.48 88.02l0 283.49c-37.02,21.17 -70.84,31.84 -101.51,31.84 -37.34,0 -64.15,-14 -80.66,-41.84 -16.49,-27.82 -24.82,-73.15 -24.82,-136.16 0,-68.99 7.15,-118.83 21.65,-149.34 14.34,-30.49 38.18,-45.68 71.19,-45.68 34.99,0 72.99,19.18 114.17,57.69z"
   id="glyph54" />
   <glyph
   unicode="e"
   horiz-adv-x="462"
   d="M432 241.01c0,-12.01 -3.68,-18 -11.17,-18l-287.83 0c5.16,-112.68 49.33,-169.02 132.32,-169.02 35.51,0 73.99,12.01 115.67,35.86 3.65,1.99 6.99,2.99 10.32,2.99 2.33,0 4.5,-1.67 6.85,-5l18 -39.01c1.32,-2.83 1.99,-5.16 1.99,-6.83 0,-7.33 -11.99,-16.67 -36.15,-27.66 -39.67,-18.84 -80.69,-28.34 -123,-28.34 -63.51,0 -114.01,22.84 -151.67,68.49 -37.5,45.84 -56.34,107.18 -56.34,184.35 0,77.99 17.84,140 53.51,186.15 35.83,46.02 83.84,69.02 144.15,69.02 83.68,0 139.84,-40.01 168.18,-120.17 10.16,-28.34 15.16,-72.51 15.16,-132.82zm-82.01 43.99c-2.33,98.68 -37.98,148.01 -107.31,148.01 -68.83,0 -105.35,-49.33 -109.67,-148.01l216.98 0z"
   id="glyph55" />
   <glyph
   unicode="f"
   horiz-adv-x="295"
   d="M341.68 688.83c0,-0.66 -0.69,-2.51 -2.01,-5.82l-16.51 -41.02c-1.32,-3.84 -3.81,-5.82 -7.33,-5.82 -2.65,0 -5.82,1 -9.82,2.99 -28.84,13.84 -54.51,20.83 -77.01,20.83 -24.98,0 -42.16,-9.82 -51.16,-29.32 -5.85,-11.67 -8.84,-36.18 -8.84,-73.67l0 -76.99 143.83 0c7.49,0 11.33,-2.33 11.33,-6.83 0,-2.67 -0.32,-4.68 -1,-6.35l-13.15 -39.99c-2.01,-5.85 -6.33,-8.84 -13.18,-8.84l-127.82 0 0 -405.83c0,-6.17 -1,-9.68 -2.99,-10.67 -1.85,-1 -4.5,-1.51 -7.83,-1.51l-53.35 0c-5,0 -7.99,0.82 -9.16,2.67 -1.16,1.83 -1.67,5 -1.67,9.5l0 405.83 -66.34 0c-5.82,0 -9.16,1 -10.16,2.99 -1,1.85 -1.48,4.68 -1.48,8.18l0 38.66c0,6.17 1.32,9.84 3.81,11.17 1.35,0.66 4.02,1 7.83,1l66.34 0 0 77.99c0,54.17 8.66,92.68 25.83,115.67 25.17,33.5 62.51,50.33 112,50.33 23.34,0 47.5,-4 72.51,-12.01 24.82,-7.83 37.34,-15.67 37.34,-23.16z"
   id="glyph56" />
   <glyph
   unicode="g"
   horiz-adv-x="500"
   d="M447 461.83c0,-2.17 -2.01,-6.49 -5.85,-12.65 -16.83,-26.33 -25.17,-60.02 -25.17,-101.01l0 -154.34c0,-47.16 1.67,-104.16 5,-170.99 1.35,-26.67 2.01,-45.68 2.01,-57 0,-117.84 -59.17,-176.83 -177.68,-176.83 -53.65,0 -103.66,12.33 -149.82,37.16 -12.17,6.17 -18.18,11.67 -18.18,16.51 0,1 0.66,3.49 2.01,7.33l18 40.17c1,3.84 2.99,5.82 5.82,5.82 2.35,0 5,-1 7.83,-2.99 47.18,-25.33 90.85,-38 131.18,-38 43.67,0 73.83,12.17 90.67,36.33 10.16,14 15.16,38.32 15.16,72.99 0,7.01 -0.34,24.16 -1,51.5l-1 52c-44.49,-36.49 -90.83,-54.83 -138.99,-54.83 -47.66,0 -85.5,19.85 -113.34,59.52 -27.82,39.83 -41.66,93.82 -41.66,162.15 0,83.02 16.49,147.01 49.33,192 32.84,44.85 79.5,67.35 140.18,67.35 40.65,0 80.82,-14 120.49,-41.84 12.17,30.51 21.49,45.84 28.34,45.84 2.99,0 5.48,-0.66 7.83,-2.01l46 -28.32c1.83,-0.84 2.83,-2.83 2.83,-5.85zm-106.01 -331.99l0 269.83c-37,18.84 -67.99,28.34 -93.32,28.34 -75.84,0 -113.69,-58.01 -113.69,-174.16 0,-60.84 7.01,-104.85 20.85,-132 14,-27.18 36.65,-40.83 68.17,-40.83 33.66,0 72.99,16.33 117.98,48.83z"
   id="glyph57" />
   <glyph
   unicode="h"
   horiz-adv-x="518"
   d="M436 12.17c0,-6.17 -1,-9.68 -2.99,-10.67 -1.85,-1 -4.68,-1.51 -8.18,-1.51l-52.66 0c-4.84,0 -7.99,0.82 -9.16,2.67 -1.35,1.83 -2.01,5 -2.01,9.5l0 332.15c0,31.17 -5,52.85 -14.82,65.18 -10,12.33 -28,18.5 -54.17,18.5 -36.84,0 -80.85,-21.01 -132,-62.83l0 -353c0,-6.17 -1.32,-9.84 -3.84,-11.17 -1.32,-0.66 -3.84,-1 -7.33,-1l-52.66 0c-4.84,0 -7.99,0.82 -9.18,2.67 -1.32,1.83 -1.99,5 -1.99,9.5l0 686c0,6.17 3.33,10.32 10.16,12.65l51.66 12.17c0.69,0.66 3.01,1 6.85,1 4.16,0 6.33,-3.68 6.33,-11.17l0 -284.67c48.51,43.83 100.17,65.84 154.84,65.84 53.49,0 89.5,-19.5 108.48,-58.51 8.52,-18 12.67,-48.83 12.67,-92.84l0 -330.49z"
   id="glyph58" />
   <glyph
   unicode="i"
   horiz-adv-x="258"
   d="M190.99 658.16c0,-16.83 -5.82,-31.33 -17.49,-43.32 -11.83,-11.83 -25.99,-17.84 -42.5,-17.84 -16.99,0 -31.33,5.82 -43.16,17.65 -11.83,11.67 -17.84,26.33 -17.84,43.51 0,16.67 6.01,30.83 18,42.5 12.17,11.51 26.67,17.33 44.01,17.33 16.17,0 30.17,-5.82 41.66,-17.68 11.51,-11.65 17.33,-25.83 17.33,-42.16zm-14.98 -645.99c0,-6.17 -0.84,-9.68 -2.67,-10.67 -1.85,-1 -4.5,-1.51 -8.18,-1.51l-53.33 0c-5,0 -7.99,0.82 -9.18,2.67 -1.16,1.83 -1.67,5 -1.67,9.5l0 405.83 -79.82 0c-5.85,0 -9.34,1 -10.51,2.99 -1.16,1.85 -1.67,4.68 -1.67,8.18l0 38.66c0,6.17 1.32,9.84 3.84,11.17 1.67,0.66 4.5,1 8.34,1l144.15 0c4.84,0 7.83,-0.84 9.02,-2.67 1.16,-1.83 1.67,-5 1.67,-9.5l0 -455.66z"
   id="glyph59" />
   <glyph
   unicode="j"
   horiz-adv-x="258"
   d="M190.99 658.16c0,-16.83 -5.82,-31.33 -17.49,-43.32 -11.83,-11.83 -25.99,-17.84 -42.5,-17.84 -16.99,0 -31.33,5.82 -43.16,17.65 -11.83,11.67 -17.84,26.33 -17.84,43.51 0,16.67 6.01,30.83 18,42.5 12.17,11.51 26.67,17.33 44.01,17.33 15.83,0 29.67,-6.01 41.5,-17.84 11.67,-11.99 17.49,-25.99 17.49,-42zm-15.99 -711.49c0,-52.34 -11.01,-90.67 -32.84,-114.67 -26.67,-29.35 -63.83,-44.01 -111.49,-44.01 -24.35,0 -51,4.5 -79.68,13.5 -28.66,8.84 -42.98,17.52 -42.98,25.67 0,2.17 0.66,4.84 1.99,7.83l19 40.01c1.35,3.81 4,5.82 7.83,5.82 0.66,0 2.99,-0.66 6.83,-2.01 31.01,-16.49 61,-24.82 90.35,-24.82 30.33,0 49.49,11.17 57.67,33.34 5.5,13.66 8.34,38.82 8.34,75.66l0 455 -80.18 0c-7.49,0 -11.33,3.68 -11.33,11.17l0 38.66c0,8.18 3.84,12.17 11.33,12.17l144.34 0c5,0 8.02,-0.84 9.18,-2.67 1.16,-1.83 1.67,-5 1.67,-9.5l0 -521.16z"
   id="glyph60" />
   <glyph
   unicode="k"
   horiz-adv-x="443"
   d="M429.17 35.99c0,-1.99 -1.67,-4.82 -5.34,-8.34l-40.99 -30.83c-3.33,-2.49 -5.82,-3.84 -7.83,-3.84 -1.32,0 -3.33,1.35 -5.82,3.84l-209.17 250.17 0 -234.82c0,-6.17 -1.32,-9.84 -3.84,-11.17 -1.32,-0.66 -3.84,-1 -7.33,-1l-52.66 0c-4.84,0 -7.99,0.82 -9.18,2.67 -1.32,1.83 -1.99,5 -1.99,9.5l0 686c0,6.17 3.33,10.32 10.16,12.65l51.66 12.17 6.85 1c4.16,0 6.33,-3.68 6.33,-11.17l0 -453.01 200.84 225.84c3.49,4.16 6.99,6.33 10.32,6.33 2.51,0 5.5,-1.48 8.68,-4.34l38.16 -24.98c3.33,-3.17 4.84,-6.17 4.84,-8.68 0,-2.65 -1.51,-5.82 -4.84,-9.32l-170.83 -186.01 178.66 -214.84c2.33,-1.99 3.33,-4.66 3.33,-7.83z"
   id="glyph61" />
   <glyph
   unicode="l"
   horiz-adv-x="258"
   d="M272.84 14c0,-5.16 -9.5,-10.51 -28.68,-16.01 -19.32,-5.32 -38,-7.99 -56.16,-7.99 -58.01,0 -91.99,23.34 -102.18,69.84 -3.15,15.32 -4.82,56.34 -4.82,123l0 516.32c0,6.85 3.65,10.67 10.83,11.67l51.5 12.17c0.5,0.66 2.83,1 6.83,1 3.84,0 5.85,-3.68 5.85,-11.17l0 -530.5c0,-51.84 0.82,-82.51 2.49,-92.33 3.17,-25.33 16.83,-38 40.83,-38 14,0 29,4 44.83,11.99 3.84,1.35 6.51,2.01 7.83,2.01 2.17,0 4.5,-2.33 6.85,-7.01l12.15 -37.16c1.16,-4.16 1.85,-6.83 1.85,-7.83z"
   id="glyph62" />
   <glyph
   unicode="m"
   horiz-adv-x="722"
   d="M640.99 12.17c0,-6.17 -0.98,-9.68 -3.15,-10.67 -2.17,-1 -5.16,-1.51 -9,-1.51l-50.68 0c-6.17,0 -9.82,1.32 -11.17,3.84 -0.66,1.67 -1,4.5 -1,8.34l0 342.82c0,48.67 -21.33,73.01 -63.99,73.01 -28.34,0 -62.32,-13.34 -101.99,-40.01l0 -375.82c0,-6.17 -1,-9.68 -3.01,-10.67 -1.83,-1 -4.5,-1.51 -7.83,-1.51l-52.32 0c-5,0 -7.99,0.82 -9.16,2.67 -1.19,1.83 -1.67,5 -1.67,9.5l0 341.84c0,49.33 -21.35,73.99 -64.01,73.99 -29.83,0 -63.17,-14.34 -100.01,-42.84l0 -372.99c0,-6.17 -0.98,-9.68 -3.15,-10.67 -2.17,-1 -5.16,-1.51 -9,-1.51l-50.68 0c-6.17,0 -9.66,1.32 -10.67,3.84 -1,1.67 -1.51,4.5 -1.51,8.34l0 358.83c0,28 -5.98,56 -18,83.84 -0.66,0.66 -0.98,2.33 -0.98,5 0,2.83 1.64,4.82 4.82,5.82l40.01 22.84c3.65,2.33 6.67,3.49 9.32,3.49 10.16,0 19.66,-19 28.84,-57 50.33,39.35 97.15,59.01 140,59.01 46.5,0 78.17,-19.66 94.66,-59.01 55.34,39.35 104,59.01 146,59.01 43.67,0 73.99,-14.66 91.33,-44.01 12.01,-20.49 18,-52.82 18,-96.99l0 -340.83z"
   id="glyph63" />
   <glyph
   unicode="n"
   horiz-adv-x="518"
   d="M437 12.17c0,-6.17 -1,-9.68 -2.99,-10.67 -1.85,-1 -4.68,-1.51 -8.18,-1.51l-52.66 0c-4.84,0 -7.99,0.82 -9.18,2.67 -1.32,1.83 -1.99,5 -1.99,9.5l0 333c0,55.15 -21.99,82.83 -66,82.83 -42.34,0 -86.33,-21.01 -132,-62.83l0 -353c0,-6.17 -1,-9.68 -2.99,-10.67 -1.85,-1 -4.68,-1.51 -8.18,-1.51l-52.66 0c-4.84,0 -7.99,0.82 -9.16,2.67 -1.35,1.83 -2.01,5 -2.01,9.5l0 342.66c0,36.49 -6.33,68.49 -19,96.17 -1,2.67 -1.67,4.5 -1.99,5.82 0,3.01 1.64,4.84 4.82,5.85l45.49 25.83c3.17,2.33 5.85,3.49 7.67,3.49 12.83,0 23,-21.99 30.83,-66.16 56.68,45.49 110.33,68.17 161.01,68.17 49.49,0 83.5,-16.17 102.18,-48.35 11.33,-19.16 16.99,-52.66 16.99,-100.49l0 -333z"
   id="glyph64" />
   <glyph
   unicode="o"
   horiz-adv-x="500"
   d="M450 243.18c0,-81.01 -18.16,-144.18 -54.33,-189.35 -36.18,-45.17 -86.51,-67.83 -151,-67.83 -61.32,0 -108.82,22.18 -142.83,66.34 -33.82,44.33 -50.84,106.15 -50.84,185.49 0,81.01 18.18,143.99 54.33,188.82 36.18,44.85 86.51,67.35 151,67.35 60.66,0 108.16,-22.18 142.33,-66.66 34.17,-44.35 51.34,-105.83 51.34,-184.16zm-81.99 0.98c0,124.51 -39.51,186.84 -118.51,186.84 -77.67,0 -116.5,-61 -116.5,-183 0,-68.83 10.32,-120.65 30.99,-155.16 17.49,-29.16 46.66,-43.83 87.49,-43.83 39.17,0 67.35,14 84.5,42 21.35,34.49 32.02,85.48 32.02,153.15z"
   id="glyph65" />
   <glyph
   unicode="p"
   horiz-adv-x="500"
   d="M450 250.01c0,-82.01 -14.82,-146.5 -44.49,-193.5 -29.85,-47 -70.34,-70.5 -122,-70.5 -37.5,0 -77.01,14.66 -118.51,43.83l0 -213.99c0,-7.17 -3.01,-11.33 -9.18,-12.67l-52.66 -14.16c-2.33,-0.66 -4.16,-1 -5.82,-1 -4.84,0 -7.33,3.49 -7.33,10.67l0 543.02c0,43.67 -6.67,75.98 -20.17,97.15 -6.51,10.85 -9.84,17.17 -9.84,19.16 0,2.17 1,3.84 3.01,4.84l42.98 30.17c2.01,2.01 4.5,2.99 7.83,2.99 10.85,0 23.18,-19.98 37.18,-59.99 50.49,38.66 98.66,58.01 144.34,58.01 58.17,0 98.5,-23.18 121.34,-69.34 22.15,-44.17 33.32,-102.5 33.32,-174.66zm-81.99 -2.01c0,57.16 -5,99.5 -15.16,127.16 -12.36,34.51 -36.33,51.84 -72.17,51.84 -29.67,0 -68.17,-16.33 -115.67,-48.83l0 -282.16c41.66,-28 77.99,-42.02 108.82,-42.02 34.17,0 58.35,14.84 72.67,44.51 14.34,29.67 21.51,79.5 21.51,149.5z"
   id="glyph66" />
   <glyph
   unicode="q"
   horiz-adv-x="500"
   d="M441.16 460.84c0,-1.35 -1.99,-6.35 -5.98,-15.19 -14.84,-31.81 -22.18,-64.65 -22.18,-98.66l0 -530.34c0,-8.66 -2.99,-14.16 -9.16,-15.99l-53.67 -15.67c-2.33,-0.66 -4.34,-1 -6.35,-1 -4.5,0 -6.83,3.68 -6.83,10.67l0 250.33c-42.32,-39.33 -86.17,-58.99 -131.82,-58.99 -47.18,0 -84.5,22.18 -112.02,66.66 -27.5,44.33 -41.15,104.51 -41.15,180.33 0,81.85 15.32,145.84 46.16,192 30.67,46.02 73.51,69.02 128.17,69.02 43.67,0 87.51,-16.01 131.84,-48.16 10.67,33.5 21.17,50.15 31.17,50.15 1.32,-0.32 2.99,-0.98 5,-1.99l42 -24.85c3.15,-2.33 4.82,-5 4.82,-8.31zm-104.16 -350.17l0 278.67c-38.16,25.17 -72.99,37.66 -104.32,37.66 -65.84,0 -98.68,-61.66 -98.68,-184.83 0,-69.34 9.02,-119.51 27.18,-150.5 14.66,-25.17 36.18,-37.68 64.68,-37.68 31.65,0 68.83,18.84 111.15,56.68z"
   id="glyph67" />
   <glyph
   unicode="r"
   horiz-adv-x="332"
   d="M333.16 478c0,-1.67 -0.66,-4 -1.99,-6.83l-24 -56.16c-1,-1.85 -2.67,-2.83 -5.34,-2.83 -0.32,0 -5.82,1.67 -16.65,4.82 -6.85,1.35 -12.52,2.01 -17.01,2.01 -22.15,0 -55.15,-25.35 -99.16,-76.16l0 -330.67c0,-6.17 -1,-9.68 -2.99,-10.67 -1.85,-1 -4.5,-1.51 -7.83,-1.51l-53.35 0c-5,0 -7.99,0.82 -9.16,2.67 -1.16,1.83 -1.67,5 -1.67,9.5l0 299.84c0,34.64 -0.84,57.48 -2.33,68.33 -3.01,22.66 -10.16,44.49 -21.83,65.32 -2.51,4.84 -3.84,8.34 -3.84,10.35 0,3.84 1.67,6.83 4.84,8.66l42 26.33c3.33,2.01 5.98,3.01 8.34,3.01 5.82,0 12.81,-8.68 20.83,-26.01 7.83,-17.49 13.66,-36.33 17.33,-56.82 31.15,34.99 54.33,57.67 69.5,67.67 15.16,10.16 33.32,15.16 54.49,15.16 11.35,0 22.52,-1.83 33.34,-5.34 11.01,-3.65 16.49,-7.17 16.49,-10.67z"
   id="glyph68" />
   <glyph
   unicode="s"
   horiz-adv-x="389"
   d="M349.01 128.01c0,-42.34 -14.68,-76.51 -44.01,-102.68 -29.16,-26.15 -67.67,-39.33 -115.17,-39.33 -54.33,0 -103.66,12.99 -147.99,39.01 -3.84,2.33 -5.85,5.32 -5.85,9.32 0,0.84 0.34,2.17 1,3.84l19 43.85c1,2.65 2.99,4 5.82,4 1.35,0 4.02,-0.69 7.83,-2.01 45.68,-22.66 86.35,-34.01 122.18,-34.01 24.16,0 43.51,6.67 58.17,20.01 14.66,13.34 21.99,30.83 21.99,52.16 0,31.01 -21.33,56.34 -63.99,76.16 -55.84,25.67 -93.18,46.18 -111.68,61.5 -30.83,25.35 -46.34,57 -46.34,95.17 0,40.67 14.18,74.02 42.68,100.01 28.5,26.01 65,39.01 109.48,39.01 26.01,0 54.01,-4.84 83.84,-14.66 30.01,-9.68 44.99,-18.84 44.99,-27.34 0,-1.85 -0.66,-4.34 -1.99,-7.17l-18 -36.68c-2.51,-4.16 -5.66,-6.33 -9.18,-6.33 0,0 -2.65,0.66 -7.83,2.01 -36.33,17.49 -67.33,26.15 -93.16,26.15 -50.49,0 -75.84,-22.5 -75.84,-67.33 0,-20.17 6.67,-36.49 20.01,-48.83 9,-8.34 43.83,-27.5 104.35,-57 37,-18 62.83,-36.33 77.49,-55.5 14.84,-19 22.18,-43.51 22.18,-73.33z"
   id="glyph69" />
   <glyph
   unicode="t"
   horiz-adv-x="332"
   d="M343 29.67c0,-7.83 -15.16,-16.33 -45.68,-25.67 -30.49,-9.34 -58.49,-14 -84.32,-14 -62.51,0 -101.01,24.35 -115.67,72.83 -4.18,13.68 -6.33,38 -6.33,73.33l0 281.84 -70.84 0c-8.18,0 -12.17,3.68 -12.17,11.17l0 38.66c0,6.17 1.35,9.84 3.84,11.17 1.67,0.66 4.5,1 8.34,1l70.84 0 0 137.16c0,6.83 3.33,11.17 10.16,12.67l51.66 14.16c3.68,1.32 5.66,1.99 6.33,1.99 4.5,0 6.85,-4 6.85,-12.15l0 -153.84 150.16 0c6.17,0 9.16,-2.33 9.16,-6.83 0,-1.67 -0.32,-3.68 -0.98,-6.35l-11.17 -38.5c-2.01,-6.83 -6.67,-10.32 -14.18,-10.32l-132.98 0 0 -281.16c0,-31.84 3.33,-52.18 9.82,-60.84 10.35,-13.34 27.18,-20.01 50.33,-20.01 20.83,0 50.84,7.99 89.84,24.16 3.33,1.16 5.82,1.85 7.49,1.85 3.49,0 5.85,-2.01 6.83,-5.85l10.67 -41.15c1.35,-2.85 2.01,-4.68 2.01,-5.34z"
   id="glyph70" />
   <glyph
   unicode="u"
   horiz-adv-x="500"
   d="M451 23c-0.66,-0.82 -2.17,-2.49 -4.5,-4.84l-44.83 -29.16c-3.01,-1.99 -5.34,-2.99 -6.83,-2.99 -10.85,0 -22.52,20.01 -35.17,59.84 -51.84,-39.83 -101.83,-59.84 -150,-59.84 -91.17,0 -136.68,44.67 -136.68,134.17l0 344.49c0,6.85 3.33,11.35 9.84,13.18l52 14.16c2.49,0.66 4.66,1 6.33,1 4.5,0 6.83,-3.68 6.83,-11.17l0 -312.17c0,-43.83 5.18,-74.15 15.67,-90.83 10.35,-16.51 29.19,-24.85 56.5,-24.85 43.51,0 85.5,17.01 125.84,50.84l0 359.83c0,7.17 3.17,11.51 9.68,13.18l52.82 14.16c2.17,0.66 4.16,1 5.66,1 4.5,0 6.83,-3.68 6.83,-11.17l0 -349.01c0,-43.16 9,-77.49 27.02,-102.82 1.99,-2.67 2.99,-5 2.99,-7.01z"
   id="glyph71" />
   <glyph
   unicode="v"
   horiz-adv-x="425"
   d="M423 466.67c0,-1.32 -0.66,-3.68 -2.01,-6.83l-182.15 -458.01c-2.17,-5.82 -6.51,-8.84 -12.67,-8.84l-38.16 0c-6.51,0 -10.83,3.01 -13.18,8.84l-168.82 460.84c-1.35,2.67 -2.01,4.66 -2.01,6.33 0,3.84 3.49,6.51 10.35,7.83l58.99 13.18 2.99 0c3.17,0 5.85,-3.17 7.67,-9.34l107 -326.83c2.01,-4.34 4.34,-11.33 7.33,-21.01l11.67 -42c5.34,20.51 11.67,41.02 19.18,61.84l119.14 328.16c1.85,6.17 4.52,9.18 7.67,9.18 1.35,0 3.33,-0.34 6.01,-1l52.16 -14.16c5.85,-1.51 8.84,-4.34 8.84,-8.18z"
   id="glyph72" />
   <glyph
   unicode="w"
   horiz-adv-x="610"
   d="M600.16 469.5c0,-1.32 -0.32,-2.83 -0.98,-4.5l-1 -2.83 -132.35 -459.34c-1.83,-6.51 -5.82,-9.84 -11.65,-9.84l-39.01 0c-6.17,0 -10.35,3.33 -12.33,9.84l-78.49 303.33c-3.33,11.67 -6.01,26.01 -8.34,43l-2.01 14.66 -2.83 21.01c-3.33,-30.01 -8.34,-55.84 -15.16,-77.67l-93.84 -305.34c-1.83,-5.82 -6.33,-8.84 -13.15,-8.84l-37 0c-6.17,0 -10.19,3.33 -11.85,9.84l-115.15 458.83c-0.69,2.67 -1,4.5 -1,5.82 0,4.68 3.17,7.35 9.34,8.34l50.65 12.67c2.67,1 4.66,1.51 6.01,1.51 3.84,0 6.67,-3.33 8.15,-10.19l70.84 -347c0.66,-2.65 2.99,-15.48 6.83,-38.66 1,6.01 5.34,24.16 13.18,54.83l95.33 324.18c1.51,5.82 5.5,8.82 11.67,8.82l39.99 0c6.51,0 10.67,-2.99 12.17,-8.82l89 -376 2.83 13.66 4.84 25.51 85 343.82c1.67,5.82 4.5,8.84 8.34,8.84 1.67,0 3.49,-0.34 5.82,-1l46 -10.67c6.85,-1.67 10.16,-4.34 10.16,-7.83z"
   id="glyph73" />
   <glyph
   unicode="z"
   horiz-adv-x="407"
   d="M389.84 59.99c0,-2.33 -0.5,-5 -1.85,-8.34l-19.16 -42.66c-1.83,-6.01 -6.33,-9 -13.15,-9l-312.01 0c-7.83,0 -11.67,4 -11.67,12.17l0 39.67 253 365.15 -221.32 0c-7.17,0 -10.67,3.68 -10.67,11.17l0 41.18c0,7.17 3.49,10.67 10.67,10.67l304.34 0c4.82,0 7.83,-0.84 9,-2.51 1.16,-1.48 1.67,-4.32 1.67,-8.15l0 -42.5 -249 -360.84 249 0c4.82,0 7.99,-0.34 9.32,-1.16 1.35,-0.84 1.85,-2.51 1.85,-4.84z"
   id="glyph74" />
   <glyph
   unicode="ä"
   horiz-adv-x="462"
   d="M373.99 629.84c0,-14.34 -5.32,-26.67 -15.99,-37.02 -10.51,-10.48 -23.34,-15.67 -38.34,-15.67 -14.32,0 -26.65,5.18 -37,15.67 -10.51,10.35 -15.67,23 -15.67,38 0,14.68 5.16,27.18 15.67,37.5 10.35,10.51 23,15.67 38,15.67 14.66,0 27.18,-5.32 37.66,-15.83 10.35,-10.67 15.67,-23.34 15.67,-38.32zm-197.32 0c0,-14.34 -5.18,-26.67 -15.67,-37.02 -10.35,-10.48 -22.68,-15.67 -37,-15.67 -15,0 -27.84,5.18 -38.34,15.67 -10.67,10.35 -16.01,23 -16.01,38 0,14.68 5.34,27.18 16.01,37.5 10.51,10.51 23.34,15.67 38.34,15.67 14.66,0 26.99,-5.32 37.32,-15.83 10.16,-10.67 15.35,-23.34 15.35,-38.32zm228.99 -605.18c0,-1.99 -1.32,-3.49 -3.84,-4.84l-43 -26.83c-2.67,-1.99 -5.16,-2.99 -7.83,-2.99 -12.65,0 -25.33,21.01 -38.16,63.01 -42.84,-42 -90.67,-63.01 -143.01,-63.01 -40.33,0 -72.49,12.33 -96.15,36.84 -23.84,24.66 -35.67,58.01 -35.67,100.01 0,113 87.99,170.99 264.01,174l0 33.16c0,32 -7.17,54.83 -21.33,68.49 -14.18,13.68 -37.68,20.51 -70.68,20.51 -33.16,0 -72.99,-9.66 -119.17,-29 -2.65,-1.16 -5,-1.83 -6.83,-1.83 -3.65,0 -6.01,1.48 -6.83,4.82l-15.16 40.01 -1 7.67c0,5 8.84,11.33 26.83,19 41.34,18.16 85.82,27.31 133.33,27.31 103.84,0 155.85,-46.66 155.85,-140.16l0 -189.01c0,-55.34 8.82,-99 26.65,-131.32 1.35,-2.17 2.01,-4.18 2.01,-5.85zm-103.66 85.16l0 129.01c-124.67,-1 -187,-36.33 -187,-106.01 0,-23.5 6.83,-42.5 20.49,-57.32 13.68,-14.84 31.33,-22.34 52.66,-22.34 33.34,0 71.16,19 113.85,56.66z"
   id="glyph75" />
  </font>
</defs>
</svg>
