<?xml version="1.0" encoding="UTF-8" standalone="no"?>
<!-- Creator: CorelDRAW 2021 (64-Bit) -->

<svg
   xml:space="preserve"
   width="209.924mm"
   height="123.874mm"
   version="1.0"
   style="shape-rendering:geometricPrecision; text-rendering:geometricPrecision; image-rendering:optimizeQuality; fill-rule:evenodd; clip-rule:evenodd"
   viewBox="0 0 20984.86 12382.94"
   id="svg188"
   sodipodi:docname="kunstwissenschaft_und_transkulturalitÑt__2-fach-m.a._.svg"
   inkscape:version="1.3-dev (77bc73e, 2022-05-18)"
   xmlns:inkscape="http://www.inkscape.org/namespaces/inkscape"
   xmlns:sodipodi="http://sodipodi.sourceforge.net/DTD/sodipodi-0.dtd"
   xmlns="http://www.w3.org/2000/svg"
   xmlns:svg="http://www.w3.org/2000/svg"><sodipodi:namedview
   id="namedview188"
   pagecolor="#ffffff"
   bordercolor="#000000"
   borderopacity="0.25"
   inkscape:showpageshadow="2"
   inkscape:pageopacity="0.0"
   inkscape:pagecheckerboard="0"
   inkscape:deskcolor="#d1d1d1"
   inkscape:document-units="mm"
   showgrid="false"
   inkscape:zoom="0.50407403"
   inkscape:cx="395.7752"
   inkscape:cy="234.0926"
   inkscape:window-width="1440"
   inkscape:window-height="900"
   inkscape:window-x="0"
   inkscape:window-y="0"
   inkscape:window-maximized="0"
   inkscape:current-layer="Ebene_x0020_1" />
 <defs
   id="defs89">
  <font
   id="FontID5"
   horiz-adv-x="500"
   font-variant="normal"
   style="fill-rule:nonzero"
   font-style="normal,italic"
   font-weight="400">
	<font-face
   font-family="Officina Sans OS ITC TT"
   id="font-face1">
		<font-face-src>
			<font-face-name
   name="Officina Sans OS ITC TT Kursiv" />
		</font-face-src>
	</font-face>
   <missing-glyph
   id="missing-glyph1"><path
     d="M0 0z"
     id="path1" /></missing-glyph>
   <glyph
   unicode="d"
   horiz-adv-x="481"
   d="M498.84 717.67c0,-1 -0.35,-3 -0.85,-5.85l-119.16 -558.82c-3.17,-15.66 -4.82,-33.85 -4.82,-54.68 0,-22.16 2.82,-43.82 8.67,-65 0.65,-2.5 1,-5.32 1,-8.17 0,-3 -2.02,-5.65 -5.85,-7.82l-46.99 -25.83c-3.52,-2.35 -6.67,-3.5 -9.34,-3.5 -4.85,0 -9.17,8.32 -12.84,24.83 -3.82,16.66 -5.67,35.32 -5.67,55.98l0 19.01c-45.81,-67.82 -98.65,-101.82 -158.15,-101.82 -72.49,0 -108.84,47.99 -108.84,143.99 0,50.34 7.34,101.67 22.01,153.83 14.66,52.33 33.67,95 57.16,128.18 38.35,54.66 89.01,81.99 151.83,81.99 36.17,0 71.34,-10.99 106.02,-33l50.66 239.01c1.32,6 4.82,9.49 10.32,10.82l51.68 12.17c0.65,0.67 3.15,1 7.32,1 4,0 5.85,-2.15 5.85,-6.32zm-140.02 -320.83c-32,21.48 -60.83,32.15 -86.83,32.15 -51.31,0 -90.16,-29.65 -116.16,-89.16 -29.15,-67.17 -43.84,-135.99 -43.84,-206.51 0,-52.16 16.69,-78.31 50.19,-78.31 38.99,0 75.67,19.16 109.81,57.48 23.01,26.35 40.84,67.85 53.18,124.68l33.65 159.68z"
   id="glyph1" />
   <glyph
   unicode="e"
   horiz-adv-x="443"
   d="M418 365.99c0,-70 -33.67,-118.33 -101,-144.99 -48.16,-19.16 -117.83,-29.33 -209.01,-30.18l0 -23.98c0,-74.52 31.35,-111.84 94.18,-111.84 43.17,0 86.51,14.31 129.67,43.17 6.15,3.82 10.99,5.82 14.16,5.82 2.65,0 5.17,-2 7.82,-5.82l23.83 -36.17c1.35,-2.5 2,-4.17 2,-4.85 0,-3.15 -3.15,-7.32 -9.67,-12.17 -55.66,-39.32 -114.16,-58.98 -175.31,-58.98 -107.84,0 -161.67,60.65 -161.67,181.98 0,104.84 32.18,191 96.68,258.67 42.67,44.84 94.83,67.32 156.33,67.32 41.17,0 73.32,-11.32 96.82,-34.15 23.51,-22.83 35.17,-54.01 35.17,-93.85zm-70.99 -3.32c0,46.16 -24.18,69.32 -72.34,69.32 -38.67,0 -71.67,-15.66 -99,-47.16 -27.33,-31.33 -46.66,-75.67 -57.66,-132.82 152.66,0 229,36.82 229,110.66z"
   id="glyph2" />
   <glyph
   unicode="o"
   horiz-adv-x="482"
   d="M443.01 326.17c0,-93.33 -25.51,-175.66 -76.67,-247.01 -45.02,-62.15 -105.52,-93.15 -181.33,-93.15 -100.67,0 -151.01,55.98 -151.01,167.82 0,93.33 25.18,176.34 75.67,249.01 42.49,60.83 102.85,91.15 181.33,91.15 101.32,0 152.01,-55.98 152.01,-167.82zm-76.02 -1c0,69.17 -30.33,103.82 -91.15,103.82 -53.01,0 -95,-31 -125.83,-93.15 -26.68,-53.68 -40.02,-114.34 -40.02,-182.01 0,-68.5 28.68,-102.82 85.83,-102.82 56.18,0 99,30.33 128.18,91.15 28.68,59.18 42.99,120.16 42.99,183.01z"
   id="glyph3" />
   <glyph
   unicode="r"
   horiz-adv-x="295"
   d="M355.17 479.83c0,-0.65 -0.35,-1.67 -1,-2.82l-23.83 -55.18c-1,-3.82 -3.35,-5.82 -6.84,-5.82 -0.67,0 -4.5,0.67 -11.34,2 -4.82,2 -12.49,3 -22.83,3 -22.48,0 -46.66,-14.34 -72.32,-42.99 -18.84,-21.51 -32.85,-42.02 -41.67,-61.5 -9.02,-19.51 -17.66,-48.66 -26.18,-87.51l-46.81 -219.16c-1.35,-6.52 -5.52,-9.84 -12.34,-9.84l-51.66 0c-5.52,0 -8.34,2 -8.34,5.85 0,1.65 0.32,4.15 1,7.32l65.32 303.66c7.17,34.5 10.67,59.83 10.67,76.17 0,15.16 -2.82,34.5 -8.67,58.01 -0.65,2.67 -1,5.17 -1,7.84 0,4.82 2.67,8.64 7.84,11.17l41.84 18.49c4.5,2.35 7.82,3.5 10.17,3.5 5.15,0 9.82,-7.32 14.31,-22.16 4.35,-14.84 6.52,-31.5 6.52,-50.01 0,-7.17 -0.67,-14.66 -2.02,-22.83 17.01,24.33 31.35,42.02 43.52,53.18 31.83,29.15 64.33,43.82 97.65,43.82 25.36,0 38.02,-4.65 38.02,-14.16z"
   id="glyph4" />
  </font>
  <font
   id="FontID1"
   horiz-adv-x="556"
   font-variant="normal"
   style="fill-rule:nonzero"
   font-style="normal"
   font-weight="700">
	<font-face
   font-family="Officina Sans OS ITC TT"
   id="font-face4">
		<font-face-src>
			<font-face-name
   name="Officina Sans OS ITC TT Fett" />
		</font-face-src>
	</font-face>
   <missing-glyph
   id="missing-glyph4"><path
     d="M0 0z"
     id="path4" /></missing-glyph>
   <glyph
   unicode="("
   horiz-adv-x="443"
   d="M405.51 -214.66c0,-5.5 -2.52,-10.02 -7.67,-13.16l-51.83 -31.68c-3.17,-2.32 -6.99,-3.5 -11.17,-3.5 -11.17,0 -42.02,38.32 -92.83,115.16 -83.34,126 -125,256.68 -125,392.17 0,75.99 11.17,146.66 33.5,211.84 22.16,65 59.5,135 111.49,209.84 38.99,56.66 63.33,84.98 72.84,84.98 5.82,0 21.16,-7.99 45.81,-23.98 16.69,-10.67 24.86,-18.69 24.86,-23.86 0,-4.5 -2.52,-10.49 -7.67,-17.99 -43.02,-61.5 -76.34,-120.33 -100,-176.34 -33.17,-78.66 -49.84,-167 -49.84,-264.5 0,-81.51 11.67,-156.68 35.15,-225.68 23.36,-69 61.68,-140.67 114.69,-215.33 5.15,-7.82 7.67,-13.84 7.67,-17.99z"
   id="glyph5" />
   <glyph
   unicode=")"
   horiz-adv-x="443"
   d="M329 244.34c0,-76.17 -11.17,-146.84 -33.67,-212.01 -22.48,-65 -59.48,-135.17 -111.31,-210.34 -39.34,-56.66 -63.85,-84.98 -73.17,-84.98 -6.49,0 -21.83,8.17 -46.01,24.33 -16.49,11.17 -24.83,19.16 -24.83,24.01 0,4.5 2.67,10.49 7.84,17.99 41.17,55.68 74.49,114.34 100.32,175.84 33.17,79.66 49.84,168.17 49.84,265.17 0,108.99 -21.33,207.84 -64,296.67 -26.5,54.98 -55.66,103.82 -87.66,146.49 -4.17,5.5 -6.35,10.84 -6.35,15.66 0,4.17 2.67,8.52 7.84,12.69l53.16 32.15c3.35,2 6.49,3 9.84,3 11.32,0 42.49,-38.17 93.15,-114.66 83.34,-126 125,-256.68 125,-392z"
   id="glyph6" />
   <glyph
   unicode="-"
   horiz-adv-x="370"
   d="M330.99 216.01c0,-8.84 -1.15,-14.34 -3.5,-16.66 -2.17,-2.17 -7.99,-3.35 -17.49,-3.35l-250.01 0c-9.49,0 -15.34,1.17 -17.51,3.67 -2.32,2.5 -3.5,7.82 -3.5,16.34l0 78.99c0,9.17 1.17,14.66 3.5,16.84 2.17,2.17 8.02,3.17 17.51,3.17l250.01 0c11.67,0 18.34,-3 19.98,-8.84 0.67,-2.17 1,-6 1,-11.17l0 -78.99z"
   id="glyph7" />
   <glyph
   unicode="1"
   horiz-adv-x="537"
   d="M459.99 21.01c0,-9.34 -1.15,-15.34 -3.32,-17.51 -2.35,-2.32 -8.17,-3.5 -17.66,-3.5l-293 0c-9.02,0 -14.84,1.17 -17.34,3.5 -2.35,2.17 -3.67,8.17 -3.67,17.51l0 50.99c0,12.02 3.17,18.66 9.32,20.01 2.52,0.67 6.52,1 11.69,1l94.98 0 0 348.01 -79.99 -44.52c-5.17,-3 -8.84,-4.32 -11.17,-4.32 -4.17,0 -8.67,4.17 -13.66,12.67l-26.33 45.34c-2.5,4.5 -3.85,8.82 -3.85,12.67 0,5.5 3.85,10.82 11.34,16.16l160 115.99 69.67 0c11.67,0 18.34,-3 19.98,-8.82 0.67,-2.5 1,-6.35 1,-11.17l0 -482 71.17 0c11.67,0 18.34,-3 19.83,-8.84 0.67,-2.5 1,-6.67 1,-12.17l0 -50.99z"
   id="glyph8" />
   <glyph
   unicode="2"
   horiz-adv-x="537"
   d="M471.01 435.34c0,-47.01 -13.34,-87.01 -40.02,-120.18 -12.32,-14.99 -24.66,-27.15 -37,-36.65 -12.34,-9.52 -39.99,-27.18 -82.99,-53.18 -40.67,-24.83 -67.17,-44.32 -79.66,-58.65 -12.69,-14.34 -19.68,-32.5 -21.33,-54.68l233.99 0c11.99,0 18.66,-3 19.98,-8.82 0.67,-2.5 1,-6.67 1,-12.17l0 -70c0,-11.67 -3,-18.34 -8.82,-20.01 -2.67,-0.67 -6.67,-1 -12.17,-1l-360 0c-9.34,0 -14.19,4.67 -14.19,14.16l0 7.84c0,62.83 9.17,111.16 27.35,144.99 25.48,47.84 75.32,95.18 149.83,142.16 44.99,28.33 71.99,47.66 80.99,58.01 14.66,17.01 22.01,37.35 22.01,61.18 0,49.81 -28,74.67 -84.01,74.67 -41.49,0 -74.32,-28.68 -98,-86.01 -4.17,-10.17 -9.32,-15.16 -15.16,-15.16 -2,0 -5.5,1 -10.67,3l-64 24.33c-8.17,3 -12.17,7.84 -12.17,14.66 0,11.49 5.5,28 16.66,49.66 11.02,21.68 23.18,40.17 36.5,55.51 37.85,43.34 91.35,65 160.5,65 57.68,0 103.84,-16.34 138.84,-48.84 35,-32.5 52.51,-75.82 52.51,-129.82z"
   id="glyph9" />
   <glyph
   unicode="3"
   horiz-adv-x="537"
   d="M464.99 117.16c0,-62.5 -23.66,-113.66 -70.82,-153.33 -42.34,-35.17 -95,-52.83 -158.18,-52.83 -57.66,0 -111.16,11.02 -160.65,32.67 -19.51,8.84 -29.35,16.16 -29.35,22.01 0,2 0.67,5.5 2,10.32l20.01 71.84c1.67,6.17 5.35,9.32 11.17,9.32 2.35,0 5.5,-1 9.84,-3 50.99,-24.83 96.5,-37.15 136.17,-37.15 73.82,0 110.81,35.65 110.81,106.99 0,66.67 -41.99,100 -125.98,100l-29.68 0c-12.17,0 -18.84,3 -20.01,8.84 -0.65,2.5 -1,6.64 -1,12.17l0 66c0,11.67 2.85,18.34 8.67,19.98 2.67,0.67 6.84,1 12.34,1l31.68 0c33.32,0 57.66,5.67 73.32,17.16 23.18,17.19 34.67,42.84 34.67,76.69 0,25.16 -7.49,45.31 -22.51,60.48 -14.99,15.19 -34.82,22.68 -59.5,22.68 -32.32,0 -62.15,-17.01 -89.98,-51.01 -5.52,-6.49 -9.84,-9.67 -13.16,-9.67 -1.85,0 -4.85,1.17 -8.67,3.85l-55.33 49.84c-3.17,3 -4.85,6.32 -4.85,10.32 0,7.17 6.99,18.34 21.01,33.67 40.99,45.34 93.83,68 158.15,68 59,0 106.52,-16.34 142.66,-49.16 36.17,-32.67 54.18,-75.49 54.18,-128.68 0,-68.67 -31.5,-118.33 -94.68,-148.98 78.51,-25.36 117.66,-82.01 117.66,-170.02z"
   id="glyph10" />
   <glyph
   unicode="4"
   horiz-adv-x="537"
   d="M500.34 64c0,-11.67 -3.17,-18.34 -9.34,-20.01 -2.67,-0.65 -6.49,-1 -11.82,-1l-57.18 0 0 -129c0,-9.49 -1.17,-15.31 -3.32,-17.49 -2.35,-2.35 -8.17,-3.5 -17.69,-3.5l-82.99 0c-11.67,0 -18.34,3.15 -20.01,9.32 -0.65,2.5 -1,6.52 -1,11.67l0 129 -244.99 0c-9.52,0 -15.34,1 -17.69,3.17 -2.15,2.17 -3.32,7.67 -3.32,16.84l0 104.99 249.01 416.83c5.17,8.84 9.99,13.19 14.16,13.19 2.67,0 6.99,-1.35 13.16,-3.85l60.15 -26.5c9.67,-4.17 14.51,-8.32 14.51,-12.67 0,-3.17 -1.85,-8.32 -5.85,-15.16l-232.82 -395.84 155.65 0 13.01 161.18c0.65,8.84 2.15,14.34 4.65,16.66 2.52,2.17 7.84,3.35 16.34,3.35l68 0c12.02,0 18.69,-3 20.01,-9.17 0.67,-2.67 1,-6.67 1,-11.84l0 -163.17 57.18 0c9.49,0 15.31,-1.32 17.66,-3.82 2.32,-2.67 3.5,-9.34 3.5,-20.01l0 -53.16z"
   id="glyph11" />
   <glyph
   unicode="F"
   horiz-adv-x="444"
   d="M459.99 674.83c0,0.5 -0.65,-3.67 -2,-12.82l-19.98 -67.85c-3.17,-11.49 -10.52,-17.16 -22.01,-17.16l-194 0 0 -164 167.17 0c11.67,0 18.34,-3.17 19.98,-9.34 0.67,-2.5 1,-6.49 1,-11.67l0 -67c0,-11.99 -3,-18.66 -9.32,-20.01 -2.5,-0.65 -6.49,-1 -11.67,-1l-167.17 0 0 -282.98c0,-11.67 -3.17,-18.34 -9.34,-20.01 -2.5,-0.67 -6.49,-1 -11.67,-1l-95 0c-9.49,0 -15.34,1.17 -17.66,3.32 -2.17,2.35 -3.32,8.17 -3.32,17.69l0 644c0,9.49 1.15,15.31 3.5,17.66 2.15,2.17 7.99,3.32 17.49,3.32l334.02 0c13.31,0 19.98,-3.67 19.98,-11.17z"
   id="glyph12" />
   <glyph
   unicode="K"
   horiz-adv-x="574"
   d="M582 44.99c0,-4.65 -4.67,-9.32 -14.16,-14.16l-86.01 -43.99c-5.17,-2.5 -9.82,-3.85 -14.16,-3.85 -3.5,0 -7.67,3.52 -12.67,10.17l-232.99 308.69 0 -280.83c0,-11.67 -3.17,-18.34 -9.34,-20.01 -2.5,-0.67 -6.49,-1 -11.67,-1l-95 0c-9.49,0 -15.34,1.17 -17.66,3.32 -2.17,2.35 -3.32,8.17 -3.32,17.69l0 644c0,9.49 1.15,15.31 3.32,17.66 2.32,2.17 8.17,3.32 17.66,3.32l95 0c11.67,0 18.34,-3.15 20.01,-9.32 0.67,-2.5 1,-6.52 1,-11.67l0 -281.18 217.01 299.52c5.15,7.14 10.17,10.67 14.99,10.67 3.35,0 7.49,-1.35 12.84,-3.85l73.17 -37.17c9.49,-4.5 14.16,-9.32 14.16,-14.66 0,-3.17 -2.35,-7.82 -7.34,-13.99l-206.99 -273.66 234.49 -290.67c5.17,-5.5 7.67,-10.49 7.67,-15.01z"
   id="glyph13" />
   <glyph
   unicode="M"
   horiz-adv-x="704"
   d="M636.33 13.16c0,-8.84 -6.99,-13.16 -21.01,-13.16l-90.33 0c-8.32,0 -13.99,1.17 -16.49,3.32 -2.67,2.35 -4.17,7.84 -4.5,16.69l-6.84 387.15c0,35.17 0.32,71.84 1,110.01 -14.49,-65.17 -27,-113.51 -37,-145.16l-63.83 -205.02c-2.35,-7.49 -4.5,-11.99 -6.84,-13.66 -2.32,-1.67 -7.67,-2.5 -15.99,-2.5l-61 0c-8.17,0 -13.16,1 -15.34,2.67 -2.17,1.82 -4.35,6.67 -6.49,14.49l-56.18 194.85c-10.99,38.99 -23.16,90.48 -36.5,154.33l0 -157.35 -7.99 -339.81c0,-8.84 -1.32,-14.34 -3.85,-16.69 -2.65,-2.15 -8.32,-3.32 -17.16,-3.32l-80.99 0c-13.34,0 -20.01,4.82 -20.01,14.49l0 5.52 29.33 646c0.67,13.31 7.67,19.98 21.01,19.98l98.67 0c11.32,0 18.84,-5.32 22.33,-16.16l79.66 -252.83c6.82,-20.83 15.99,-59.33 27.33,-115.16 12.67,47.84 24.01,86.48 33.67,116.16l84.98 251.83c2.67,7.49 5.02,12.17 7.02,13.66 2.15,1.67 7.17,2.5 14.99,2.5l94.18 0c8.49,0 13.99,-1.15 16.66,-3.32 2.5,-2.35 4,-7.84 4.32,-16.66l33.17 -652.84z"
   id="glyph14" />
   <glyph
   unicode="S"
   horiz-adv-x="481"
   d="M451.99 193.98c0,-61.82 -20.15,-111.98 -60.32,-150.32 -40.17,-38.5 -92.66,-57.66 -157.85,-57.66 -40.34,0 -85.17,7.16 -134.66,21.48 -49.5,14.36 -74.14,27.18 -74.14,38.5 0,2 0.67,5.66 2,11.16l33.14 85.83c2.33,6 5.2,8.83 8.86,8.83 2.17,0 5.33,-1 9.16,-2.83 59.65,-32.64 110.65,-49 152.98,-49 59.85,0 89.83,27.68 89.83,83 0,25.01 -6.99,45.33 -20.98,61.02 -13.32,14.66 -51.33,37.64 -113.85,68.81 -59.82,30.01 -100.82,58.69 -123.01,86.17 -22.15,27.51 -33.14,63.35 -33.14,107.68 0,59.15 19.82,106.32 59.32,141.16 39.5,34.84 92.83,52.16 159.84,52.16 39.34,0 81,-7.16 125,-21.65 43.83,-14.52 65.82,-28.18 65.82,-41.17 0,-1.33 -1,-4.16 -2.83,-8.36l-36.17 -75.64c-2.33,-4.83 -5.33,-7.33 -8.83,-7.33 -2.33,0 -15.32,6.16 -39.17,18.15 -34.17,17.32 -67.48,26.01 -100.16,26.01 -28.01,0 -50.16,-6.53 -66.35,-19.52 -16.32,-12.99 -24.48,-30.84 -24.48,-53.16 0,-25.18 12.99,-46.16 39,-63.02 9.49,-6.33 44.5,-24.65 104.99,-55.32 51.49,-25.65 88.67,-54.66 111.51,-86.83 22.98,-32.18 34.47,-71.65 34.47,-118.18z"
   id="glyph15" />
   <glyph
   unicode="T"
   horiz-adv-x="407"
   d="M437.16 674.83c0,-3 -0.65,-6.82 -2,-11.82l-20.98 -79.01c-3.02,-11.34 -10.34,-16.99 -22.01,-16.99l-123.18 0 0 -546c0,-9.52 -1.15,-15.34 -3.32,-17.51 -2.35,-2.32 -8.17,-3.5 -17.66,-3.5l-97 0c-9.52,0 -15.34,1.17 -17.69,3.5 -2.15,2.17 -3.32,7.99 -3.32,17.51l0 546 -126 0c-9.49,0 -15.34,1 -17.49,3.15 -2.35,2.17 -3.52,7.67 -3.52,16.84l0 78.01c0,9.49 1.17,15.31 3.67,17.66 2.5,2.17 8.17,3.32 17.34,3.32l413.18 0c13.31,0 19.98,-3.67 19.98,-11.17z"
   id="glyph16" />
   <glyph
   unicode="a"
   horiz-adv-x="482"
   d="M439.83 28c0,-4.67 -2.67,-7.84 -7.84,-9.84l-78.16 -31.15c-3,-2 -6.99,-3 -12.17,-3 -9.17,0 -19.16,19.66 -29.83,58.98 -37.17,-38 -79.66,-56.98 -128,-56.98 -45.84,0 -82.34,13.66 -109.34,40.99 -27,27.33 -40.49,64.15 -40.49,110.34 0,87.48 49.66,140.99 149.01,160.5 26.15,5.15 63.5,8.32 111.99,9.32l0 30.68c0,28.65 -4.67,48.34 -14.16,59 -9.49,10.82 -26.65,16.16 -51.83,16.16 -30,0 -67.32,-8.67 -111.99,-25.83 -4.17,-2.17 -8.02,-3.35 -11.17,-3.35 -4.17,0 -7.52,3.35 -9.84,10.17l-21.01 60c-1.65,3.5 -2.5,7.17 -2.5,10.67 0,10.84 18.66,21.16 55.83,31.18 37,10.17 75.67,15.16 115.69,15.16 80.49,0 132.32,-25.68 155.83,-77.17 9.49,-20.51 14.16,-48.01 14.16,-82.84l0 -203.99c0,-40.34 7.67,-76.34 22.83,-107.84 2,-4.35 3,-7.99 3,-11.17zm-144.84 85.66l0 110.51c-49.99,0 -86.01,-6.17 -107.49,-18.34 -21.68,-12.34 -32.5,-32.85 -32.5,-61.85 0,-19.66 6.17,-36 18.49,-49.16 12.34,-13.16 27.5,-19.83 45.34,-19.83 26.68,0 52.16,12.84 76.17,38.67z"
   id="glyph17" />
   <glyph
   unicode="c"
   horiz-adv-x="407"
   d="M405.51 454c0,-4 -0.85,-7.67 -2.85,-11.17l-34.67 -64c-2.65,-4.5 -5.65,-6.82 -9.32,-6.82 -2.85,0 -6.17,1.32 -9.67,4 -31,22.66 -59.18,34 -85.01,34 -66,0 -99,-56.01 -99,-167.84 0,-105.49 33.32,-158.15 100,-158.15 26.68,0 54.01,9.32 82.01,27.83 4.82,3.5 8.49,5.32 10.67,5.32 3,0 5.82,-2.32 8.32,-7.32l24.01 -61c1.82,-4.85 2.85,-8.67 2.85,-11.67 0,-12.67 -15.69,-24.83 -47.19,-36.67 -31.33,-11.67 -64,-17.51 -97.82,-17.51 -68,0 -120.83,22.18 -158.5,66.67 -37.5,44.34 -56.33,106.67 -56.33,187.18 0,84.83 20.66,151.83 61.83,200.67 41.17,48.99 97.5,73.49 169.17,73.49 30.5,0 61.83,-6.49 93.68,-19.34 32,-12.84 47.84,-25.33 47.84,-37.67z"
   id="glyph18" />
   <glyph
   unicode="d"
   horiz-adv-x="518"
   d="M465.66 30.83c0,-3.5 -3,-6.49 -8.84,-8.67l-82.99 -33.15c-5.17,-2 -8.67,-3 -10.17,-3 -11.17,0 -20.16,16.99 -27,51.16 -43.84,-36.17 -90.65,-54.18 -139.99,-54.18 -51.83,0 -91.83,22.18 -120.18,66.67 -28.33,44.34 -42.49,107.02 -42.49,188 0,95.33 19.51,166.5 58.68,213.33 33.82,39.99 76.49,60 127.65,60 32.18,0 65.17,-9.34 98.67,-28.18l0 203.17c0,10.02 5,16.01 15.16,18.01l102 19.98c6.49,0 9.84,-5.65 9.84,-16.99l0 -583.85c0,-30.33 5.82,-58.83 17.66,-85.83 0.67,-1.65 1.32,-3.82 2,-6.49zm-146.66 85.33l0 275.84c-23.83,12.02 -47.84,18.01 -71.84,18.01 -31.65,0 -53.98,-12.34 -66.82,-37.17 -12.84,-24.68 -19.34,-67.35 -19.34,-127.83 0,-57.86 6.17,-99.67 18.34,-125.5 12.17,-25.68 32,-38.5 59.5,-38.5 31.33,0 58.01,11.67 80.16,35.15z"
   id="glyph19" />
   <glyph
   unicode="e"
   horiz-adv-x="481"
   d="M450 237.84c0,-8.67 -1.32,-15.01 -3.85,-19.01 -2.65,-3.82 -8.64,-5.82 -17.99,-5.82l-268.17 0c2,-84.01 38.82,-126 110.49,-126 37.17,0 75.02,10.32 113.34,31.15 5.17,2.67 9.52,3.85 13.01,3.85 5,0 8.67,-3 11.32,-9.17l24.68 -59.5c2,-5 3,-8.67 3,-11.34 0,-8.67 -13.66,-18.99 -40.99,-30.65 -43.67,-18.84 -89.68,-28.35 -138.17,-28.35 -63.5,0 -113.19,16.51 -149.01,49.34 -49.84,45.51 -74.67,115.84 -74.67,210.84 0,80.34 20.01,145.01 60,194.17 40.17,49.16 93,73.67 158.83,73.67 132.17,0 198.17,-91 198.17,-273.16zm-133 68.15c-1,41.52 -6.99,70.85 -18.16,88.01 -11.02,17.34 -29.35,26 -54.68,26 -29.65,0 -51.34,-12.49 -64.65,-37.67 -8.84,-16.34 -15.01,-41.82 -18.51,-76.34l156 0z"
   id="glyph20" />
   <glyph
   unicode="f"
   horiz-adv-x="352"
   d="M380.01 687.84c0,-0.35 -0.67,-2.85 -2,-7.67l-18.01 -71.34c-2.32,-5.82 -5.32,-8.67 -8.82,-8.67 -2.35,0 -5.67,0.85 -10.34,2.85 -20.16,9.32 -40.17,13.99 -60.18,13.99 -22.66,0 -38.65,-6.99 -47.81,-21.01 -5.17,-8.49 -7.84,-28.48 -7.84,-59.98l0 -42.02 114.01 0c11.32,0 16.99,-3.32 16.99,-10.17 -0.32,-2.65 -0.82,-5.82 -1.82,-9.82l-14.16 -57.83c-2.35,-10.17 -8.67,-15.19 -19.19,-15.19l-95.83 0 0 -383.83c0,-11.49 -5.67,-17.16 -17.16,-17.16l-92.68 0c-11.49,0 -17.16,5.67 -17.16,17.16l0 383.83 -75.99 0c-8.34,0 -13.34,1 -14.84,3.17 -1.5,2.17 -2.17,8.99 -2.17,20.68l0 54.98c0,9.52 5.67,14.16 17.01,14.16l75.99 0 0 42.02c0,61.15 10.99,105.49 32.82,132.82 29.5,36.85 72.02,55.16 127,55.16 30.68,0 58.68,-3.65 84.01,-11.17 25.51,-7.49 38.17,-15.81 38.17,-24.98z"
   id="glyph21" />
   <glyph
   unicode="h"
   horiz-adv-x="537"
   d="M472.01 17.01c0,-11.34 -5.67,-17.01 -17.19,-17.01l-93.15 0c-11.17,0 -16.66,5.67 -16.66,17.16l0 308.66c0,30.35 -4.17,52.01 -12.67,64.85 -8.52,12.84 -22.68,19.34 -42.52,19.34 -27.33,0 -55.83,-13.66 -85.83,-41.17l0 -351.68c0,-11.49 -5.67,-17.16 -17.16,-17.16l-92.65 0c-11.52,0 -17.19,5.67 -17.19,17.16l0 668.83c0,10.02 4.85,16.01 14.69,18.01l93.33 18.99c1.82,0.67 4.82,1 8.82,1 6.84,0 10.17,-5.65 10.17,-16.99l0 -253.83c40.67,38.5 86.51,57.83 137.67,57.83 51.51,0 88.18,-18.01 110.34,-54.18 13.34,-21.83 20.01,-56.16 20.01,-103l0 -336.81z"
   id="glyph22" />
   <glyph
   unicode="i"
   horiz-adv-x="295"
   d="M235.99 641c0,-22.51 -7.82,-41.49 -23.48,-57.33 -15.69,-15.84 -34.85,-23.68 -57.68,-23.68 -22.66,0 -41.67,7.84 -57.33,23.68 -15.66,15.84 -23.51,35.17 -23.51,58.33 0,21.83 8.02,40.49 24.01,56.33 16.01,15.84 35.17,23.66 57.66,23.66 22.36,0 41.17,-7.99 56.86,-23.83 15.66,-15.99 23.48,-35 23.48,-57.16zm-13.99 -623.99c0,-11.34 -5.67,-17.01 -17.16,-17.01l-93.18 0c-11.17,0 -16.66,5.67 -16.66,17.16l0 383.83 -75.99 0c-11.34,0 -17.01,5.67 -17.01,17.01l0 59c0,11.32 5.67,16.99 17.01,16.99l185.98 0c11.34,0 17.01,-5.67 17.01,-16.99l0 -459.99z"
   id="glyph23" />
   <glyph
   unicode="k"
   horiz-adv-x="500"
   d="M502.84 42.99c0,-4.15 -3.35,-8.17 -9.84,-12.17l-78.99 -43.99c-5,-2.5 -8.34,-3.85 -10.34,-3.85 -3.82,0 -8.17,3.17 -12.67,9.34l-187.01 239.66 0 -214.83c0,-11.49 -5.67,-17.16 -17.16,-17.16l-92.65 0c-11.52,0 -17.19,5.67 -17.19,17.16l0 668.83c0,10.02 4.85,16.01 14.69,18.01l102.15 19.98c6.84,0 10.17,-5.65 10.17,-16.99l0 -400.84 193.85 195c5.15,5.17 9.32,7.84 12.17,7.84 2,0 5.82,-2.35 11.67,-6.84l54.33 -42.99c5.17,-4.17 7.67,-8.34 7.67,-12.17 0,-3.35 -2.17,-7.17 -6.84,-11.67l-164 -158.33 184.16 -221.68c3.85,-4.32 5.85,-8.34 5.85,-12.34z"
   id="glyph24" />
   <glyph
   unicode="l"
   horiz-adv-x="277"
   d="M289.18 11.34c0,-6.84 -11.02,-13.34 -32.85,-19.34 -21.66,-6 -44.49,-9.02 -68.32,-9.02 -59.5,0 -97.5,24.18 -113.66,72.34 -6.17,17.16 -9.34,57.68 -9.34,121.51l0 508.16c0,10.67 5,17.01 15.16,19.01l89.83 17.99c6.84,1.35 11.02,2 12.17,2 6.52,0 9.84,-5.65 9.84,-17.16l0 -520.82c0,-39.17 0.67,-61.18 2,-66 3.5,-13.34 11.99,-20.01 25.33,-20.01 9.17,0 20.01,2 32.67,6 2,0.67 4.32,1 6.82,1 4.67,0 7.34,-2 8.34,-6l21.01 -85.83c0.65,-1.32 1,-2.5 1,-3.82z"
   id="glyph25" />
   <glyph
   unicode="m"
   horiz-adv-x="777"
   d="M714.99 16.99c0,-11.32 -5.66,-16.99 -17.15,-16.99l-92.66 0c-11.49,0 -17.15,5.66 -17.15,16.99l0 316.02c0,51.33 -15.02,76.97 -45.03,76.97 -24.65,0 -53.33,-14.99 -85.97,-44.83l0 -348.17c0,-11.32 -5.7,-16.99 -17.19,-16.99l-90.66 0c-11.49,0 -17.15,5.66 -17.15,17.15l0 307.66c0,28.18 -1.67,47.03 -4.83,56.86 -6.2,18.82 -20.02,28.31 -41.17,28.31 -25.01,0 -53.69,-14.32 -86,-43l0 -349.83c0,-11.49 -5.7,-17.15 -17.19,-17.15l-91.16 0c-11.16,0 -16.65,5.66 -16.65,16.99l0 335.84c0,41 -6,77.01 -18.02,108.02 -2,3.83 -3,7.66 -3,11.16 0,5.5 3.66,9.49 10.83,11.66l81.17 27.35c6.53,1.33 9.86,2 9.86,2 11.66,0 22.48,-24.01 32.14,-72.01 50.66,46.66 100.36,70.01 149.35,70.01 51.49,0 87.83,-23.35 108.98,-70.01 51.66,46.66 103.19,70.01 154.68,70.01 46.66,0 78.67,-16.85 95.83,-50.33 12.16,-23.02 18.15,-61.35 18.15,-114.68l0 -329.01z"
   id="glyph26" />
   <glyph
   unicode="n"
   horiz-adv-x="537"
   d="M473.01 17.01c0,-11.34 -5.67,-17.01 -17.19,-17.01l-93.15 0c-11.17,0 -16.66,5.67 -16.66,17.16l0 308.66c0,56.18 -19.01,84.18 -57.18,84.18 -26,0 -54.98,-13.66 -86.83,-41.17l0 -351.68c0,-11.49 -5.67,-17.16 -17.16,-17.16l-93.15 0c-11.19,0 -16.69,5.67 -16.69,17.16l0 335.84c0,42.84 -6.82,79.16 -20.66,108.84 -2.17,4.15 -3.32,7.67 -3.32,10.17 0,4 2.82,6.82 8.32,8.82l88.68 33.17c3.65,1.32 6.99,2 10.32,2 12.34,0 24.18,-23.01 35.67,-69.17 46.49,42.84 96.33,64.18 149.66,64.18 86.18,0 129.35,-52.66 129.35,-158.18l0 -335.81z"
   id="glyph27" />
   <glyph
   unicode="r"
   horiz-adv-x="352"
   d="M365.17 488.5c0,-1.82 -0.67,-5.5 -2.32,-10.67l-30.85 -80.84c-2.32,-5.82 -4.82,-8.82 -7.82,-8.82 -1,0 -3.35,0.65 -7.34,2 -14.99,5.17 -28.33,7.82 -39.99,7.82 -21.51,0 -46.84,-15.99 -75.84,-47.81l0 -333.02c0,-11.49 -5.67,-17.16 -17.16,-17.16l-93.18 0c-11.17,0 -16.66,5.67 -16.66,17.01l0 303.66c0,47.81 -9.99,94.15 -30,139.17 -1.32,3.82 -2,6.99 -2,9.17 0,4.32 3.35,7.49 9.84,9.82l80.99 28.68c5.85,2.32 10.02,3.5 12.17,3.5 13.34,0 26,-26 38.17,-77.84 7.84,9.34 19.01,22.33 33.67,38.84 26,25.98 56.51,38.99 91.33,38.99 14.66,0 27.83,-2.35 39.49,-6.84 11.67,-4.5 17.51,-9.67 17.51,-15.66z"
   id="glyph28" />
   <glyph
   unicode="s"
   horiz-adv-x="425"
   d="M393 144.99c0,-45.49 -15.34,-84.16 -45.84,-116.16 -29.48,-30.5 -70.5,-45.84 -122.65,-45.84 -58.83,0 -115.34,14.01 -169.49,42.02 -14.66,7.49 -22.01,13.84 -22.01,18.99 0,2.67 1,6.67 3,12.17l22.83 61c2.67,6.52 6,9.84 9.84,9.84 2.32,0 5.32,-1 9.32,-3 52.83,-28.68 98,-42.99 135.84,-42.99 38.82,0 58.15,17.16 58.15,51.66 0,14.34 -4.82,25.51 -14.31,33.32 -9.67,7.67 -30.5,17.66 -62.68,29.68 -52.51,20.16 -87.01,38.32 -103.99,54.16 -26.68,25.51 -39.99,58.18 -39.99,98.17 0,47.84 16.66,86.98 49.99,117.33 33.32,30.5 75.99,45.66 128,45.66 31.5,0 64.82,-5.35 100,-16.16 35,-10.67 52.66,-20.68 52.66,-30.18 0,-2.5 -1,-6.17 -3,-10.67l-24.66 -57.01c-2.67,-5.82 -6,-8.82 -10.17,-8.82 -1.32,0 -4,0.65 -7.84,2 -38.5,17.16 -71.99,25.83 -100.5,25.83 -42.32,0 -63.5,-17.01 -63.5,-50.84 0,-13.66 4.17,-24.16 12.34,-31.33 8.17,-7.34 25.83,-16.34 53.01,-26.68 60,-23.51 98.32,-43.49 114.99,-60 27.18,-26.83 40.67,-60.83 40.67,-102.17z"
   id="glyph29" />
   <glyph
   unicode="t"
   horiz-adv-x="370"
   d="M365.99 22.01c0,-8.17 -10.32,-15.34 -31.15,-22.01 -35.17,-11.34 -68.85,-17.01 -101.17,-17.01 -59.18,0 -99.5,21.51 -121.01,64.5 -9.17,18.84 -13.66,49.84 -13.66,92.68l0 260.82 -69.32 0c-11.17,0 -16.69,5.67 -16.69,17.01l0 59c0,11.32 5.52,16.99 16.69,16.99l69.32 0 0 126.18c0,10.49 5.35,16.49 16.16,18.16l91.83 12.67 8.84 0c6.84,0 10.17,-5.32 10.17,-16.16l0 -140.84 113.66 0c11.34,0 17.16,-3.32 17.16,-10.17 0,-4 -0.32,-6.82 -1,-8.82l-13.16 -58.83c-2,-10.17 -7.82,-15.19 -17.66,-15.19l-99 0 0 -242.99c0,-22.83 1.17,-37.5 3.5,-43.99 4.5,-13.34 15.66,-20.01 33.5,-20.01 15.66,0 37.67,5.67 66,16.84 3.17,1.32 6.17,2 8.67,2 4.67,0 7.99,-3.35 10.34,-9.84l15.66 -69.67c1.5,-6 2.32,-9.67 2.32,-11.32z"
   id="glyph30" />
   <glyph
   unicode="u"
   horiz-adv-x="537"
   d="M485 15.34c0,-4 -3.32,-6.67 -9.84,-8.34l-83.98 -18.99c-5.85,-1.35 -9.67,-2 -11.17,-2 -11.52,0 -21.33,18.31 -29.83,54.98 -40.67,-38.67 -86.86,-58.01 -138.17,-58.01 -50.19,0 -87.68,14.34 -112.84,43.02 -16.34,18.49 -26.5,42.67 -30.68,72.32 -2.32,14.01 -3.5,40.67 -3.5,80.01l0 293.17c0,9.67 5,15.49 15.16,17.49l92.83 20.01c1.35,0.65 4,1 8.34,1 7.17,0 10.67,-5.17 10.67,-15.66l0 -310.18c0,-37.5 3.17,-61.83 9.34,-73.32 9.32,-17.84 26.65,-26.83 51.66,-26.83 26.65,0 54.33,11.99 82.99,36.15l0 351.18c0,9.84 5.02,15.66 15.19,17.66l92.83 20.01 10.17 1c5.82,0 8.82,-5.17 8.82,-15.66l0 -368.16c0,-42.67 6.35,-76.67 19.01,-102.02 2,-3 3,-6 3,-8.82z"
   id="glyph31" />
   <glyph
   unicode="w"
   horiz-adv-x="667"
   d="M658.16 477.16c0,0 -1.17,-3.5 -3.5,-10.32l-137.67 -461.17c-2.82,-9.17 -9.34,-13.66 -19.01,-13.66l-82.99 0c-7.17,0 -11.67,0.65 -13.51,2.15 -1.65,1.52 -3.32,6.02 -4.65,13.51l-46.84 253.5c-1,4.5 -3.35,21.48 -7.34,50.84l-3.82 37.15 -3 23.86c-2.5,-22.83 -8.52,-60 -18.01,-111.84l-59.15 -254.5c-2.17,-9.84 -8.02,-14.66 -17.51,-14.66l-81.99 0c-9.52,0 -15.51,4.82 -18.19,14.66l-120.98 460.17c-1.35,5.17 -2,8.99 -2,11.17 0,5.32 5,8.49 15.16,9.82l87.83 13.19c0.65,0.65 3.32,1 7.82,1 6.17,0 10.34,-4.67 12.17,-14.19l47.01 -230c5.17,-25.33 12.17,-77.66 20.98,-156.83 6.17,68.67 12.19,116.66 18.01,144.01l49.84 233.82c2.17,10.17 8.34,15.16 17.99,15.16l89.86 0c10.17,0 16.16,-5 18.16,-15.16l45.34 -225c6.82,-35.17 13.31,-85.98 19.48,-152.83 8.84,84.33 16.34,139.67 22.51,166.17l50.84 220.65c2.17,9.52 5.82,14.19 10.67,14.19 5.5,0 8.67,-0.35 9.32,-1l82.01 -13.19c10.17,-1.32 15.16,-4.82 15.16,-10.67z"
   id="glyph32" />
   <glyph
   unicode="ä"
   horiz-adv-x="482"
   d="M393.84 637.16c0,-19.16 -6.67,-35.5 -20.18,-48.99 -13.49,-13.51 -29.83,-20.33 -48.66,-20.33 -19.16,0 -35.5,6.82 -48.99,20.33 -13.51,13.49 -20.33,29.83 -20.33,48.99 0,19.19 6.82,35.52 20.33,48.84 13.49,13.34 30.15,20.01 49.99,20.01 18.51,0 34.5,-6.84 47.84,-20.33 13.34,-13.49 20.01,-29.68 20.01,-48.51zm-177.19 0c0,-19.16 -6.82,-35.5 -20.33,-48.99 -13.49,-13.51 -29.65,-20.33 -48.49,-20.33 -19.01,0 -35.17,6.82 -48.66,20.33 -13.51,13.49 -20.18,29.83 -20.18,48.99 0,19.19 6.67,35.52 20.18,48.84 13.49,13.34 30,20.01 49.66,20.01 18.51,0 34.5,-6.84 47.84,-20.33 13.34,-13.49 19.98,-29.68 19.98,-48.51zm223.18 -609.15c0,-4.67 -2.67,-7.84 -7.84,-9.84l-78.16 -31.15c-3,-2 -6.99,-3 -12.17,-3 -9.17,0 -19.16,19.66 -29.83,58.98 -37.17,-38 -79.66,-56.98 -128,-56.98 -45.84,0 -82.34,13.66 -109.34,40.99 -27,27.33 -40.49,64.15 -40.49,110.34 0,87.48 49.66,140.99 149.01,160.5 26.15,5.15 63.5,8.32 111.99,9.32l0 30.68c0,28.65 -4.67,48.34 -14.16,59 -9.49,10.82 -26.65,16.16 -51.83,16.16 -30,0 -67.32,-8.67 -111.99,-25.83 -4.17,-2.17 -8.02,-3.35 -11.17,-3.35 -4.17,0 -7.52,3.35 -9.84,10.17l-21.01 60c-1.65,3.5 -2.5,7.17 -2.5,10.67 0,10.84 18.66,21.16 55.83,31.18 37,10.17 75.67,15.16 115.69,15.16 80.49,0 132.32,-25.68 155.83,-77.17 9.49,-20.51 14.16,-48.01 14.16,-82.84l0 -203.99c0,-40.34 7.67,-76.34 22.83,-107.84 2,-4.35 3,-7.99 3,-11.17zm-144.84 85.66l0 110.51c-49.99,0 -86.01,-6.17 -107.49,-18.34 -21.68,-12.34 -32.5,-32.85 -32.5,-61.85 0,-19.66 6.17,-36 18.49,-49.16 12.34,-13.16 27.5,-19.83 45.34,-19.83 26.68,0 52.16,12.84 76.17,38.67z"
   id="glyph33" />
  </font>
  <font
   id="FontID0"
   horiz-adv-x="537"
   font-variant="normal"
   style="fill-rule:nonzero"
   font-style="normal"
   font-weight="400">
	<font-face
   font-family="Officina Sans OS ITC TT"
   id="font-face33">
		<font-face-src>
			<font-face-name
   name="Officina Sans OS ITC TT" />
		</font-face-src>
	</font-face>
   <missing-glyph
   id="missing-glyph33"><path
     d="M0 0z"
     id="path33" /></missing-glyph>
   <glyph
   unicode="("
   horiz-adv-x="370"
   d="M316.83 -202.17c0,-3.82 -5.67,-9.49 -16.84,-16.84 -11.17,-7.32 -19.98,-10.99 -26.15,-10.99 -9.67,0 -32.67,27 -68.85,80.99 -81.99,122.85 -122.98,255.5 -122.98,398.02 0,153.66 48.31,296.67 144.99,429.17 24.51,33.15 39.99,49.84 46.84,49.84 3.67,0 7.67,-1.35 12.34,-3.85l23.83 -15.16c4.65,-3 6.82,-5.85 6.82,-8.84 0,-3.82 -2.82,-9.99 -8.82,-17.99 -96,-128 -144.01,-272.34 -144.01,-433.16 0,-159.85 48.01,-304.16 144.01,-433.16 6,-8.02 8.82,-14.16 8.82,-18.01z"
   id="glyph34" />
   <glyph
   unicode=")"
   horiz-adv-x="370"
   d="M289 249.01c0,-153.33 -48.34,-296.35 -145.16,-429.17 -24.33,-33.17 -39.99,-49.84 -46.84,-49.84 -3.5,0 -7.67,1.32 -12.17,3.82l-24.01 14.16c-4.5,3.67 -6.82,6.84 -6.82,9.84 0,3.85 3,9.99 8.82,18.01 96.18,129 144.16,273.31 144.16,433.16 0,159.83 -47.99,304.16 -144.16,433.16 -5.82,7.82 -8.82,13.84 -8.82,17.99 0,3 7.67,9.34 22.98,19.01 9.34,5.82 16.19,8.84 20.01,8.84 9.17,0 32,-27 68.82,-81.01 82.19,-120.51 123.18,-253.15 123.18,-397.99z"
   id="glyph35" />
   <glyph
   unicode=","
   horiz-adv-x="295"
   d="M232.99 107.17c0,-1.67 -1.32,-4.82 -4,-9.84l-115.16 -212.49c-3.35,-5.85 -6.49,-8.84 -9.84,-8.84 -1,0 -2.67,0.32 -4.82,1l-3 1 -22.01 8.34c-7.49,2.5 -11.17,5.5 -11.17,8.67 0,0.65 0.67,3.32 2,7.82l58.01 200.52c2,7.14 6.99,10.67 15.16,10.67l81.16 0c8.99,0 13.66,-2.35 13.66,-6.84z"
   id="glyph36" />
   <glyph
   unicode="."
   horiz-adv-x="295"
   d="M219.16 57.16c0,-19.48 -6.99,-36.15 -20.83,-50.16 -13.81,-13.99 -30.33,-20.98 -49.49,-20.98 -19.83,0 -36.67,6.82 -50.34,20.48 -13.66,13.66 -20.51,30.5 -20.51,50.66 0,19.51 7.02,36.17 21.01,49.69 14.01,13.49 31,20.16 50.84,20.16 18.51,0 34.67,-6.84 48.49,-20.66 13.84,-13.84 20.83,-30.18 20.83,-49.19z"
   id="glyph37" />
   <glyph
   unicode="/"
   horiz-adv-x="443"
   d="M427.99 721.17c0,-2 -1,-5.32 -3,-10.34l-387.67 -930.98c-2.5,-5.85 -7.99,-8.84 -15.99,-8.84l-39.17 0c-8.82,0 -13.16,2.32 -13.16,6.82 0,3.02 1.17,6.02 3.5,9.34l386.68 930.68c2.82,6.82 8.32,10.17 16.16,10.17l38.99 0c9.17,0 13.66,-2.35 13.66,-6.84z"
   id="glyph38" />
   <glyph
   unicode="0"
   horiz-adv-x="500"
   d="M457 292.17c0,-204.17 -69.17,-306.16 -207.49,-306.16 -57.68,0 -102.85,19.66 -135.49,58.98 -46.01,56.01 -69.02,134.35 -69.02,234.84 0,96.68 18.84,171.84 56.51,225.68 37.67,53.66 90.33,80.49 157.83,80.49 63.68,0 112.51,-25.33 146.51,-75.84 34.17,-50.66 51.16,-123.33 51.16,-217.98zm-81.99 -2.35c0,150.18 -40.52,225.18 -121.51,225.18 -39.99,0 -70.99,-20.16 -93.18,-60.33 -22.16,-40.17 -33.32,-96.35 -33.32,-168.67 0,-76.84 11.99,-136.17 36,-178.16 19.51,-33.85 48.66,-50.84 87.51,-50.84 44.82,0 76.32,19.34 94.83,58.15 19.83,42.02 29.68,100.17 29.68,174.66z"
   id="glyph39" />
   <glyph
   unicode="1"
   horiz-adv-x="500"
   d="M424.85 14.16c0,-9.49 -4.52,-14.16 -13.69,-14.16l-264.15 0c-9.52,0 -14.19,4.67 -14.19,14.16l0 37.67c0,9.49 4.67,14.16 14.19,14.16l102 0 0 426.17 -111.84 -67.32c-4.5,-2.67 -7.99,-4.02 -10.17,-4.02 -3,0 -5.35,2.5 -6.84,7.34l-13.16 24.01c-2,3.5 -3,6.49 -3,8.82 0,3.17 2.35,6.67 6.84,10.17l150.33 109.84 49.66 0c9.49,0 14.16,-4.67 14.16,-14.16l0 -500.84 86.16 0c9.02,0 13.69,-4.67 13.69,-14.16l0 -37.67z"
   id="glyph40" />
   <glyph
   unicode="2"
   horiz-adv-x="500"
   d="M430.99 14.16c0,-9.49 -4.65,-14.16 -14.16,-14.16l-335.66 0c-6.17,0 -9.67,1.5 -10.67,4.32 -1,2.02 -1.5,5.35 -1.5,9.84 0,65 13.34,119.66 40.17,163.5 26.83,44.02 70.85,83.34 132,118.18 45.84,26.33 74.49,46.66 85.83,60.98 14.66,18.51 22.01,41.17 22.01,67.85 0,28.33 -8.49,50.49 -25.68,66.32 -16.99,16.01 -40.49,24.01 -70.5,24.01 -28.15,0 -50.99,-7.34 -68.5,-22.16 -17.34,-14.84 -32.32,-39.84 -44.99,-74.84 -2.67,-6.49 -6.17,-9.84 -10.34,-9.84 -2,0 -5.17,0.67 -9.67,2l-40.99 11.67c-5.5,2.35 -8.34,5.67 -8.34,10.34 0,7.49 4.35,20.51 13.16,38.99 8.84,18.69 17.84,34 27,46.01 35.5,45.81 84.51,68.82 147.16,68.82 53.83,0 96.18,-13.99 127.18,-41.99 31,-28 46.49,-66.35 46.49,-114.84 0,-47.16 -14.66,-86.33 -43.99,-117.33 -12.84,-12.99 -24.51,-23.01 -35.32,-30.18 -9.17,-6.15 -39.67,-24.16 -91.5,-53.83 -68.85,-39.64 -106.52,-91.33 -113.01,-154.83l269.67 0c9.52,0 14.16,-4.67 14.16,-14.16l0 -44.67z"
   id="glyph41" />
   <glyph
   unicode="3"
   horiz-adv-x="500"
   d="M433.99 109.84c0,-57.18 -19.66,-103.49 -58.83,-138.84 -39.17,-35.32 -90.65,-53.01 -154.66,-53.01 -34.35,0 -70.17,5.02 -108.02,15.19 -37.65,9.99 -56.48,19.66 -56.48,28.83 0,1.5 1,4.67 3,9.17l19.98 44.99c1.67,3.85 3.85,5.85 6.84,5.85 2.5,0 10.17,-3 23.01,-8.84 33.82,-16.16 70.5,-24.16 109.81,-24.16 88.86,0 133.35,41.32 133.35,124 0,81.99 -48.66,122.98 -146.01,122.98l-34.32 0c-8.99,0 -13.66,4.67 -13.66,14.01l0 39.99c0,9.34 4.67,13.99 13.84,13.99l33.15 0c39.34,0 70.85,10.84 94,32.5 23.33,21.68 35,50.69 35,87.18 0,29.33 -8.82,52.83 -26.33,70.17 -17.66,17.49 -41.32,26.15 -70.82,26.15 -36.5,0 -70.17,-16.99 -100.67,-50.84 -7.84,-8.67 -14.16,-13.16 -19.16,-13.16 -2.17,0 -5.02,1.35 -8.17,4l-32.85 27.83c-3.5,2.35 -5.32,5.02 -5.32,8.34 0,9.99 16.16,27 48.34,50.84 34.82,26 74.99,38.99 120.66,38.99 50.66,0 92,-14.84 123.68,-44.49 31.83,-29.5 47.66,-68.17 47.66,-115.66 0,-70.67 -34.35,-119.68 -103,-147.01 27.83,-8.49 49.31,-18.66 64.5,-30.68 40.99,-32.65 61.48,-78.66 61.48,-138.32z"
   id="glyph42" />
   <glyph
   unicode="5"
   horiz-adv-x="500"
   d="M433.99 150.83c0,-71.99 -21.16,-128.68 -63.33,-170.34 -42.32,-41.67 -99.67,-62.5 -171.99,-62.5 -36.17,0 -67,3.52 -92.5,10.34 -25.51,6.84 -38.17,15.01 -38.17,24.83l0 6.84 10.34 39.99c1.15,5.17 4.5,7.84 9.67,7.84 2,0 5.67,-0.67 11.17,-2 30,-11.17 64.65,-16.84 103.99,-16.84 99.17,0 148.83,52.98 148.83,159.15 0,40.02 -9.17,71.17 -27.33,93.33 -18.16,22.36 -43.67,33.52 -76.67,33.52 -41.52,0 -80.34,-18.34 -116.01,-54.86 -4,-4.15 -6.82,-6.32 -8.84,-6.32l-9.32 1 -34.67 12.17c-7.49,2.67 -11.17,5.67 -11.17,8.84l0 7.32 32.18 319.68c0.65,8.82 5.32,13.16 13.66,13.16l260.32 0c9.52,0 14.16,-4.67 14.16,-14.16l0 -41.67c0,-9.52 -4.65,-14.16 -14.16,-14.16l-208.99 0 -22.01 -202.84c38.84,28.5 79.01,42.84 120.51,42.84 50.49,0 91.65,-18.01 123.15,-54.18 31.5,-36.15 47.16,-83.16 47.16,-140.99z"
   id="glyph43" />
   <glyph
   unicode=":"
   horiz-adv-x="295"
   d="M219.16 402.84c0,-19.51 -6.82,-36 -20.48,-49.51 -13.66,-13.49 -30.33,-20.33 -49.84,-20.33 -19.83,0 -36.67,6.84 -50.34,20.51 -13.66,13.66 -20.51,30.33 -20.51,50.34 0,19.48 7.02,36 21.01,49.66 14.01,13.66 31,20.51 50.84,20.51 18.51,0 34.67,-7.02 48.49,-21.01 13.84,-13.99 20.83,-30.68 20.83,-50.16zm0 -345.68c0,-19.48 -6.99,-36.15 -20.83,-50.16 -13.81,-13.99 -30.33,-20.98 -49.49,-20.98 -19.83,0 -36.67,6.82 -50.34,20.48 -13.66,13.66 -20.51,30.5 -20.51,50.66 0,19.51 7.02,36.17 21.01,49.69 14.01,13.49 31,20.16 50.84,20.16 18.51,0 34.67,-6.84 48.49,-20.66 13.84,-13.84 20.83,-30.18 20.83,-49.19z"
   id="glyph44" />
   <glyph
   unicode="A"
   horiz-adv-x="537"
   d="M517.17 7.84c0,-5.17 -4.85,-7.84 -14.16,-7.84l-64 0c-6.84,0 -11.84,3.67 -15.19,11.17l-54.66 194.82 -203.17 0 -56.16 -194.82c-1.85,-7.49 -6.84,-11.17 -14.66,-11.17l-60 0c-9.52,0 -14.16,2.32 -14.16,6.84 0,1.65 0.65,4.65 2,9.32l201.17 658.66c2.15,7.49 7.17,11.17 14.66,11.17l60 0c7.82,0 12.82,-3.67 15.16,-11.17l201.17 -658.66c1.32,-4.67 2,-7.32 2,-8.32zm-167 267.17l-60.18 220.15c-8.67,31.5 -16.34,63.5 -22.83,95.68 -4.67,-23.51 -12.34,-55.01 -23.01,-94.68l-60.15 -221.15 166.17 0z"
   id="glyph45" />
   <glyph
   unicode="B"
   horiz-adv-x="556"
   d="M500.01 189c0,-41.99 -10.34,-78.84 -30.85,-110.34 -20.48,-31.68 -48.66,-53.51 -84.48,-65.5 -25.01,-8.84 -68.35,-13.16 -129.85,-13.16l-145.16 0c-9.17,0 -13.66,4.67 -13.66,14.16l0 657.67c0,9.49 4.5,14.16 13.66,14.16l163.17 0c62.83,0 108.17,-8.99 136.17,-26.83 42.67,-27.65 64,-73.49 64,-137.17 0,-77.17 -32.67,-131.5 -98.17,-163.17 32.67,-8.99 56.51,-20.66 71.84,-34.65 35.5,-32.85 53.33,-78.01 53.33,-135.17zm-116.01 324.32c0,38.67 -8.49,66.17 -25.68,82.34 -17.16,16.16 -46.31,24.33 -87.33,24.33l-92.98 0 0 -237.99 71.99 0c38.99,0 67.5,6 84.98,18.16 32.67,22.66 49.01,60.33 49.01,113.16zm27 -321.83c0,51.34 -19.01,87.33 -57.18,108.34 -19.16,10.82 -46.49,16.16 -81.99,16.16l-93.83 0 0 -250.01 97.65 0c40.99,0 71.84,7.99 92.33,24.01 28.68,22.48 43.02,56.33 43.02,101.5z"
   id="glyph46" />
   <glyph
   unicode="C"
   horiz-adv-x="462"
   d="M441.16 64c0,-6.84 -9.32,-17.34 -27.83,-31.68 -39.67,-30.83 -84.83,-46.31 -135.32,-46.31 -73.52,0 -129.5,31 -168.17,93.15 -38.5,62.18 -57.83,152.51 -57.83,270.84 0,116.83 18.99,205.17 57.16,264.99 36.17,56.66 90.18,85.01 162,85.01 55.66,0 105.34,-18.69 149.01,-56.01 10.67,-9.17 16.16,-15.84 16.16,-20.01 0,-2.65 -0.67,-5.32 -2,-7.82l-29.33 -38c-1.35,-2.67 -4.02,-4.02 -7.84,-4.02 -2,0 -13.34,8.02 -34.17,24.01 -30,23.18 -60.33,34.85 -91,34.85 -45.66,0 -78.81,-21.83 -99.65,-65.5 -20.83,-43.67 -31.35,-113.19 -31.35,-208.69 0,-203.82 47.19,-305.81 141.34,-305.81 34.5,0 71.84,17.66 111.84,52.98 4.67,3.85 8.17,5.85 10.84,5.85 2.65,0 5.32,-2.35 8.32,-6.84l24.83 -33.15c2,-2.02 3,-4.52 3,-7.84z"
   id="glyph47" />
   <glyph
   unicode="D"
   horiz-adv-x="556"
   d="M503.01 355c0,-236.67 -93.35,-355 -280.01,-355l-113.34 0c-9.17,0 -13.66,4.67 -13.66,14.16l0 657.67c0,9.49 4.5,14.16 13.66,14.16l104.17 0c79.66,0 139.17,-13.31 178.34,-39.99 73.82,-50.84 110.84,-147.84 110.84,-291zm-88.01 0c0,129.32 -28.33,209.51 -85.01,239.99 -25.16,13.34 -62.15,20.01 -110.99,20.01l-40.99 0 0 -544 50.81 0c39.02,0 68.52,4.35 88.51,13.01 19.83,8.49 37.67,24.48 53.68,47.99 29.33,43.17 43.99,117.51 43.99,223z"
   id="glyph48" />
   <glyph
   unicode="E"
   horiz-adv-x="462"
   d="M431.99 679.17c0,-2.35 -0.65,-5.35 -2,-9.34l-15.16 -43.99c-2.67,-7.17 -7.67,-10.84 -15.16,-10.84l-221.65 0 0 -226 195.82 0c9.49,0 14.16,-4.67 14.16,-13.99l0 -38.52c0,-8.99 -4.67,-13.49 -14.16,-13.49l-195.82 0 0 -252 238.81 0c9.52,0 14.16,-4.5 14.16,-13.66l0 -43.17c0,-9.49 -4.65,-14.16 -14.16,-14.16l-307.16 0c-9.17,0 -13.66,4.67 -13.66,14.16l0 657.67c0,9.49 4.5,14.16 13.66,14.16l308.16 0c9.34,0 14.16,-2.32 14.16,-6.82z"
   id="glyph49" />
   <glyph
   unicode="F"
   horiz-adv-x="425"
   d="M431.99 679.17c0,-2.35 -0.32,-4.17 -1,-5.35l-1 -4 -15.16 -43.99c-2.67,-7.17 -7.67,-10.84 -15.16,-10.84l-221.65 0 0 -232.99 195.82 0c9.49,0 14.16,-4.5 14.16,-13.51l0 -38.5c0,-9.32 -4.67,-13.99 -14.16,-13.99l-195.82 0 0 -301.84c0,-9.49 -4.67,-14.16 -14.19,-14.16l-54.16 0c-9.17,0 -13.66,4.67 -13.66,14.16l0 657.67c0,9.49 4.5,14.16 13.66,14.16l308.16 0c9.34,0 14.16,-2.32 14.16,-6.82z"
   id="glyph50" />
   <glyph
   unicode="G"
   horiz-adv-x="537"
   d="M469.01 41.17c0,-7.17 -3.02,-12.17 -8.84,-15.16 -42.34,-26.68 -97.67,-39.99 -166,-39.99 -78.34,0 -138.17,30.15 -179.34,90.48 -41.17,60.35 -61.83,148.19 -61.83,263.35 0,117.16 20.83,206.49 62.5,267.99 41.67,61.5 102.15,92.18 181.66,92.18 51.34,0 99.5,-13.66 143.99,-41.02 13.34,-8.32 20.01,-14.99 20.01,-19.98 0,-2.17 -1,-5 -2.82,-8.17l-21.01 -42.99c-1.32,-2.52 -3.35,-3.85 -6,-3.85 -2.5,0 -13.01,6 -31.18,18.16 -31.68,20.51 -66,30.85 -103.17,30.85 -53.48,0 -92.65,-22.68 -117.66,-68 -24.83,-45.19 -37.35,-116.51 -37.35,-214.01 0,-105.17 13.01,-181.16 39.02,-227.85 25.98,-46.81 68.32,-70.15 127,-70.15 27.33,0 53.66,6.17 78.99,18.66l0 206.34 -77.66 0c-9.49,0 -14.16,4.65 -14.16,14.16l0 40.67c0,9.49 4.67,14.16 14.16,14.16l145.99 0c9.17,0 13.69,-4.67 13.69,-14.16l0 -291.67z"
   id="glyph51" />
   <glyph
   unicode="I"
   horiz-adv-x="332"
   d="M310.16 14.34c0,-9.52 -4.82,-14.34 -14.16,-14.34l-258.82 0c-9.49,0 -14.16,4.82 -14.16,14.34l0 37.32c0,9.52 4.67,14.34 14.16,14.34l87.83 0 0 554 -87.83 0c-9.49,0 -14.16,4.67 -14.16,13.84l0 37.82c0,9.52 4.67,14.34 14.16,14.34l258.82 0c9.34,0 14.16,-4.82 14.16,-14.34l0 -37.82c0,-9.17 -4.82,-13.84 -14.16,-13.84l-89.01 0 0 -554 89.01 0c9.34,0 14.16,-4.82 14.16,-14.34l0 -37.32z"
   id="glyph52" />
   <glyph
   unicode="K"
   horiz-adv-x="517"
   d="M503.66 37c0,-3.67 -2.15,-6.99 -6.82,-10.34l-45.84 -31.83c-4,-2.5 -6.99,-3.82 -9.34,-3.82 -2.82,0 -6.15,2.32 -9.67,6.82l-253.98 327.35 0 -311.01c0,-9.49 -4.67,-14.16 -14.19,-14.16l-54.16 0c-9.17,0 -13.66,4.67 -13.66,14.16l0 657.67c0,9.49 4.5,14.16 13.66,14.16l54.16 0c9.52,0 14.19,-4.67 14.19,-14.16l0 -324.67 256.83 340.01c4,5.17 7.17,7.84 9.82,7.84 2.35,0 5.35,-1.67 9.34,-4.85l37 -25.01c5.17,-3.5 7.84,-6.99 7.84,-10.17 0,-2.32 -1.67,-5.67 -4.85,-9.82l-235.32 -304.34 240.16 -295.17c3.32,-3.17 4.82,-6.17 4.82,-8.67z"
   id="glyph53" />
   <glyph
   unicode="M"
   horiz-adv-x="667"
   d="M592.99 9.84c0,-6.52 -4.15,-9.84 -12.67,-9.84l-58.15 0c-9.17,0 -13.84,4.32 -14.16,13.16l-15.01 512.68c0,-5.85 1,11.32 2.85,51.34l1 19.98c-4.5,-31.15 -11.52,-60.65 -21.01,-88.33l-117.16 -337.99c-2.67,-7.17 -7.49,-10.67 -14.66,-10.67l-29.35 0c-7.49,0 -12.49,3.5 -14.99,10.67l-112.84 337.99c-8.82,26.33 -15.16,55.83 -18.99,88.33l0 -18.99 1.82 -38.17 0 -19.01 -14.66 -507.83c0,-8.84 -4.35,-13.16 -12.84,-13.16l-54.33 0c-6.32,0 -10.17,0.82 -11.67,2.5 -1.5,1.5 -2.17,4 -2.17,7.34l0 4.32 37.67 658.66c0.67,8.84 5.35,13.16 14.16,13.16l59.18 0c7.49,0 12.49,-3.67 14.99,-11.17l117.83 -344.83c6.84,-19.83 11.67,-40.49 14.16,-62 1.35,11.52 5.67,32.18 13.16,62l118.83 344.83c2.67,7.49 7.67,11.17 15.19,11.17l62.98 0c8.17,0 12.52,-4.32 13.19,-13.16l37.65 -662.99z"
   id="glyph54" />
   <glyph
   unicode="P"
   horiz-adv-x="482"
   d="M465.99 502.01c0,-91.85 -33.15,-155.18 -99.65,-190 -28.5,-14.66 -67.17,-22.01 -116.51,-22.01l-71.82 0 0 -275.84c0,-9.49 -4.67,-14.16 -14.19,-14.16l-54.16 0c-9.17,0 -13.66,4.67 -13.66,14.16l0 657.67c0,9.49 4.5,14.16 13.66,14.16l153.51 0c59.65,0 102.32,-7.67 128,-22.98 49.84,-29.85 74.82,-83.69 74.82,-161zm-83.98 -1c0,57.48 -18.66,93.48 -55.83,107.67 -13.66,5.5 -37.17,8.32 -70.35,8.32l-77.81 0 0 -255 66 0c43.67,0 74.99,7.67 93.98,23.01 29.35,23.66 44.02,62.33 44.02,116.01z"
   id="glyph55" />
   <glyph
   unicode="R"
   horiz-adv-x="518"
   d="M504.66 8.49c0,-2.82 -3.82,-5.17 -11.67,-6.82l-61 -11.67 -5.5 0c-4.5,0 -7.99,2.65 -10.67,7.82l-162.15 313.18 -75.67 0 0 -296.84c0,-9.49 -4.67,-14.16 -14.19,-14.16l-54.16 0c-9.17,0 -13.66,4.67 -13.66,14.16l0 657.67c0,9.49 4.5,14.16 13.66,14.16l153.51 0c57.01,0 99,-6.99 126,-20.98 49.84,-26 74.82,-76.02 74.82,-150.01 0,-102.17 -43.32,-167.99 -130.15,-197.32l167 -297.84c2.5,-5 3.82,-8.67 3.82,-11.34zm-124.65 499.66c0,59 -21.51,94.68 -64.5,107.02 -11.52,3.17 -30.68,4.82 -57.83,4.82l-79.66 0 0 -245.98 76.82 0c36.17,0 63.5,7.64 82.16,22.83 28.68,23.33 43.02,60.5 43.02,111.31z"
   id="glyph56" />
   <glyph
   unicode="S"
   horiz-adv-x="482"
   d="M439.01 182.33c0,-58.65 -19.34,-105.99 -58.18,-142.16 -38.67,-36.17 -89.33,-54.16 -151.83,-54.16 -37.5,0 -78.34,6.99 -122.51,20.98 -44.32,14.01 -66.5,27 -66.5,38.99 0,2 0.67,4.67 2,8.34l19.01 47.66c1.32,3.35 3.5,5 6.82,5 3.02,0 8.67,-2.32 17.19,-6.82 50.99,-28.18 99.32,-42.17 144.99,-42.17 36.67,0 66.35,10.32 88.51,31 22.33,20.66 33.5,47.99 33.5,81.84 0,30.5 -8.49,55.98 -25.33,76.17 -17.01,20.16 -50.16,44.32 -99.67,72.67 -65.32,37.82 -107.34,67.15 -126,88.33 -26.65,30.33 -39.99,67.32 -39.99,110.81 0,53.18 18.34,96.5 55.01,130.35 36.5,33.82 83.84,50.84 141.82,50.84 33.5,0 69.67,-6.35 108.52,-19.19 38.99,-12.82 58.5,-24.48 58.5,-35 0,-1.82 -0.67,-4.5 -2.02,-7.67l-17.99 -45.31c-1.67,-4 -4.35,-5.85 -7.84,-5.85 -1.32,0 -15.66,6.67 -42.99,20.01 -30.33,14.66 -62.68,21.98 -97.17,21.98 -34.5,0 -61.5,-8.64 -80.84,-26.15 -19.31,-17.34 -28.98,-41.67 -28.98,-72.99 0,-35.67 13.31,-64 39.99,-84.83 7.17,-5.67 47.16,-30.5 120.16,-74.84 48.16,-28.5 81.01,-55.33 98.67,-79.99 22.16,-30.68 33.17,-66.5 33.17,-107.84z"
   id="glyph57" />
   <glyph
   unicode="T"
   horiz-adv-x="407"
   d="M422 679.17c0,-3 -0.32,-5 -1,-6.35l-1 -3 -15.16 -42.99c-2.35,-7.17 -7.17,-10.84 -14.66,-10.84l-144.16 0 0 -601.83c0,-9.49 -4.67,-14.16 -14.16,-14.16l-53.68 0c-9.49,0 -14.16,4.67 -14.16,14.16l0 601.83 -145.84 0c-9.49,0 -14.16,4.5 -14.16,13.66l0 42.17c0,9.49 4.67,14.16 14.16,14.16l390.17 0c8.99,0 13.66,-2.32 13.66,-6.82z"
   id="glyph58" />
   <glyph
   unicode="V"
   horiz-adv-x="482"
   d="M467.66 673l-1 -8.84 -176.84 -652.82c-1.82,-7.52 -6.99,-11.34 -14.99,-11.34l-69.85 0c-8.17,0 -13.31,3.67 -15.16,11.17l-173.84 652.17c-1.32,4.82 -2,7.32 -2,7.67 0,3.32 3.85,6.49 11.67,9.32l59.18 13.69c1.32,0.65 2.82,1 4.82,1 3.67,0 6.35,-3.85 8.34,-11.67l127 -529.51c2.82,-12.67 6.49,-31.18 10.67,-55.66l4.32 -23.01c6.35,35.82 11.17,61.5 14.69,76.84l131.32 532.16c1.67,7.17 4.67,10.84 8.84,10.84 4,0 6.49,-0.35 7.82,-1l54.16 -12.69c7.17,-2 10.84,-4.82 10.84,-8.32z"
   id="glyph59" />
   <glyph
   unicode="Z"
   horiz-adv-x="443"
   d="M426.84 14.16c0,-9.49 -4.52,-14.16 -13.69,-14.16l-372.99 0c-9.49,0 -14.16,4.67 -14.16,14.16l0 51.66 294 551.17 -263.67 0c-9.49,0 -14.16,2.67 -14.16,7.84 0,0.65 0.32,2 1,4l0.82 2.82 10.34 42.17c1.67,8.17 6.49,12.17 14.66,12.17l332.99 0c9.52,0 14.19,-4.67 14.19,-14.16l0 -47.84 -295.85 -553 292.82 0c9.17,0 13.69,-4.5 13.69,-13.66l0 -43.17z"
   id="glyph60" />
   <glyph
   unicode="a"
   horiz-adv-x="462"
   d="M405.66 24.66c0,-2 -1.32,-3.5 -3.82,-4.82l-43.02 -26.83c-2.65,-2 -5.15,-3 -7.82,-3 -12.67,0 -25.33,20.98 -38.17,63 -42.84,-42.02 -90.65,-63 -142.99,-63 -40.34,0 -72.52,12.32 -96.18,36.82 -23.83,24.68 -35.67,58.01 -35.67,100 0,113.01 88.01,171.02 264,174.02l0 33.15c0,32 -7.17,54.83 -21.33,68.5 -14.16,13.69 -37.65,20.51 -70.65,20.51 -33.17,0 -73.02,-9.67 -119.18,-29 -2.67,-1.15 -5,-1.82 -6.82,-1.82 -3.67,0 -6.02,1.5 -6.84,4.82l-15.16 40.02 -1 7.64c0,5.02 8.82,11.34 26.83,19.01 41.34,18.16 85.83,27.33 133.35,27.33 103.82,0 155.83,-46.66 155.83,-140.17l0 -189c0,-55.33 8.82,-99 26.65,-131.32 1.35,-2.17 2,-4.17 2,-5.85zm-103.67 85.18l0 129c-124.65,-1 -186.98,-36.35 -186.98,-106.02 0,-23.48 6.82,-42.49 20.48,-57.33 13.66,-14.81 31.35,-22.33 52.68,-22.33 33.32,0 71.14,19.01 113.81,56.68z"
   id="glyph61" />
   <glyph
   unicode="b"
   horiz-adv-x="500"
   d="M450 271.99c0,-190.65 -60.83,-285.98 -182.66,-285.98 -46.34,0 -89.01,16.31 -128.18,49.16 -11.99,-30.18 -22.83,-45.16 -32.32,-45.16 -2,0 -4.5,1 -7.84,3l-42.99 26.83c-2,1.82 -3,3.5 -3,4.82 0.32,2.67 1.32,5.02 3,7.34 18.66,24.51 28,59.5 28,104.99l0 561.17c0,6.84 3.65,11.02 11.17,12.67l51.66 12.17c0.67,0.67 3,1 6.82,1 4.17,0 6.35,-3.65 6.35,-11.17l0 -267.99c47.34,32.82 91.83,49.16 133.32,49.16 104.52,0 156.68,-73.99 156.68,-222zm-82.01 -10.67c0,110.51 -29.83,165.67 -89.33,165.67 -32.5,0 -72.17,-16.34 -118.66,-48.84l0 -285.48c29.68,-25.85 64.33,-38.67 103.99,-38.67 69.35,0 103.99,69.15 103.99,207.31z"
   id="glyph62" />
   <glyph
   unicode="c"
   horiz-adv-x="408"
   d="M398.17 430.17l-1 -6.35 -22.01 -38.99c-2.5,-4.67 -5.17,-6.82 -7.82,-6.82 -2.85,0 -5.67,1.15 -8.17,3.82 -40.67,30.18 -75.02,45.16 -103,45.16 -80.84,0 -121.18,-62 -121.18,-185.83 0,-124.83 37.17,-187.15 111.34,-187.15 22.16,0 42.99,4.5 62.5,13.66 11.34,5.67 29.83,17.34 55.16,35.32 3,2 5.35,3 7.34,3 2.67,0 4.82,-2 6.82,-5.82l15.19 -38.17c1.65,-4.17 2.5,-7.49 2.82,-10.17 0,-4.5 -5.35,-10.67 -16.01,-18.51 -42.67,-31.5 -89.33,-47.31 -139.67,-47.31 -59.65,0 -106.17,21.48 -139.49,64.33 -33.32,42.99 -49.99,102.5 -49.99,178.66 0,82.01 18.16,146.66 54.48,194 36.17,47.34 85.83,70.99 148.68,70.99 44.17,0 84.98,-12.99 121.98,-38.99 14.66,-10.49 22.01,-18.66 22.01,-24.83z"
   id="glyph63" />
   <glyph
   unicode="d"
   horiz-adv-x="500"
   d="M448.5 23.66c0,-2 -1.82,-3.82 -5.35,-5.82l-44.99 -24.83c-2,-2 -4.5,-3 -7.84,-3 -11.99,0 -22.98,19.98 -33.15,59.83 -56.68,-42.49 -106.34,-63.83 -149.01,-63.83 -49.16,0 -87.51,22.98 -115.34,68.82 -27.83,45.84 -41.82,109.34 -41.82,190.33 0,76.67 15.99,137.34 48.16,182.01 32,44.49 75.67,66.82 131,66.82 34.5,0 71.17,-10.67 109.84,-32l0 236.17c0,6.17 3.32,10.34 10.17,12.67l51.66 12.17c1.32,0.67 3.5,1 6.32,1 4.5,0 6.84,-3.65 6.84,-11.17l0 -554.82c0,-52.16 8.32,-91.5 25.16,-118.16 5.5,-8.52 8.34,-13.84 8.34,-16.19zm-108.49 88.01l0 283.51c-37.02,21.16 -70.85,31.83 -101.52,31.83 -37.32,0 -64.15,-13.99 -80.66,-41.82 -16.49,-27.85 -24.83,-73.17 -24.83,-136.17 0,-69 7.17,-118.83 21.66,-149.33 14.34,-30.5 38.17,-45.66 71.17,-45.66 35,0 73.02,19.16 114.19,57.66z"
   id="glyph64" />
   <glyph
   unicode="e"
   horiz-adv-x="462"
   d="M431.99 240.99c0,-11.99 -3.65,-17.99 -11.17,-17.99l-287.83 0c5.17,-112.66 49.34,-168.99 132.35,-168.99 35.5,0 73.99,11.99 115.66,35.82 3.67,2 6.99,3 10.32,3 2.35,0 4.52,-1.67 6.84,-5l18.01 -38.99c1.32,-2.85 2,-5.17 2,-6.84 0,-7.32 -12.02,-16.66 -36.17,-27.65 -39.67,-18.84 -80.66,-28.33 -123,-28.33 -63.5,0 -114.01,22.83 -151.66,68.5 -37.52,45.81 -56.33,107.17 -56.33,184.33 0,77.99 17.81,139.99 53.48,186.16 35.85,46.01 83.84,69 144.16,69 83.69,0 139.84,-39.99 168.17,-120.16 10.17,-28.33 15.16,-72.49 15.16,-132.85zm-81.99 44.02c-2.35,98.67 -38,147.99 -107.34,147.99 -68.82,0 -105.32,-49.31 -109.67,-147.99l217.01 0z"
   id="glyph65" />
   <glyph
   unicode="f"
   horiz-adv-x="295"
   d="M341.66 688.84c0,-0.67 -0.65,-2.5 -2,-5.85l-16.49 -40.99c-1.35,-3.85 -3.85,-5.85 -7.34,-5.85 -2.67,0 -5.82,1 -9.84,3 -28.83,13.84 -54.48,20.83 -76.99,20.83 -25.01,0 -42.17,-9.82 -51.16,-29.33 -5.85,-11.67 -8.84,-36.17 -8.84,-73.67l0 -76.99 143.84 0c7.49,0 11.34,-2.35 11.34,-6.84 0,-2.65 -0.35,-4.65 -1,-6.32l-13.16 -39.99c-2,-5.85 -6.35,-8.84 -13.16,-8.84l-127.85 0 0 -405.84c0,-6.17 -1,-9.67 -3,-10.67 -1.82,-1 -4.5,-1.5 -7.82,-1.5l-53.33 0c-5.02,0 -8.02,0.82 -9.17,2.67 -1.17,1.82 -1.67,5 -1.67,9.49l0 405.84 -66.32 0c-5.85,0 -9.17,1 -10.17,3 -1,1.82 -1.52,4.67 -1.52,8.17l0 38.67c0,6.17 1.35,9.82 3.85,11.17 1.32,0.67 4,1 7.84,1l66.32 0 0 77.99c0,54.18 8.67,92.68 25.83,115.69 25.16,33.5 62.5,50.31 112.01,50.31 23.33,0 47.49,-4 72.49,-11.99 24.83,-7.84 37.32,-15.66 37.32,-23.16z"
   id="glyph66" />
   <glyph
   unicode="g"
   horiz-adv-x="500"
   d="M447 461.84c0,-2.17 -2,-6.52 -5.85,-12.67 -16.84,-26.35 -25.16,-60 -25.16,-101.02l0 -154.33c0,-47.16 1.67,-104.17 5,-170.99 1.32,-26.65 2,-45.66 2,-57.01 0,-117.83 -59.15,-176.84 -177.66,-176.84 -53.66,0 -103.67,12.34 -149.83,37.17 -12.17,6.17 -18.16,11.67 -18.16,16.51 0,1 0.65,3.5 2,7.32l17.99 40.17c1,3.85 3,5.85 5.85,5.85 2.32,0 5,-1 7.82,-3 47.19,-25.33 90.85,-38 131.17,-38 43.67,0 73.84,12.17 90.68,36.32 10.17,13.99 15.16,38.32 15.16,72.99 0,6.99 -0.35,24.18 -1,51.51l-1 51.98c-44.52,-36.5 -90.83,-54.83 -139.02,-54.83 -47.66,0 -85.48,19.83 -113.31,59.5 -27.85,39.84 -41.67,93.83 -41.67,162.17 0,83.01 16.49,146.99 49.31,192 32.85,44.84 79.51,67.32 140.17,67.32 40.67,0 80.84,-13.99 120.51,-41.82 12.17,30.5 21.51,45.81 28.33,45.81 3.02,0 5.52,-0.65 7.84,-2l45.99 -28.33c1.85,-0.82 2.85,-2.82 2.85,-5.82zm-105.99 -332.02l0 269.84c-37.02,18.84 -68.02,28.33 -93.35,28.33 -75.82,0 -113.66,-58.01 -113.66,-174.17 0,-60.83 6.99,-104.82 20.83,-132 14.01,-27.15 36.67,-40.82 68.17,-40.82 33.67,0 72.99,16.31 118.01,48.81z"
   id="glyph67" />
   <glyph
   unicode="h"
   horiz-adv-x="518"
   d="M436.01 12.17c0,-6.17 -1.02,-9.67 -3.02,-10.67 -1.82,-1 -4.65,-1.5 -8.14,-1.5l-52.68 0c-4.82,0 -7.99,0.82 -9.17,2.67 -1.32,1.82 -2,5 -2,9.49l0 332.17c0,31.18 -5,52.83 -14.84,65.17 -9.99,12.32 -27.98,18.49 -54.16,18.49 -36.82,0 -80.84,-20.98 -132,-62.83l0 -353c0,-6.17 -1.32,-9.84 -3.82,-11.17 -1.35,-0.67 -3.85,-1 -7.34,-1l-52.66 0c-4.85,0 -8.02,0.82 -9.17,2.67 -1.35,1.82 -2,5 -2,9.49l0 685.99c0,6.17 3.32,10.34 10.17,12.67l51.66 12.17c0.67,0.67 3,1 6.82,1 4.17,0 6.35,-3.65 6.35,-11.17l0 -284.65c48.49,43.84 100.17,65.82 154.83,65.82 53.51,0 89.51,-19.48 108.49,-58.48 8.52,-18.01 12.69,-48.84 12.69,-92.85l0 -330.49z"
   id="glyph68" />
   <glyph
   unicode="i"
   horiz-adv-x="258"
   d="M191 658.16c0,-16.84 -5.85,-31.33 -17.51,-43.34 -11.82,-11.82 -25.98,-17.81 -42.49,-17.81 -16.99,0 -31.33,5.82 -43.17,17.66 -11.84,11.67 -17.84,26.33 -17.84,43.49 0,16.66 6,30.83 18.01,42.49 12.17,11.52 26.65,17.34 43.99,17.34 16.16,0 30.18,-5.82 41.67,-17.66 11.49,-11.67 17.34,-25.83 17.34,-42.17zm-15.01 -646c0,-6.17 -0.82,-9.67 -2.65,-10.67 -1.85,-1 -4.5,-1.5 -8.17,-1.5l-53.33 0c-5,0 -7.99,0.82 -9.17,2.67 -1.17,1.82 -1.67,5 -1.67,9.49l0 405.84 -79.84 0c-5.82,0 -9.32,1 -10.49,3 -1.17,1.82 -1.67,4.67 -1.67,8.17l0 38.67c0,6.17 1.35,9.82 3.85,11.17 1.65,0.67 4.5,1 8.32,1l144.16 0c4.85,0 7.84,-0.82 9.02,-2.67 1.15,-1.82 1.65,-5 1.65,-9.49l0 -455.67z"
   id="glyph69" />
   <glyph
   unicode="j"
   horiz-adv-x="258"
   d="M191 658.16c0,-16.84 -5.85,-31.33 -17.51,-43.34 -11.82,-11.82 -25.98,-17.81 -42.49,-17.81 -16.99,0 -31.33,5.82 -43.17,17.66 -11.84,11.67 -17.84,26.33 -17.84,43.49 0,16.66 6,30.83 18.01,42.49 12.17,11.52 26.65,17.34 43.99,17.34 15.84,0 29.68,-6 41.49,-17.84 11.67,-11.99 17.51,-25.98 17.51,-41.99zm-16.01 -711.5c0,-52.33 -10.99,-90.65 -32.82,-114.66 -26.65,-29.33 -63.83,-44.02 -111.49,-44.02 -24.33,0 -51.01,4.52 -79.69,13.51 -28.65,8.82 -42.99,17.49 -42.99,25.66 0,2.17 0.67,4.85 2,7.84l19.01 39.99c1.32,3.85 4,5.85 7.82,5.85 0.67,0 3,-0.67 6.84,-2 31,-16.51 61,-24.86 90.33,-24.86 30.33,0 49.51,11.17 57.68,33.35 5.5,13.66 8.32,38.82 8.32,75.67l0 455 -80.16 0c-7.49,0 -11.34,3.67 -11.34,11.17l0 38.67c0,8.17 3.85,12.17 11.34,12.17l144.34 0c5,0 7.99,-0.82 9.17,-2.67 1.15,-1.82 1.65,-5 1.65,-9.49l0 -521.17z"
   id="glyph70" />
   <glyph
   unicode="k"
   horiz-adv-x="443"
   d="M429.17 36c0,-2 -1.67,-4.82 -5.35,-8.32l-40.99 -30.85c-3.32,-2.5 -5.82,-3.82 -7.82,-3.82 -1.35,0 -3.35,1.32 -5.85,3.82l-209.16 250.18 0 -234.84c0,-6.17 -1.32,-9.84 -3.82,-11.17 -1.35,-0.67 -3.85,-1 -7.34,-1l-52.66 0c-4.85,0 -8.02,0.82 -9.17,2.67 -1.35,1.82 -2,5 -2,9.49l0 685.99c0,6.17 3.32,10.34 10.17,12.67l51.66 12.17 6.82 1c4.17,0 6.35,-3.65 6.35,-11.17l0 -453 200.84 225.85c3.5,4.17 6.99,6.32 10.32,6.32 2.5,0 5.5,-1.5 8.67,-4.32l38.17 -25.01c3.32,-3.17 4.82,-6.17 4.82,-8.67 0,-2.67 -1.5,-5.82 -4.82,-9.34l-170.84 -185.98 178.69 -214.83c2.32,-2 3.32,-4.67 3.32,-7.84z"
   id="glyph71" />
   <glyph
   unicode="l"
   horiz-adv-x="258"
   d="M272.84 13.99c0,-5.15 -9.52,-10.49 -28.68,-15.99 -19.34,-5.35 -38,-7.99 -56.16,-7.99 -58.01,0 -92,23.33 -102.17,69.82 -3.17,15.34 -4.82,56.33 -4.82,123l0 516.32c0,6.84 3.65,10.67 10.82,11.67l51.51 12.17c0.5,0.67 2.82,1 6.82,1 3.85,0 5.85,-3.65 5.85,-11.17l0 -530.49c0,-51.83 0.82,-82.51 2.5,-92.33 3.17,-25.33 16.84,-38 40.84,-38 13.99,0 28.98,4 44.82,11.99 3.85,1.32 6.49,2 7.84,2 2.17,0 4.5,-2.32 6.82,-6.99l12.17 -37.17c1.17,-4.17 1.85,-6.84 1.85,-7.84z"
   id="glyph72" />
   <glyph
   unicode="m"
   horiz-adv-x="722"
   d="M641 12.17c0,-6.17 -1,-9.67 -3.17,-10.67 -2.17,-1 -5.17,-1.5 -8.99,-1.5l-50.66 0c-6.17,0 -9.84,1.32 -11.17,3.82 -0.67,1.67 -1,4.52 -1,8.34l0 342.83c0,48.66 -21.33,72.99 -64,72.99 -28.35,0 -62.35,-13.31 -102.02,-39.99l0 -375.83c0,-6.17 -1,-9.67 -3,-10.67 -1.82,-1 -4.5,-1.5 -7.82,-1.5l-52.33 0c-5,0 -7.99,0.82 -9.17,2.67 -1.17,1.82 -1.67,5 -1.67,9.49l0 341.84c0,49.34 -21.33,73.99 -64,73.99 -29.83,0 -63.18,-14.34 -100,-42.82l0 -373.01c0,-6.17 -1,-9.67 -3.17,-10.67 -2.15,-1 -5.17,-1.5 -8.99,-1.5l-50.66 0c-6.17,0 -9.67,1.32 -10.67,3.82 -1,1.67 -1.5,4.52 -1.5,8.34l0 358.85c0,27.98 -6,55.98 -18.01,83.81 -0.67,0.67 -1,2.35 -1,5.02 0,2.82 1.67,4.82 4.85,5.82l39.99 22.83c3.67,2.35 6.67,3.5 9.32,3.5 10.17,0 19.68,-18.99 28.85,-57.01 50.34,39.34 97.15,59 139.99,59 46.49,0 78.16,-19.66 94.68,-59 55.33,39.34 103.99,59 145.99,59 43.67,0 73.99,-14.66 91.33,-43.99 12.02,-20.51 18.01,-52.83 18.01,-97l0 -340.84z"
   id="glyph73" />
   <glyph
   unicode="n"
   horiz-adv-x="518"
   d="M437.01 12.17c0,-6.17 -1,-9.67 -3.02,-10.67 -1.82,-1 -4.65,-1.5 -8.14,-1.5l-52.68 0c-4.82,0 -7.99,0.82 -9.17,2.67 -1.32,1.82 -2,5 -2,9.49l0 332.99c0,55.18 -21.98,82.84 -66,82.84 -42.32,0 -86.33,-20.98 -132,-62.83l0 -353c0,-6.17 -1,-9.67 -3,-10.67 -1.82,-1 -4.67,-1.5 -8.17,-1.5l-52.66 0c-4.85,0 -7.99,0.82 -9.17,2.67 -1.35,1.82 -2,5 -2,9.49l0 342.66c0,36.5 -6.35,68.5 -19.01,96.18 -1,2.67 -1.67,4.5 -2,5.82 0,3.02 1.67,4.85 4.85,5.85l45.49 25.83c3.17,2.35 5.85,3.5 7.67,3.5 12.84,0 23.01,-21.98 30.83,-66.15 56.68,45.49 110.34,68.15 161,68.15 49.51,0 83.51,-16.16 102.17,-48.34 11.34,-19.16 17.01,-52.66 17.01,-100.5l0 -332.99z"
   id="glyph74" />
   <glyph
   unicode="o"
   horiz-adv-x="500"
   d="M450 243.16c0,-80.99 -18.16,-144.16 -54.33,-189.33 -36.17,-45.16 -86.51,-67.82 -151.01,-67.82 -61.33,0 -108.82,22.16 -142.84,66.32 -33.82,44.34 -50.81,106.17 -50.81,185.51 0,80.99 18.16,143.99 54.33,188.83 36.15,44.84 86.48,67.32 150.98,67.32 60.68,0 108.17,-22.16 142.34,-66.65 34.17,-44.34 51.34,-105.84 51.34,-184.18zm-82.01 1c0,124.5 -39.49,186.83 -118.48,186.83 -77.66,0 -116.51,-61 -116.51,-182.98 0,-68.85 10.34,-120.68 31,-155.18 17.51,-29.15 46.66,-43.82 87.51,-43.82 39.17,0 67.32,13.99 84.48,41.99 21.33,34.5 32,85.48 32,153.16z"
   id="glyph75" />
   <glyph
   unicode="p"
   horiz-adv-x="500"
   d="M450 250.01c0,-82.01 -14.84,-146.51 -44.49,-193.5 -29.85,-47.01 -70.35,-70.5 -122.01,-70.5 -37.5,0 -77.02,14.66 -118.51,43.82l0 -213.98c0,-7.17 -3,-11.34 -9.17,-12.67l-52.66 -14.19c-2.35,-0.65 -4.17,-1 -5.85,-1 -4.82,0 -7.32,3.52 -7.32,10.67l0 543c0,43.67 -6.67,76.02 -20.18,97.17 -6.49,10.84 -9.82,17.16 -9.82,19.16 0,2.17 1,3.85 3,4.85l42.99 30.15c2,2 4.5,3 7.84,3 10.84,0 23.16,-19.98 37.17,-59.98 50.49,38.65 98.65,57.98 144.31,57.98 58.18,0 98.52,-23.16 121.36,-69.32 22.16,-44.17 33.32,-102.5 33.32,-174.66zm-82.01 -2c0,57.16 -5,99.5 -15.16,127.15 -12.32,34.5 -36.32,51.83 -72.17,51.83 -29.65,0 -68.15,-16.34 -115.66,-48.84l0 -282.16c41.67,-28 78.01,-41.99 108.84,-41.99 34.17,0 58.33,14.81 72.67,44.49 14.34,29.68 21.48,79.51 21.48,149.51z"
   id="glyph76" />
   <glyph
   unicode="q"
   horiz-adv-x="500"
   d="M441.16 460.84c0,-1.35 -2,-6.35 -6,-15.19 -14.84,-31.83 -22.16,-64.65 -22.16,-98.65l0 -530.34c0,-8.67 -3,-14.16 -9.17,-16.01l-53.66 -15.66c-2.35,-0.65 -4.35,-1 -6.35,-1 -4.5,0 -6.84,3.67 -6.84,10.67l0 250.33c-42.32,-39.32 -86.16,-58.98 -131.82,-58.98 -47.16,0 -84.51,22.16 -111.99,66.65 -27.5,44.34 -41.17,104.52 -41.17,180.34 0,81.84 15.31,145.84 46.16,192 30.65,46.01 73.49,69 128.15,69 43.67,0 87.51,-15.99 131.85,-48.16 10.67,33.5 21.16,50.16 31.15,50.16 1.35,-0.32 3,-1 5.02,-2l41.99 -24.83c3.17,-2.32 4.82,-5 4.82,-8.32zm-104.17 -350.18l0 278.66c-38.15,25.18 -72.99,37.67 -104.32,37.67 -65.82,0 -98.67,-61.65 -98.67,-184.83 0,-69.32 8.99,-119.51 27.18,-150.48 14.66,-25.18 36.15,-37.67 64.65,-37.67 31.68,0 68.85,18.84 111.16,56.66z"
   id="glyph77" />
   <glyph
   unicode="r"
   horiz-adv-x="332"
   d="M333.17 478c0,-1.67 -0.67,-4 -2,-6.84l-24.01 -56.16c-1,-1.85 -2.67,-2.85 -5.32,-2.85 -0.35,0 -5.85,1.67 -16.66,4.85 -6.84,1.32 -12.52,2 -17.01,2 -22.16,0 -55.16,-25.33 -99.17,-76.17l0 -330.67c0,-6.17 -1,-9.67 -3,-10.67 -1.82,-1 -4.5,-1.5 -7.82,-1.5l-53.33 0c-5.02,0 -8.02,0.82 -9.17,2.67 -1.17,1.82 -1.67,5 -1.67,9.49l0 299.84c0,34.65 -0.82,57.48 -2.32,68.32 -3.02,22.66 -10.17,44.52 -21.86,65.32 -2.5,4.85 -3.82,8.34 -3.82,10.34 0,3.85 1.67,6.84 4.85,8.67l41.99 26.33c3.32,2 6,3 8.32,3 5.85,0 12.84,-8.67 20.83,-25.98 7.84,-17.51 13.66,-36.35 17.34,-56.86 31.18,35 54.33,57.68 69.5,67.67 15.19,10.17 33.35,15.16 54.51,15.16 11.34,0 22.51,-1.82 33.32,-5.32 11.02,-3.67 16.51,-7.17 16.51,-10.67z"
   id="glyph78" />
   <glyph
   unicode="s"
   horiz-adv-x="389"
   d="M349 128c0,-42.34 -14.66,-76.49 -44.02,-102.67 -29.15,-26.15 -67.65,-39.32 -115.16,-39.32 -54.33,0 -103.67,12.99 -147.99,38.99 -3.85,2.32 -5.85,5.32 -5.85,9.32 0,0.85 0.32,2.17 1,3.85l19.01 43.84c1,2.65 3,4 5.82,4 1.35,0 4,-0.67 7.84,-2 45.66,-22.68 86.33,-34 122.16,-34 24.18,0 43.52,6.64 58.18,19.98 14.66,13.34 21.98,30.83 21.98,52.16 0,31 -21.33,56.36 -64,76.17 -55.83,25.68 -93.15,46.19 -111.66,61.5 -30.83,25.36 -46.31,57.01 -46.31,95.18 0,40.67 14.16,73.99 42.67,100 28.48,26 65,38.99 109.49,38.99 26,0 54.01,-4.82 83.84,-14.66 30,-9.67 44.99,-18.84 44.99,-27.33 0,-1.82 -0.65,-4.32 -2,-7.17l-17.99 -36.67c-2.5,-4.15 -5.67,-6.32 -9.17,-6.32 0,0 -2.67,0.65 -7.84,2 -36.32,17.49 -67.32,26.15 -93.15,26.15 -50.51,0 -75.84,-22.48 -75.84,-67.32 0,-20.16 6.67,-36.5 19.98,-48.84 9.02,-8.34 43.84,-27.5 104.34,-57.01 37,-17.99 62.83,-36.32 77.49,-55.48 14.84,-19.01 22.18,-43.52 22.18,-73.34z"
   id="glyph79" />
   <glyph
   unicode="t"
   horiz-adv-x="332"
   d="M343.01 29.68c0,-7.84 -15.19,-16.34 -45.66,-25.68 -30.5,-9.32 -58.5,-13.99 -84.33,-13.99 -62.5,0 -101.02,24.33 -115.69,72.82 -4.15,13.66 -6.32,38 -6.32,73.34l0 281.83 -70.85 0c-8.17,0 -12.17,3.67 -12.17,11.17l0 38.67c0,6.17 1.35,9.82 3.85,11.17 1.65,0.67 4.5,1 8.32,1l70.85 0 0 137.17c0,6.82 3.32,11.17 10.17,12.67l51.66 14.16c3.67,1.32 5.67,2 6.35,2 4.5,0 6.82,-4 6.82,-12.17l0 -153.83 150.16 0c6.17,0 9.17,-2.35 9.17,-6.84 0,-1.65 -0.32,-3.65 -1,-6.32l-11.17 -38.5c-2,-6.84 -6.64,-10.34 -14.16,-10.34l-133 0 0 -281.16c0,-31.85 3.35,-52.18 9.84,-60.85 10.32,-13.31 27.15,-19.98 50.34,-19.98 20.83,0 50.84,7.99 89.83,24.16 3.32,1.17 5.82,1.85 7.49,1.85 3.5,0 5.85,-2.02 6.84,-5.85l10.67 -41.17c1.32,-2.82 2,-4.67 2,-5.32z"
   id="glyph80" />
   <glyph
   unicode="u"
   horiz-adv-x="500"
   d="M451 23.01c-0.67,-0.85 -2.17,-2.5 -4.5,-4.85l-44.84 -29.15c-3,-2 -5.32,-3 -6.82,-3 -10.84,0 -22.51,19.98 -35.17,59.83 -51.83,-39.84 -101.85,-59.83 -150.01,-59.83 -91.15,0 -136.67,44.67 -136.67,134.15l0 344.51c0,6.84 3.35,11.34 9.84,13.16l52.01 14.16c2.5,0.67 4.65,1 6.32,1 4.5,0 6.84,-3.65 6.84,-11.17l0 -312.16c0,-43.84 5.15,-74.17 15.66,-90.83 10.32,-16.51 29.15,-24.83 56.48,-24.83 43.52,0 85.51,16.99 125.85,50.84l0 359.82c0,7.17 3.15,11.49 9.67,13.16l52.83 14.16c2.15,0.67 4.15,1 5.67,1 4.5,0 6.82,-3.65 6.82,-11.17l0 -349c0,-43.17 8.99,-77.49 27,-102.82 2,-2.67 3,-5 3,-6.99z"
   id="glyph81" />
   <glyph
   unicode="v"
   horiz-adv-x="425"
   d="M423 466.66c0,-1.32 -0.67,-3.67 -2,-6.82l-182.16 -458.02c-2.17,-5.82 -6.49,-8.82 -12.67,-8.82l-38.17 0c-6.49,0 -10.84,3 -13.16,8.82l-168.84 460.84c-1.32,2.67 -2,4.67 -2,6.35 0,3.82 3.5,6.49 10.34,7.82l59 13.16 3 0c3.15,0 5.82,-3.17 7.67,-9.32l106.99 -326.85c2,-4.32 4.32,-11.34 7.32,-21.01l11.69 -41.99c5.32,20.51 11.67,40.99 19.16,61.83l119.16 328.17c1.85,6.17 4.5,9.17 7.67,9.17 1.32,0 3.32,-0.32 6,-1l52.18 -14.16c5.82,-1.5 8.82,-4.32 8.82,-8.17z"
   id="glyph82" />
   <glyph
   unicode="w"
   horiz-adv-x="610"
   d="M600.16 469.51c0,-1.35 -0.32,-2.85 -1,-4.52l-1 -2.82 -132.32 -459.34c-1.85,-6.49 -5.85,-9.82 -11.67,-9.82l-38.99 0c-6.17,0 -10.34,3.32 -12.34,9.82l-78.51 303.34c-3.32,11.67 -6,26 -8.32,42.99l-2 14.69 -2.85 20.98c-3.32,-30 -8.32,-55.83 -15.16,-77.66l-93.83 -305.34c-1.82,-5.82 -6.35,-8.82 -13.16,-8.82l-37 0c-6.17,0 -10.17,3.32 -11.84,9.82l-115.16 458.84c-0.67,2.67 -1,4.5 -1,5.82 0,4.67 3.17,7.34 9.32,8.34l50.69 12.67c2.65,1 4.65,1.5 6,1.5 3.82,0 6.67,-3.32 8.17,-10.17l70.82 -347.01c0.67,-2.65 3,-15.49 6.84,-38.65 1,6 5.32,24.16 13.16,54.83l95.33 324.15c1.5,5.85 5.5,8.84 11.67,8.84l39.99 0c6.52,0 10.67,-3 12.17,-8.84l89.01 -375.98 2.85 13.66 4.82 25.51 85.01 343.83c1.65,5.82 4.5,8.82 8.32,8.82 1.67,0 3.5,-0.32 5.85,-1l45.99 -10.67c6.84,-1.67 10.17,-4.32 10.17,-7.82z"
   id="glyph83" />
   <glyph
   unicode="x"
   horiz-adv-x="444"
   d="M429.17 17.34c0,-2.67 -3.17,-5 -9.34,-7.34l-52.83 -19.48c-3.5,-1.67 -6,-2.5 -7.17,-2.5 -2.32,0 -5,2.5 -7.82,7.32l-102.17 155.68c-3.82,5.82 -6.82,10.49 -8.67,13.99l-10.34 16.16 -5.82 9.84c-6.49,-11.84 -14.49,-24.51 -24.01,-38.35l-110.34 -158.33c-1.82,-4.17 -4.5,-6.32 -7.82,-6.32l-6.84 1.5 -52.16 21.98c-5.17,2.35 -7.84,4.85 -7.84,7.84 0,1.82 1.35,4.17 3.85,6.82l164.17 218.51 -146.01 210.16c-2,2 -3,4.17 -3,6.84 0,4.17 2.67,7.34 7.84,9.34l52.33 18.99c0.65,0.67 2.5,1 5.82,1 3.17,0 6.17,-2.17 8.84,-6.32l86.83 -134.67c4.82,-7.49 10.82,-16.84 17.99,-28.18 1,-1.65 4.85,-7.49 11.34,-17.66 4.82,8.49 14.84,24.18 29.83,47.16l91.18 133.35c2.67,4.15 6,6.32 9.82,6.32 0.67,0 2.67,-0.82 5.85,-2.5l49.34 -19.98c5.17,-2.02 7.82,-4.17 7.82,-6.84 0,-3.32 -1.32,-6.17 -4,-8.84l-147.84 -198.5 156.68 -229.17c3,-4 4.5,-6.49 4.5,-7.82z"
   id="glyph84" />
   <glyph
   unicode="z"
   horiz-adv-x="407"
   d="M389.82 60c0,-2.35 -0.5,-5 -1.82,-8.34l-19.16 -42.67c-1.85,-6 -6.35,-8.99 -13.16,-8.99l-312.01 0c-7.84,0 -11.67,4 -11.67,12.17l0 39.67 253 365.17 -221.33 0c-7.17,0 -10.67,3.67 -10.67,11.17l0 41.17c0,7.17 3.5,10.67 10.67,10.67l304.31 0c4.85,0 7.84,-0.82 9.02,-2.5 1.15,-1.5 1.65,-4.35 1.65,-8.17l0 -42.49 -248.98 -360.85 248.98 0c4.85,0 8.02,-0.32 9.34,-1.17 1.32,-0.82 1.82,-2.5 1.82,-4.82z"
   id="glyph85" />
   <glyph
   unicode="Ä"
   horiz-adv-x="537"
   d="M424.85 801.33c0,-15.16 -5.35,-28.15 -16.19,-38.99 -10.67,-10.84 -23.48,-16.16 -38.5,-16.16 -15.66,0 -28.83,5.32 -39.32,16.16 -10.67,10.84 -15.84,23.83 -15.84,38.99 0,15.66 5.32,29 16.34,39.67 10.82,10.67 24.16,16.01 39.82,16.01 14.66,0 27.18,-5.52 37.85,-16.51 10.49,-10.99 15.84,-24.16 15.84,-39.17zm-201.67 0.5c0,-15.34 -5.52,-28.5 -16.34,-39.32 -11.02,-11.02 -23.83,-16.34 -38.84,-16.34 -15.66,0 -29,5.32 -39.82,16.34 -10.84,10.82 -16.34,23.98 -16.34,39.32 0,15.66 5.5,28.68 16.34,39.34 10.82,10.49 24.16,15.84 39.82,15.84 15.01,0 27.83,-5.35 38.84,-16.19 10.82,-10.67 16.34,-23.66 16.34,-38.99zm294 -793.98c0,-5.17 -4.85,-7.84 -14.16,-7.84l-64 0c-6.84,0 -11.84,3.67 -15.19,11.17l-54.66 194.82 -203.17 0 -56.16 -194.82c-1.85,-7.49 -6.84,-11.17 -14.66,-11.17l-60 0c-9.52,0 -14.16,2.32 -14.16,6.84 0,1.65 0.65,4.65 2,9.32l201.17 658.66c2.15,7.49 7.17,11.17 14.66,11.17l60 0c7.82,0 12.82,-3.67 15.16,-11.17l201.17 -658.66c1.32,-4.67 2,-7.32 2,-8.32zm-167 267.17l-60.18 220.15c-8.67,31.5 -16.34,63.5 -22.83,95.68 -4.67,-23.51 -12.34,-55.01 -23.01,-94.68l-60.15 -221.15 166.17 0z"
   id="glyph86" />
   <glyph
   unicode="Ü"
   horiz-adv-x="591"
   d="M452.17 801.33c0,-15.16 -5.5,-28.15 -16.34,-38.99 -10.99,-10.84 -23.83,-16.16 -38.84,-16.16 -15.34,0 -28.33,5.32 -38.99,16.16 -10.84,10.84 -16.16,23.83 -16.16,38.99 0,15.66 5.5,29 16.34,39.67 10.82,10.67 24.16,16.01 39.82,16.01 14.66,0 27.35,-5.52 38.02,-16.51 10.82,-10.99 16.16,-24.16 16.16,-39.17zm-202.17 0.5c0,-15.34 -5.35,-28.5 -16.16,-39.32 -10.67,-11.02 -23.68,-16.34 -39.02,-16.34 -15.31,0 -28.33,5.32 -39.32,16.34 -10.84,10.82 -16.34,23.98 -16.34,39.32 0,15.66 5.5,28.68 16.34,39.34 10.99,10.49 24.01,15.84 39.32,15.84 15.01,0 28,-5.35 38.84,-16.19 10.84,-10.67 16.34,-23.66 16.34,-38.99zm258 -617.67c0,-61.5 -16.66,-108.49 -49.84,-140.99 -38.99,-38.17 -95.33,-57.16 -168.99,-57.16 -136.84,0 -205.17,66 -205.17,198.15l0 487.67c0,9.49 4.65,14.16 14.16,14.16l53.66 0c9.49,0 14.16,-4.67 14.16,-14.16l0 -485c0,-48.49 9.67,-82.99 29,-103.32 19.34,-20.33 52.01,-30.5 97.82,-30.5 90.85,0 136.17,44.67 136.17,133.82l0 485c0,9.49 4.5,14.16 13.66,14.16l51.68 0c9.17,0 13.66,-4.67 13.66,-14.16l0 -487.67z"
   id="glyph87" />
   <glyph
   unicode="ä"
   horiz-adv-x="462"
   d="M374.01 629.84c0,-14.34 -5.35,-26.68 -16.01,-37 -10.49,-10.52 -23.33,-15.66 -38.32,-15.66 -14.34,0 -26.68,5.15 -37.02,15.66 -10.49,10.32 -15.66,22.98 -15.66,38 0,14.66 5.17,27.15 15.66,37.5 10.34,10.49 23.01,15.66 38.02,15.66 14.66,0 27.15,-5.32 37.65,-15.84 10.34,-10.67 15.69,-23.33 15.69,-38.32zm-197.35 0c0,-14.34 -5.17,-26.68 -15.66,-37 -10.34,-10.52 -22.66,-15.66 -37,-15.66 -15.01,0 -27.83,5.15 -38.35,15.66 -10.67,10.32 -15.99,22.98 -15.99,38 0,14.66 5.32,27.15 15.99,37.5 10.52,10.49 23.33,15.66 38.35,15.66 14.66,0 27,-5.32 37.32,-15.84 10.17,-10.67 15.34,-23.33 15.34,-38.32zm229 -605.18c0,-2 -1.32,-3.5 -3.82,-4.82l-43.02 -26.83c-2.65,-2 -5.15,-3 -7.82,-3 -12.67,0 -25.33,20.98 -38.17,63 -42.84,-42.02 -90.65,-63 -142.99,-63 -40.34,0 -72.52,12.32 -96.18,36.82 -23.83,24.68 -35.67,58.01 -35.67,100 0,113.01 88.01,171.02 264,174.02l0 33.15c0,32 -7.17,54.83 -21.33,68.5 -14.16,13.69 -37.65,20.51 -70.65,20.51 -33.17,0 -73.02,-9.67 -119.18,-29 -2.67,-1.15 -5,-1.82 -6.82,-1.82 -3.67,0 -6.02,1.5 -6.84,4.82l-15.16 40.02 -1 7.64c0,5.02 8.82,11.34 26.83,19.01 41.34,18.16 85.83,27.33 133.35,27.33 103.82,0 155.83,-46.66 155.83,-140.17l0 -189c0,-55.33 8.82,-99 26.65,-131.32 1.35,-2.17 2,-4.17 2,-5.85zm-103.67 85.18l0 129c-124.65,-1 -186.98,-36.35 -186.98,-106.02 0,-23.48 6.82,-42.49 20.48,-57.33 13.66,-14.81 31.35,-22.33 52.68,-22.33 33.32,0 71.14,19.01 113.81,56.68z"
   id="glyph88" />
   <glyph
   unicode="•"
   horiz-adv-x="500"
   d="M392 348.01c0,-38.99 -13.84,-72.49 -41.67,-100.35 -27.83,-27.83 -61.33,-41.67 -100.32,-41.67 -39.34,0 -73.02,13.84 -101,41.67 -28,27.85 -42.02,61.35 -42.02,100.35 0,39.99 13.84,73.82 41.67,101.5 27.83,27.65 62,41.49 102.35,41.49 38.67,0 71.82,-13.99 99.5,-41.99 27.65,-28 41.49,-61.68 41.49,-101z"
   id="glyph89" />
  </font>
</defs>
</svg>
