<?xml version="1.0" encoding="UTF-8" standalone="no"?>
<!-- Creator: CorelDRAW 2021 (64-Bit) -->

<svg
   xml:space="preserve"
   width="225mm"
   height="195mm"
   version="1.1"
   style="shape-rendering:geometricPrecision; text-rendering:geometricPrecision; image-rendering:optimizeQuality; fill-rule:evenodd; clip-rule:evenodd"
   viewBox="0 0 22528.08 19524.35"
   id="svg144"
   sodipodi:docname="lehramt_an_gymnasien_und_gesamtschulen__bachelor_.svg"
   inkscape:version="1.3-dev (77bc73e, 2022-05-18)"
   xmlns:inkscape="http://www.inkscape.org/namespaces/inkscape"
   xmlns:sodipodi="http://sodipodi.sourceforge.net/DTD/sodipodi-0.dtd"
   xmlns="http://www.w3.org/2000/svg"
   xmlns:svg="http://www.w3.org/2000/svg"><sodipodi:namedview
   id="namedview144"
   pagecolor="#ffffff"
   bordercolor="#000000"
   borderopacity="0.25"
   inkscape:showpageshadow="2"
   inkscape:pageopacity="0.0"
   inkscape:pagecheckerboard="0"
   inkscape:deskcolor="#d1d1d1"
   inkscape:document-units="mm"
   showgrid="false"
   inkscape:zoom="0.32021368"
   inkscape:cx="426.27786"
   inkscape:cy="368.50394"
   inkscape:window-width="1440"
   inkscape:window-height="900"
   inkscape:window-x="0"
   inkscape:window-y="0"
   inkscape:window-maximized="0"
   inkscape:current-layer="Ebene_x0020_1" />
 <defs
   id="defs97">
  <font
   id="FontID4"
   horiz-adv-x="537"
   font-variant="normal"
   style="fill-rule:nonzero"
   font-weight="400">
	<font-face
   font-family="Officina Sans ITC TT"
   id="font-face1">
		<font-face-src>
			<font-face-name
   name="Officina Sans ITC TT" />
		</font-face-src>
	</font-face>
   <missing-glyph
   id="missing-glyph1"><path
     d="M0 0z"
     id="path1" /></missing-glyph>
   <glyph
   unicode="."
   horiz-adv-x="295"
   d="M219.16 57.15c0,-19.49 -6.98,-36.14 -20.83,-50.14 -13.82,-14.03 -30.33,-21.01 -49.5,-21.01 -19.81,0 -36.64,6.84 -50.32,20.48 -13.68,13.68 -20.52,30.51 -20.52,50.67 0,19.52 7.02,36.18 21.01,49.68 14,13.5 31,20.16 50.85,20.16 18.5,0 34.65,-6.84 48.47,-20.66 13.85,-13.82 20.83,-30.15 20.83,-49.18z"
   id="glyph1" />
   <glyph
   unicode="0"
   horiz-adv-x="500"
   d="M456.98 328.18c0,-111.01 -17.82,-195.84 -53.33,-254.34 -35.5,-58.5 -86.99,-87.84 -154.17,-87.84 -57.65,0 -102.83,22 -135.5,65.84 -45.99,62.82 -68.99,150.49 -68.99,262.99 0,107.82 18.85,191.66 56.52,251.82 37.67,60.17 90.32,90.36 157.82,90.36 63.67,0 112.5,-28.35 146.48,-85.18 34.19,-56.84 51.17,-137.98 51.17,-243.64zm-81.99 -2.02c0,173.16 -40.5,259.83 -121.5,259.83 -40,0 -70.97,-23.32 -93.15,-69.84 -22.18,-46.67 -33.34,-111.65 -33.34,-195.31 0,-88.34 12.01,-156.86 36,-205.69 18.85,-38.83 48.01,-58.15 87.52,-58.15 44.82,0 76.32,22.32 94.82,67 19.84,48.83 29.66,116.15 29.66,202.15z"
   id="glyph2" />
   <glyph
   unicode="1"
   horiz-adv-x="500"
   d="M424.67 14.17c0,-9.5 -4.68,-14.17 -13.68,-14.17l-265.15 0c-9.5,0 -14.17,4.68 -14.17,14.17l0 37.67c0,9.5 4.68,14.17 14.17,14.17l102.15 0 0 489.16 -140.17 -81c-3.65,-2.66 -6.98,-4 -9.82,-4 -3.01,0 -5.67,3.01 -8.33,8.82l-11.69 22c-1.98,2.83 -2.98,6.34 -2.98,10.17 0,2.66 2.66,5.35 7.83,7.83l176.67 125.01 50.32 0c9.5,0 14.17,-4.68 14.17,-14.17l0 -563.82 86.99 0c9,0 13.68,-4.68 13.68,-14.17l0 -37.67z"
   id="glyph3" />
   <glyph
   unicode="2"
   horiz-adv-x="500"
   d="M431.01 14.17c0,-9.5 -4.68,-14.17 -14.17,-14.17l-335.66 0c-6.17,0 -9.67,1.49 -10.67,4.32 -1.03,2.02 -1.52,5.35 -1.52,9.85 0,71.65 13.36,132.17 39.83,181.67 26.5,49.5 69.84,94.82 130,136.17 45.5,31 73.84,54 85.36,68.99 16.48,22 24.8,48.51 24.8,79.02 0,32.63 -8.82,58.32 -26.65,77.49 -17.68,18.99 -41.49,28.49 -71.33,28.49 -51.52,0 -89.01,-33.34 -112.68,-100.17 -1.98,-5.17 -4.82,-7.83 -8.33,-7.83 -2.02,0 -4.5,0.67 -7.83,2.02l-43.83 13.15c-5.49,2.02 -8.33,4.85 -8.33,8.82 0,8.01 4.32,21.37 13.15,39.86 8.82,18.64 17.82,33.8 27,45.99 35.5,46.17 84.15,69.17 146.16,69.17 53.86,0 96.34,-16.33 127.67,-49 31.36,-32.85 47.02,-76.82 47.02,-132.17 0,-38.34 -8.5,-71.33 -25.69,-98.68 -17.15,-27.32 -47.98,-56.48 -92.84,-87.31 -52.48,-36.5 -90.14,-70.51 -113,-102.01 -22.82,-31.68 -36.82,-69.84 -42.17,-114.84l259.51 0c9.5,0 14.17,-4.64 14.17,-14.17l0 -44.65z"
   id="glyph4" />
   <glyph
   unicode=":"
   horiz-adv-x="295"
   d="M219.16 402.84c0,-19.52 -6.84,-36 -20.48,-49.5 -13.68,-13.5 -30.33,-20.34 -49.85,-20.34 -19.81,0 -36.64,6.84 -50.32,20.48 -13.68,13.68 -20.52,30.37 -20.52,50.35 0,19.49 7.02,36 21.01,49.68 14,13.64 31,20.48 50.85,20.48 18.5,0 34.65,-6.98 48.47,-20.98 13.85,-14.03 20.83,-30.69 20.83,-50.17zm0 -345.69c0,-19.49 -6.98,-36.14 -20.83,-50.14 -13.82,-14.03 -30.33,-21.01 -49.5,-21.01 -19.81,0 -36.64,6.84 -50.32,20.48 -13.68,13.68 -20.52,30.51 -20.52,50.67 0,19.52 7.02,36.18 21.01,49.68 14,13.5 31,20.16 50.85,20.16 18.5,0 34.65,-6.84 48.47,-20.66 13.85,-13.82 20.83,-30.15 20.83,-49.18z"
   id="glyph5" />
   <glyph
   unicode="O"
   horiz-adv-x="556"
   d="M503.01 344.16c0,-238.82 -77,-358.16 -230.85,-358.16 -146.84,0 -220.15,117.67 -220.15,352.85 0,240.81 78.17,361.14 234.32,361.14 144.5,0 216.67,-118.67 216.67,-355.82zm-89.01 -7.33c0,109.17 -12.69,188.68 -38.16,238.5 -19.84,38.52 -52.51,57.69 -98.01,57.69 -49,0 -83.34,-21.01 -103.18,-63 -22.5,-47.84 -33.66,-122.85 -33.66,-224.86 0,-103.5 13,-181.67 39.01,-234.5 18.99,-38.48 51.17,-57.65 96.84,-57.65 49.15,0 83.48,20.98 103,63 22.82,48.51 34.16,122.17 34.16,220.82z"
   id="glyph6" />
   <glyph
   unicode="S"
   horiz-adv-x="481"
   d="M438.98 182.34c0,-58.68 -19.31,-106.02 -58.15,-142.16 -38.66,-36.18 -89.33,-54.18 -151.83,-54.18 -37.49,0 -78.34,6.98 -122.49,21.01 -44.36,14 -66.51,27 -66.51,38.98 0,2.02 0.67,4.68 1.98,8.33l19.03 47.69c1.31,3.33 3.47,5 6.8,5 3.01,0 8.68,-2.34 17.19,-6.84 50.99,-28.17 99.32,-42.17 144.99,-42.17 36.67,0 66.33,10.35 88.51,31 22.32,20.66 33.48,47.98 33.48,81.82 0,30.51 -8.5,56.02 -25.33,76.18 -17.01,20.16 -50.17,44.33 -99.67,72.67 -65.3,37.81 -107.33,67.15 -126,88.34 -26.65,30.33 -39.97,67.32 -39.97,110.84 0,53.15 18.32,96.49 54.99,130.32 36.5,33.84 83.84,50.81 141.84,50.81 33.48,0 69.66,-6.31 108.5,-19.17 38.98,-12.83 58.5,-24.48 58.5,-34.97 0,-1.84 -0.67,-4.5 -2.02,-7.69l-18 -45.32c-1.67,-4 -4.32,-5.85 -7.83,-5.85 -1.31,0 -15.66,6.66 -42.98,20.02 -30.33,14.67 -62.68,22 -97.19,22 -34.48,0 -61.48,-8.68 -80.82,-26.19 -19.35,-17.33 -28.98,-41.67 -28.98,-72.99 0,-35.68 13.32,-63.99 40,-84.83 7.16,-5.67 47.16,-30.51 120.15,-74.84 48.15,-28.49 81,-55.35 98.65,-80.01 22.18,-30.65 33.17,-66.51 33.17,-107.82z"
   id="glyph7" />
   <glyph
   unicode="a"
   horiz-adv-x="462"
   d="M405.68 24.66c0,-1.98 -1.35,-3.51 -3.83,-4.82l-43.02 -26.86c-2.66,-1.98 -5.17,-2.98 -7.83,-2.98 -12.69,0 -25.33,20.98 -38.16,63 -42.84,-42.02 -90.67,-63 -143.01,-63 -40.32,0 -72.5,12.33 -96.17,36.82 -23.85,24.66 -35.68,58 -35.68,99.99 0,113.03 88.02,171 264.01,174.01l0 33.17c0,32 -7.16,54.85 -21.33,68.49 -14.17,13.68 -37.67,20.52 -70.65,20.52 -33.17,0 -73.03,-9.67 -119.2,-29.02 -2.66,-1.13 -5,-1.81 -6.8,-1.81 -3.69,0 -6.02,1.49 -6.84,4.82l-15.17 40 -0.99 7.65c0,5 8.82,11.34 26.82,19.03 41.32,18.14 85.82,27.32 133.34,27.32 103.82,0 155.84,-46.67 155.84,-140.17l0 -189c0,-55.31 8.82,-99 26.65,-131.32 1.35,-2.16 2.02,-4.18 2.02,-5.85zm-103.68 85.18l0 128.98c-124.65,-0.99 -186.98,-36.32 -186.98,-105.98 0,-23.49 6.8,-42.52 20.48,-57.33 13.68,-14.85 31.32,-22.36 52.65,-22.36 33.34,0 71.19,19.03 113.85,56.69z"
   id="glyph8" />
   <glyph
   unicode="d"
   horiz-adv-x="500"
   d="M448.52 23.67c0,-2.02 -1.84,-3.83 -5.35,-5.85l-45 -24.84c-1.98,-1.98 -4.5,-2.98 -7.83,-2.98 -12.01,0 -23,19.98 -33.17,59.81 -56.66,-42.48 -106.34,-63.82 -149,-63.82 -49.18,0 -87.52,23 -115.34,68.85 -27.85,45.82 -41.85,109.31 -41.85,190.31 0,76.68 16.02,137.34 48.19,181.99 32,44.5 75.65,66.86 131,66.86 34.48,0 71.15,-10.67 109.81,-32l0 236.16c0,6.17 3.37,10.31 10.17,12.65l51.7 12.19c1.31,0.64 3.47,0.99 6.31,0.99 4.5,0 6.84,-3.69 6.84,-11.16l0 -554.85c0,-52.16 8.33,-91.49 25.16,-118.17 5.53,-8.5 8.36,-13.82 8.36,-16.16zm-108.53 87.98l0 283.5c-36.99,21.19 -70.83,31.85 -101.48,31.85 -37.35,0 -64.17,-14 -80.68,-41.85 -16.48,-27.82 -24.8,-73.17 -24.8,-136.17 0,-68.99 7.16,-118.81 21.65,-149.32 14.35,-30.51 38.16,-45.67 71.15,-45.67 35.01,0 73.03,19.17 114.17,57.65z"
   id="glyph9" />
   <glyph
   unicode="k"
   horiz-adv-x="443"
   d="M429.17 36c0,-1.98 -1.67,-4.82 -5.35,-8.33l-41 -30.83c-3.33,-2.52 -5.81,-3.86 -7.83,-3.86 -1.31,0 -3.33,1.35 -5.81,3.86l-209.16 250.16 0 -234.85c0,-6.17 -1.35,-9.82 -3.86,-11.16 -1.31,-0.67 -3.83,-0.99 -7.33,-0.99l-52.65 0c-4.82,0 -8.01,0.85 -9.18,2.66 -1.31,1.84 -1.98,5 -1.98,9.5l0 686.03c0,6.17 3.33,10.31 10.17,12.65l51.66 12.19 6.84 0.99c4.15,0 6.34,-3.69 6.34,-11.16l0 -453.02 200.8 225.82c3.51,4.18 7.02,6.34 10.35,6.34 2.52,0 5.49,-1.49 8.68,-4.32l38.16 -25.02c3.33,-3.15 4.82,-6.17 4.82,-8.65 0,-2.66 -1.49,-5.85 -4.82,-9.35l-170.82 -185.99 178.65 -214.83c2.34,-1.98 3.33,-4.68 3.33,-7.83z"
   id="glyph10" />
   <glyph
   unicode="n"
   horiz-adv-x="518"
   d="M437 12.15c0,-6.17 -0.99,-9.64 -3.01,-10.67 -1.81,-0.99 -4.64,-1.49 -8.15,-1.49l-52.65 0c-4.85,0 -8.01,0.85 -9.18,2.66 -1.35,1.84 -2.02,5 -2.02,9.5l0 333c0,55.17 -22,82.84 -65.98,82.84 -42.34,0 -86.35,-21.01 -132.02,-62.82l0 -353.02c0,-6.17 -0.99,-9.64 -2.98,-10.67 -1.84,-0.99 -4.68,-1.49 -8.19,-1.49l-52.65 0c-4.85,0 -8.01,0.85 -9.18,2.66 -1.31,1.84 -1.98,5 -1.98,9.5l0 342.68c0,36.5 -6.34,68.49 -18.99,96.17 -1.03,2.66 -1.67,4.5 -2.02,5.85 0,2.98 1.67,4.82 4.85,5.81l45.5 25.83c3.15,2.34 5.81,3.51 7.65,3.51 12.83,0 23,-22 30.83,-66.15 56.66,45.5 110.34,68.17 161.01,68.17 49.5,0 83.48,-16.19 102.15,-48.33 11.34,-19.17 17.01,-52.69 17.01,-100.52l0 -333z"
   id="glyph11" />
   <glyph
   unicode="t"
   horiz-adv-x="333"
   d="M342.99 29.66c0,-7.83 -15.17,-16.33 -45.67,-25.65 -30.47,-9.35 -58.5,-14 -84.33,-14 -62.5,0 -100.99,24.34 -115.65,72.82 -4.18,13.68 -6.34,38.02 -6.34,73.35l0 281.84 -70.83 0c-8.15,0 -12.15,3.65 -12.15,11.16l0 38.66c0,6.17 1.31,9.85 3.83,11.16 1.67,0.67 4.5,1.03 8.33,1.03l70.83 0 0 137.16c0,6.84 3.33,11.16 10.17,12.65l51.66 14.17c3.69,1.35 5.67,1.98 6.34,1.98 4.5,0 6.84,-3.97 6.84,-12.15l0 -153.82 150.17 0c6.17,0 9.18,-2.34 9.18,-6.84 0,-1.67 -0.35,-3.69 -1.03,-6.34l-11.16 -38.52c-1.98,-6.8 -6.66,-10.31 -14.17,-10.31l-132.98 0 0 -281.16c0,-31.85 3.33,-52.19 9.82,-60.84 10.35,-13.32 27.18,-20.02 50.35,-20.02 20.83,0 50.81,8.01 89.82,24.17 3.33,1.17 5.85,1.84 7.51,1.84 3.51,0 5.81,-1.98 6.84,-5.81l10.67 -41.17c1.31,-2.83 1.98,-4.68 1.98,-5.35z"
   id="glyph12" />
  </font>
  <font
   id="FontID1"
   horiz-adv-x="537"
   font-variant="normal"
   style="fill-rule:nonzero"
   font-style="normal"
   font-weight="400">
	<font-face
   font-family="Officina Sans OS ITC TT"
   id="font-face12">
		<font-face-src>
			<font-face-name
   name="Officina Sans OS ITC TT" />
		</font-face-src>
	</font-face>
   <missing-glyph
   id="missing-glyph12"><path
     d="M0 0z"
     id="path12" /></missing-glyph>
   <glyph
   unicode="("
   horiz-adv-x="370"
   d="M316.85 -202.16c0,-3.85 -5.67,-9.5 -16.84,-16.84 -11.17,-7.32 -20.01,-11.01 -26.17,-11.01 -9.66,0 -32.67,27 -68.84,81 -81.99,122.84 -123,255.5 -123,398.01 0,153.66 48.33,296.67 145.02,429.17 24.5,33.17 39.99,49.82 46.82,49.82 3.66,0 7.68,-1.32 12.33,-3.83l23.83 -15.17c4.68,-3 6.85,-5.83 6.85,-8.83 0,-3.83 -2.83,-9.99 -8.83,-18 -96,-127.99 -144,-272.34 -144,-433.16 0,-159.83 48,-304.16 144,-433.16 6,-8.01 8.83,-14.17 8.83,-18z"
   id="glyph13" />
   <glyph
   unicode=")"
   horiz-adv-x="370"
   d="M288.99 249c0,-153.33 -48.33,-296.34 -145.16,-429.17 -24.33,-33.17 -39.99,-49.84 -46.84,-49.84 -3.5,0 -7.65,1.35 -12.17,3.85l-24 14.15c-4.49,3.69 -6.83,6.85 -6.83,9.85 0,3.83 3,9.99 8.83,18 96.17,129 144.17,273.33 144.17,433.16 0,159.83 -48,304.16 -144.17,433.16 -5.83,7.84 -8.83,13.84 -8.83,18 0,3 7.68,9.33 23.01,18.99 9.33,5.83 16.16,8.83 19.98,8.83 9.17,0 32.01,-27 68.84,-81 82.18,-120.5 123.17,-253.16 123.17,-397.99z"
   id="glyph14" />
   <glyph
   unicode=","
   horiz-adv-x="295"
   d="M233.01 107.17c0,-1.68 -1.35,-4.84 -4.02,-9.85l-115.16 -212.48c-3.33,-5.83 -6.5,-8.83 -9.83,-8.83 -1.02,0 -2.67,0.33 -4.84,0.99l-3 0.99 -21.99 8.34c-7.51,2.5 -11.17,5.5 -11.17,8.67 0,0.66 0.66,3.33 2.01,7.84l57.99 200.48c2.01,7.18 6.99,10.68 15.17,10.68l81.17 0c9,0 13.68,-2.34 13.68,-6.83z"
   id="glyph15" />
   <glyph
   unicode="-"
   horiz-adv-x="351"
   d="M314.84 232.16c0,-9.5 -4.68,-14.15 -14.17,-14.15l-249.99 0c-9.17,0 -13.68,4.65 -13.68,14.15l0 46.68c0,9.5 4.51,14.17 13.68,14.17l249.99 0c9.5,0 14.17,-4.68 14.17,-14.17l0 -46.68z"
   id="glyph16" />
   <glyph
   unicode="."
   horiz-adv-x="295"
   d="M219.17 57.17c0,-19.49 -6.99,-36.17 -20.83,-50.17 -13.84,-13.98 -30.33,-21 -49.49,-21 -19.84,0 -36.69,6.85 -50.34,20.5 -13.68,13.68 -20.5,30.5 -20.5,50.67 0,19.51 6.99,36.17 21,49.68 14.01,13.49 30.99,20.15 50.84,20.15 18.5,0 34.65,-6.83 48.5,-20.67 13.84,-13.82 20.83,-30.17 20.83,-49.16z"
   id="glyph17" />
   <glyph
   unicode="/"
   horiz-adv-x="443"
   d="M428 721.16c0,-1.98 -0.99,-5.33 -3,-10.32l-387.66 -931.01c-2.49,-5.84 -7.99,-8.84 -15.99,-8.84l-39.17 0c-8.84,0 -13.18,2.35 -13.18,6.83 0,3 1.19,6.01 3.51,9.35l386.67 930.67c2.83,6.83 8.33,10.15 16.16,10.15l39 0c9.16,0 13.66,-2.32 13.66,-6.83z"
   id="glyph18" />
   <glyph
   unicode="0"
   horiz-adv-x="500"
   d="M457 292.16c0,-204.17 -69.17,-306.17 -207.5,-306.17 -57.66,0 -102.83,19.68 -135.5,59.01 -45.99,56.01 -69,134.34 -69,234.83 0,96.66 18.83,171.83 56.5,225.66 37.65,53.67 90.33,80.5 157.82,80.5 63.69,0 112.51,-25.32 146.51,-75.83 34.18,-50.67 51.17,-123.33 51.17,-218.01zm-81.99 -2.31c0,150.17 -40.51,225.14 -121.51,225.14 -39.99,0 -70.98,-20.15 -93.17,-60.33 -22.16,-40.16 -33.33,-96.33 -33.33,-168.66 0,-76.82 12,-136.16 36,-178.16 19.51,-33.83 48.66,-50.84 87.5,-50.84 44.83,0 76.35,19.32 94.84,58.16 19.84,42 29.67,100.18 29.67,174.69z"
   id="glyph19" />
   <glyph
   unicode="1"
   horiz-adv-x="500"
   d="M424.82 14.17c0,-9.5 -4.49,-14.17 -13.65,-14.17l-264.17 0c-9.5,0 -14.17,4.68 -14.17,14.17l0 37.65c0,9.5 4.68,14.17 14.17,14.17l102 0 0 426.17 -111.83 -67.35c-4.51,-2.65 -8.01,-3.99 -10.18,-3.99 -3,0 -5.32,2.5 -6.83,7.35l-13.16 24c-2.01,3.5 -3,6.5 -3,8.83 0,3.17 2.31,6.66 6.83,10.16l150.33 109.82 49.68 0c9.5,0 14.15,-4.65 14.15,-14.15l0 -500.84 86.17 0c9,0 13.65,-4.68 13.65,-14.17l0 -37.65z"
   id="glyph20" />
   <glyph
   unicode="2"
   horiz-adv-x="500"
   d="M431.01 14.17c0,-9.5 -4.68,-14.17 -14.17,-14.17l-335.67 0c-6.17,0 -9.66,1.49 -10.68,4.32 -0.99,2.01 -1.49,5.34 -1.49,9.85 0,64.98 13.32,119.67 40.16,163.49 26.83,44.01 70.84,83.34 132,118.18 45.85,26.32 74.5,46.65 85.84,60.99 14.67,18.5 21.99,41.17 21.99,67.82 0,28.35 -8.5,50.5 -25.65,66.35 -17.01,15.99 -40.51,23.98 -70.51,23.98 -28.16,0 -51,-7.32 -68.5,-22.16 -17.32,-14.83 -32.32,-39.83 -45,-74.84 -2.65,-6.5 -6.17,-9.83 -10.32,-9.83 -2.01,0 -5.17,0.66 -9.66,2.01l-41.01 11.65c-5.5,2.34 -8.34,5.67 -8.34,10.35 0,7.49 4.35,20.5 13.18,39 8.83,18.66 17.83,33.99 27,45.99 35.5,45.83 84.5,68.84 147.17,68.84 53.84,0 96.17,-14.01 127.16,-42 30.99,-27.99 46.51,-66.33 46.51,-114.83 0,-47.17 -14.67,-86.34 -44.01,-117.33 -12.83,-12.99 -24.5,-23.01 -35.34,-30.17 -9.17,-6.17 -39.66,-24.17 -91.49,-53.84 -68.84,-39.66 -106.51,-91.35 -113.01,-154.84l269.67 0c9.5,0 14.17,-4.65 14.17,-14.15l0 -44.67z"
   id="glyph21" />
   <glyph
   unicode="5"
   horiz-adv-x="500"
   d="M434.01 150.83c0,-72 -21.19,-128.67 -63.35,-170.32 -42.33,-41.67 -99.66,-62.5 -171.99,-62.5 -36.17,0 -66.99,3.5 -92.5,10.32 -25.49,6.83 -38.15,15 -38.15,24.83l0 6.85 10.32 39.99c1.16,5.17 4.51,7.84 9.66,7.84 2.01,0 5.67,-0.69 11.17,-2.01 30,-11.17 64.68,-16.84 104.01,-16.84 99.17,0 148.82,53.01 148.82,159.17 0,40.02 -9.17,71.17 -27.33,93.33 -18.17,22.35 -43.65,33.52 -76.65,33.52 -41.5,0 -80.34,-18.35 -116.01,-54.85 -3.99,-4.16 -6.83,-6.33 -8.83,-6.33l-9.33 1.02 -34.68 12.17c-7.49,2.65 -11.15,5.65 -11.15,8.83l0 7.32 32.15 319.66c0.69,8.83 5.34,13.18 13.68,13.18l260.34 0c9.5,0 14.15,-4.68 14.15,-14.17l0 -41.67c0,-9.5 -4.65,-14.17 -14.15,-14.17l-209.01 0 -21.99 -202.82c38.83,28.49 78.99,42.83 120.5,42.83 50.5,0 91.65,-18 123.17,-54.17 31.49,-36.17 47.17,-83.17 47.17,-141z"
   id="glyph22" />
   <glyph
   unicode="6"
   horiz-adv-x="500"
   d="M443.01 224.17c0,-70.02 -18,-127.18 -53.84,-171.5 -36,-44.5 -82.51,-66.69 -139.68,-66.69 -67.84,0 -118.65,30.85 -152.34,92.34 -25.49,46.16 -38.15,106.68 -38.15,181.68 0,120 24.99,215.65 75,286.49 49.98,71.01 117.17,106.49 201.83,106.49 23.17,0 42.99,-2.15 59.34,-6.33 16.49,-4.32 24.66,-9.5 24.66,-15.66 0,-2.67 -0.33,-4.65 -1.02,-5.83l-10.65 -42.17c-1.35,-4.49 -3.83,-6.83 -7.35,-6.83l-6.83 0.83c-20.17,6.66 -40.49,9.99 -60.99,9.99 -54.17,0 -98.01,-23.15 -131.84,-69.5 -27.99,-37.98 -46.16,-86.15 -54.33,-144.5 38.01,43.35 80.5,65.01 127.49,65.01 51.33,0 92.34,-19.51 122.84,-58.51 30.5,-39.17 45.85,-90.83 45.85,-155.32zm-82.02 -1.18c0,97.35 -37.16,146.01 -111.5,146.01 -34.32,0 -60.99,-12.5 -80.01,-37.68 -18.99,-24.99 -28.49,-60.5 -28.49,-106.32 0,-111.99 36.5,-168 109.49,-168 73.68,0 110.5,55.32 110.5,165.99z"
   id="glyph23" />
   <glyph
   unicode="8"
   horiz-adv-x="500"
   d="M460 167.17c0,-44.34 -14.34,-83.01 -42.99,-116.17 -37.68,-43.32 -93.17,-65.01 -165.99,-65.01 -64.18,0 -115.35,16.35 -153.69,48.85 -38.15,32.48 -57.33,75.99 -57.33,130.32 0,53.5 19.02,96.99 57.17,130.84 18.85,17.32 48.52,33.83 88.84,49.32 -78.66,30.66 -117.99,80.34 -117.99,149.01 0,42.33 15.33,78.66 45.83,108.83 33.83,33.17 79.82,49.82 138.17,49.82 53.01,0 96,-13.82 129.17,-41.65 33.17,-27.85 49.84,-64.02 49.84,-108.17 0,-67.84 -37.68,-119.67 -113.17,-155.84 94.82,-38.17 142.16,-98.17 142.16,-180.17zm-105 327.99c0,28.32 -9.66,51.17 -28.98,68.17 -19.51,17.15 -45,25.65 -77.01,25.65 -30.5,0 -55.16,-8.5 -74.01,-25.32 -18.66,-17.01 -27.99,-39.17 -27.99,-66.5 0,-46.68 35.34,-86.34 105.99,-119.17 68.01,27.66 102,66.66 102,117.17zm23.01 -332.84c0,63.66 -43.35,111.99 -129.99,144.83 -84,-34.49 -126,-82.82 -126,-144.83 0,-33.33 11.83,-60 35.67,-80.17 23.81,-20.15 55.16,-30.17 94.32,-30.17 37.65,0 68.17,10.18 91.32,30.5 23.17,20.34 34.68,46.84 34.68,79.84z"
   id="glyph24" />
   <glyph
   unicode="9"
   horiz-adv-x="500"
   d="M435 312.99c0,-123.66 -22.68,-220.49 -68.17,-290.32 -45.33,-69.85 -108.33,-104.67 -189,-104.67 -34.98,0 -61.82,4.32 -80.84,13.16 -6.83,3 -10.32,7.16 -10.32,12.66l0 6.33 5.01 41.01c0,5.34 2.65,7.84 8.15,7.84 0.66,0 3.33,-0.69 7.84,-1.84 24.83,-7.49 48.17,-11.17 69.99,-11.17 93.99,0 152.51,74.67 175.35,224.01 -31.35,-50.67 -74.67,-75.99 -130.02,-75.99 -50.5,0 -91.16,20.32 -122.32,60.99 -31.18,40.65 -46.68,93.99 -46.68,160.16 0,68.67 18,124.35 54.17,166.84 36,42.66 83.17,63.99 141.17,63.99 123.83,0 185.67,-90.99 185.67,-273zm-81.99 49.68c0,101.5 -35.67,152.32 -106.84,152.32 -34.16,0 -61.16,-13.98 -81.17,-41.98 -20.01,-28.02 -30,-66 -30,-114.19 0,-49.16 9.5,-87.66 28.49,-115.32 19.02,-27.66 45.69,-41.5 79.84,-41.5 73.16,0 109.68,53.5 109.68,160.68z"
   id="glyph25" />
   <glyph
   unicode="="
   horiz-adv-x="500"
   d="M478 366.18c0,-9.52 -4.68,-14.17 -14.17,-14.17l-427.66 0c-9.5,0 -14.17,4.65 -14.17,14.17l0 47.17c0,9.16 4.68,13.66 14.17,13.66l427.66 0c9.5,0 14.17,-4.51 14.17,-13.66l0 -47.17zm0 -138.02c0,-9.5 -4.68,-14.17 -14.17,-14.17l-427.66 0c-9.5,0 -14.17,4.68 -14.17,14.17l0 46.69c0,9.5 4.68,14.14 14.17,14.14l427.66 0c9.5,0 14.17,-4.65 14.17,-14.14l0 -46.69z"
   id="glyph26" />
   <glyph
   unicode="A"
   horiz-adv-x="537"
   d="M517.16 7.84c0,-5.17 -4.82,-7.84 -14.17,-7.84l-63.99 0c-6.83,0 -11.83,3.66 -15.17,11.17l-54.66 194.84 -203.17 0 -56.15 -194.84c-1.84,-7.51 -6.85,-11.17 -14.67,-11.17l-60 0c-9.5,0 -14.17,2.34 -14.17,6.83 0,1.68 0.66,4.68 2.01,9.33l201.17 658.68c2.15,7.49 7.16,11.15 14.67,11.15l60 0c7.82,0 12.83,-3.66 15.17,-11.15l201.17 -658.68c1.32,-4.65 1.98,-7.32 1.98,-8.32zm-166.99 267.17l-60.17 220.16c-8.67,31.49 -16.35,63.5 -22.84,95.67 -4.68,-23.5 -12.33,-55.02 -23.01,-94.68l-60.17 -221.15 166.18 0z"
   id="glyph27" />
   <glyph
   unicode="B"
   horiz-adv-x="556"
   d="M500.01 189c0,-42 -10.35,-78.83 -30.85,-110.34 -20.5,-31.65 -48.66,-53.5 -84.5,-65.5 -24.99,-8.83 -68.34,-13.16 -129.83,-13.16l-145.16 0c-9.19,0 -13.68,4.68 -13.68,14.17l0 657.67c0,9.5 4.49,14.15 13.68,14.15l163.16 0c62.84,0 108.17,-9 136.16,-26.81 42.66,-27.69 64.02,-73.51 64.02,-137.17 0,-77.17 -32.67,-131.5 -98.17,-163.18 32.67,-9 56.5,-20.65 71.84,-34.65 35.5,-32.83 53.34,-78 53.34,-135.17zm-116.01 324.33c0,38.67 -8.5,66.17 -25.68,82.32 -17.15,16.18 -46.32,24.33 -87.33,24.33l-93 0 0 -237.99 72 0c39,0 67.51,6 85.02,18.17 32.65,22.68 48.99,60.33 48.99,113.17zm27 -321.83c0,51.33 -18.99,87.33 -57.17,108.33 -19.18,10.82 -46.51,16.16 -81.99,16.16l-93.85 0 0 -249.99 97.68 0c40.98,0 71.84,8.01 92.34,24 28.65,22.49 42.99,56.34 42.99,101.5z"
   id="glyph28" />
   <glyph
   unicode="C"
   horiz-adv-x="462"
   d="M441.17 63.99c0,-6.83 -9.33,-17.32 -27.83,-31.65 -39.69,-30.85 -84.85,-46.35 -135.33,-46.35 -73.51,0 -129.52,31.02 -168.17,93.17 -38.5,62.17 -57.85,152.51 -57.85,270.85 0,116.81 19.02,205.16 57.17,264.99 36.17,56.67 90.17,84.99 162,84.99 55.68,0 105.33,-18.66 149.01,-56.01 10.65,-9.17 16.16,-15.83 16.16,-19.98 0,-2.67 -0.66,-5.34 -1.98,-7.84l-29.34 -37.98c-1.35,-2.67 -3.99,-4.02 -7.84,-4.02 -1.98,0 -13.32,8.01 -34.16,24 -30,23.17 -60.33,34.84 -90.99,34.84 -45.69,0 -78.85,-21.83 -99.69,-65.5 -20.83,-43.68 -31.32,-113.17 -31.32,-208.68 0,-203.81 47.17,-305.81 141.33,-305.81 34.51,0 71.84,17.67 111.83,52.98 4.68,3.85 8.17,5.83 10.84,5.83 2.67,0 5.34,-2.34 8.34,-6.83l24.83 -33.17c2.01,-2.01 3,-4.51 3,-7.84z"
   id="glyph29" />
   <glyph
   unicode="D"
   horiz-adv-x="556"
   d="M502.99 354.99c0,-236.67 -93.33,-354.99 -279.99,-354.99l-113.32 0c-9.19,0 -13.68,4.68 -13.68,14.17l0 657.67c0,9.5 4.49,14.15 13.68,14.15l104.15 0c79.68,0 139.18,-13.32 178.35,-39.99 73.82,-50.84 110.81,-147.83 110.81,-291zm-87.99 0c0,129.33 -28.32,209.51 -84.99,240 -25.16,13.35 -62.17,20.01 -111,20.01l-41.01 0 0 -544 50.84 0c39,0 68.5,4.32 88.51,12.99 19.82,8.5 37.65,24.5 53.67,48 29.32,43.16 43.98,117.5 43.98,222.99z"
   id="glyph30" />
   <glyph
   unicode="E"
   horiz-adv-x="462"
   d="M432 679.16c0,-2.34 -0.66,-5.34 -2.01,-9.33l-15.17 -44.01c-2.67,-7.16 -7.65,-10.82 -15.17,-10.82l-221.67 0 0 -225.99 195.83 0c9.52,0 14.17,-4.68 14.17,-14.01l0 -38.5c0,-9 -4.65,-13.49 -14.17,-13.49l-195.83 0 0 -252 238.84 0c9.5,0 14.17,-4.51 14.17,-13.68l0 -43.16c0,-9.5 -4.68,-14.17 -14.17,-14.17l-307.16 0c-9.19,0 -13.68,4.68 -13.68,14.17l0 657.67c0,9.5 4.49,14.15 13.68,14.15l308.15 0c9.33,0 14.17,-2.31 14.17,-6.83z"
   id="glyph31" />
   <glyph
   unicode="F"
   horiz-adv-x="425"
   d="M432 679.18c0,-2.35 -0.34,-4.17 -0.99,-5.36l-0.99 -4 -15.19 -43.99c-2.66,-7.17 -7.65,-10.83 -15.17,-10.83l-221.67 0 0 -233.01 195.84 0c9.5,0 14.17,-4.51 14.17,-13.49l0 -38.49c0,-9.35 -4.68,-14 -14.17,-14l-195.84 0 0 -301.83c0,-9.5 -4.65,-14.17 -14.14,-14.17l-54.17 0c-9.18,0 -13.66,4.68 -13.66,14.17l0 657.66c0,9.5 4.48,14.17 13.66,14.17l308.15 0c9.35,0 14.17,-2.35 14.17,-6.83z"
   id="glyph32" />
   <glyph
   unicode="G"
   horiz-adv-x="537"
   d="M468.99 41.16c0,-7.17 -2.98,-12.16 -8.82,-15.17 -42.35,-26.67 -97.68,-40 -166,-40 -78.35,0 -138.19,30.16 -179.35,90.51 -41.16,60.32 -61.82,148.17 -61.82,263.34 0,117.16 20.83,206.5 62.5,267.99 41.67,61.51 102.16,92.18 181.64,92.18 51.34,0 99.52,-13.69 144,-41.02 13.35,-8.33 20.01,-15 20.01,-19.98 0,-2.18 -0.99,-5.02 -2.83,-8.16l-21 -43c-1.33,-2.52 -3.32,-3.86 -5.98,-3.86 -2.52,0 -13.01,6.01 -31.18,18.17 -31.66,20.49 -65.99,30.84 -103.15,30.84 -53.52,0 -92.69,-22.68 -117.67,-68 -24.86,-45.16 -37.36,-116.5 -37.36,-213.99 0,-105.16 13.01,-181.19 39,-227.85 26.02,-46.83 68.34,-70.16 127.02,-70.16 27.33,0 53.66,6.15 79,18.65l0 206.33 -77.67 0c-9.5,0 -14.17,4.68 -14.17,14.17l0 40.68c0,9.5 4.68,14.14 14.17,14.14l145.98 0c9.18,0 13.66,-4.65 13.66,-14.14l0 -291.68z"
   id="glyph33" />
   <glyph
   unicode="I"
   horiz-adv-x="333"
   d="M310.16 14.34c0,-9.5 -4.82,-14.34 -14.17,-14.34l-258.83 0c-9.5,0 -14.17,4.85 -14.17,14.34l0 37.33c0,9.5 4.68,14.31 14.17,14.31l87.85 0 0 554 -87.85 0c-9.5,0 -14.17,4.68 -14.17,13.83l0 37.84c0,9.5 4.68,14.34 14.17,14.34l258.83 0c9.35,0 14.17,-4.85 14.17,-14.34l0 -37.84c0,-9.16 -4.82,-13.83 -14.17,-13.83l-88.98 0 0 -554 88.98 0c9.35,0 14.17,-4.82 14.17,-14.31l0 -37.33z"
   id="glyph34" />
   <glyph
   unicode="K"
   horiz-adv-x="517"
   d="M503.66 36.99c0,-3.66 -2.15,-7 -6.83,-10.32l-45.84 -31.83c-4,-2.49 -7,-3.86 -9.33,-3.86 -2.83,0 -6.15,2.35 -9.67,6.86l-254.01 327.31 0 -310.99c0,-9.5 -4.65,-14.17 -14.14,-14.17l-54.17 0c-9.18,0 -13.66,4.68 -13.66,14.17l0 657.66c0,9.5 4.48,14.17 13.66,14.17l54.17 0c9.5,0 14.14,-4.68 14.14,-14.17l0 -324.68 256.85 340.01c4,5.16 7.17,7.82 9.84,7.82 2.32,0 5.33,-1.67 9.33,-4.82l36.99 -25c5.19,-3.51 7.85,-7 7.85,-10.18 0,-2.32 -1.67,-5.67 -4.85,-9.84l-235.33 -304.33 240.18 -295.17c3.32,-3.17 4.82,-6.18 4.82,-8.67z"
   id="glyph35" />
   <glyph
   unicode="L"
   horiz-adv-x="444"
   d="M444.66 64.16c0,-0.66 -0.66,-3.66 -2.01,-8.83l-16.16 -43.98c-2.5,-7.51 -7.32,-11.34 -14.5,-11.34l-302.32 0c-9.19,0 -13.68,4.68 -13.68,14.17l0 657.67c0,9.5 4.49,14.15 13.68,14.15l54.17 0c9.5,0 14.15,-4.65 14.15,-14.15l0 -600.83 253.02 0c9.17,0 13.65,-2.34 13.65,-6.85z"
   id="glyph36" />
   <glyph
   unicode="M"
   horiz-adv-x="666"
   d="M593 9.84c0,-6.49 -4.17,-9.84 -12.67,-9.84l-58.17 0c-9.16,0 -13.83,4.34 -14.17,13.15l-15 512.67c0,-5.81 0.99,11.34 2.83,51.34l0.99 20.01c-4.48,-31.18 -11.48,-60.66 -21,-88.33l-117.16 -338c-2.66,-7.17 -7.51,-10.69 -14.66,-10.69l-29.34 0c-7.51,0 -12.5,3.51 -15,10.69l-112.85 338c-8.84,26.33 -15.17,55.81 -18.99,88.33l0 -18.99 1.84 -38.18 0 -18.99 -14.68 -507.85c0,-8.82 -4.34,-13.15 -12.84,-13.15l-54.31 0c-6.35,0 -10.18,0.82 -11.68,2.49 -1.5,1.5 -2.15,4 -2.15,7.34l0 4.34 37.64 658.65c0.68,8.84 5.36,13.18 14.17,13.18l59.16 0c7.51,0 12.5,-3.69 15.02,-11.17l117.84 -344.83c6.83,-19.84 11.65,-40.51 14.14,-61.99 1.33,11.48 5.67,32.14 13.18,61.99l118.83 344.83c2.66,7.48 7.65,11.17 15.17,11.17l63.01 0c8.16,0 12.5,-4.34 13.15,-13.18l37.67 -662.99z"
   id="glyph37" />
   <glyph
   unicode="O"
   horiz-adv-x="556"
   d="M502.99 344.18c0,-238.84 -76.98,-358.18 -230.81,-358.18 -146.84,0 -220.18,117.69 -220.18,352.85 0,240.83 78.17,361.16 234.33,361.16 144.5,0 216.66,-118.65 216.66,-355.82zm-88.98 -7.35c0,109.18 -12.66,188.67 -38.17,238.51 -19.82,38.48 -52.49,57.66 -97.99,57.66 -49.02,0 -83.34,-21 -103.18,-63 -22.49,-47.84 -33.66,-122.84 -33.66,-224.84 0,-103.51 12.99,-181.68 39,-234.5 18.99,-38.5 51.17,-57.66 96.83,-57.66 49.18,0 83.5,21 102.99,63 22.84,48.5 34.18,122.15 34.18,220.82z"
   id="glyph38" />
   <glyph
   unicode="P"
   horiz-adv-x="482"
   d="M466 502c0,-91.82 -33.17,-155.17 -99.66,-189.99 -28.51,-14.67 -67.16,-21.99 -116.5,-21.99l-71.84 0 0 -275.84c0,-9.5 -4.65,-14.17 -14.15,-14.17l-54.17 0c-9.19,0 -13.68,4.68 -13.68,14.17l0 657.67c0,9.5 4.49,14.15 13.68,14.15l153.5 0c59.67,0 102.33,-7.65 127.99,-22.98 49.84,-29.83 74.84,-83.67 74.84,-161.01zm-84 -0.99c0,57.5 -18.66,93.5 -55.82,107.67 -13.68,5.5 -37.18,8.32 -70.35,8.32l-77.84 0 0 -254.98 66 0c43.68,0 75,7.65 94.02,22.98 29.32,23.67 43.98,62.34 43.98,116.01z"
   id="glyph39" />
   <glyph
   unicode="R"
   horiz-adv-x="518"
   d="M504.68 8.5c0,-2.83 -3.86,-5.16 -11.68,-6.83l-61 -11.68 -5.5 0c-4.51,0 -7.99,2.66 -10.66,7.85l-162.17 313.14 -75.68 0 0 -296.81c0,-9.5 -4.65,-14.17 -14.14,-14.17l-54.17 0c-9.18,0 -13.66,4.68 -13.66,14.17l0 657.66c0,9.5 4.48,14.17 13.66,14.17l153.5 0c57,0 99.01,-7 126,-21 49.83,-25.99 74.83,-76 74.83,-150.01 0,-102.16 -43.34,-168.01 -130.17,-197.32l166.99 -297.83c2.52,-5.02 3.86,-8.67 3.86,-11.34zm-124.67 499.66c0,59.02 -21.51,94.68 -64.52,107.01 -11.48,3.17 -30.67,4.82 -57.83,4.82l-79.68 0 0 -245.99 76.85 0c36.17,0 63.5,7.65 82.18,22.82 28.66,23.36 43,60.52 43,111.34z"
   id="glyph40" />
   <glyph
   unicode="S"
   horiz-adv-x="482"
   d="M439 182.34c0,-58.68 -19.32,-106.02 -58.16,-142.18 -38.67,-36.17 -89.34,-54.17 -151.84,-54.17 -37.49,0 -78.33,7.02 -122.5,21 -44.32,14.01 -66.5,27 -66.5,39 0,2.01 0.69,4.68 2.01,8.34l18.99 47.67c1.35,3.33 3.5,5.01 6.85,5.01 3,0 8.65,-2.34 17.15,-6.85 51,-28.16 99.33,-42.17 145.02,-42.17 36.66,0 66.33,10.35 88.49,31.02 22.32,20.67 33.5,48 33.5,81.83 0,30.5 -8.5,56.01 -25.32,76.16 -17.01,20.17 -50.17,44.34 -99.66,72.66 -65.34,37.84 -107.34,67.18 -126,88.35 -26.67,30.33 -40.02,67.32 -40.02,110.84 0,53.15 18.33,96.5 55.02,130.32 36.5,33.83 83.84,50.84 141.83,50.84 33.5,0 69.66,-6.33 108.5,-19.16 39,-12.85 58.49,-24.5 58.49,-35.01 0,-1.84 -0.66,-4.49 -1.98,-7.65l-18 -45.35c-1.68,-3.99 -4.35,-5.83 -7.84,-5.83 -1.32,0 -15.66,6.69 -42.99,20.01 -30.33,14.67 -62.67,21.99 -97.16,21.99 -34.51,0 -61.51,-8.65 -80.84,-26.15 -19.35,-17.34 -29.01,-41.67 -29.01,-73.02 0,-35.65 13.32,-63.99 39.99,-84.83 7.18,-5.67 47.17,-30.5 120.17,-74.84 48.17,-28.49 81,-55.32 98.67,-79.98 22.18,-30.69 33.17,-66.52 33.17,-107.84z"
   id="glyph41" />
   <glyph
   unicode="T"
   horiz-adv-x="407"
   d="M421.99 679.18c0,-3 -0.31,-5.02 -0.99,-6.35l-0.99 -3 -15.17 -43c-2.35,-7.14 -7.17,-10.83 -14.68,-10.83l-144.17 0 0 -601.82c0,-9.5 -4.65,-14.17 -14.14,-14.17l-53.69 0c-9.5,0 -14.14,4.68 -14.14,14.17l0 601.82 -145.84 0c-9.5,0 -14.17,4.51 -14.17,13.66l0 42.18c0,9.5 4.68,14.17 14.17,14.17l390.16 0c9.01,0 13.66,-2.35 13.66,-6.83z"
   id="glyph42" />
   <glyph
   unicode="U"
   horiz-adv-x="591"
   d="M508 184.16c0,-61.49 -16.65,-108.5 -49.82,-141 -39,-38.15 -95.34,-57.17 -169.02,-57.17 -136.82,0 -205.16,66 -205.16,198.17l0 487.68c0,9.5 4.68,14.15 14.17,14.15l53.67 0c9.5,0 14.15,-4.65 14.15,-14.15l0 -485.01c0,-48.5 9.66,-82.98 29.01,-103.32 19.32,-20.34 51.99,-30.5 97.84,-30.5 90.83,0 136.16,44.67 136.16,133.82l0 485.01c0,9.5 4.49,14.15 13.65,14.15l51.69 0c9.17,0 13.65,-4.65 13.65,-14.15l0 -487.68z"
   id="glyph43" />
   <glyph
   unicode="W"
   horiz-adv-x="684"
   d="M663.17 672.01c0,-1.02 -0.33,-2.34 -0.99,-3.83l0 -4.02 -138.19 -652c-1.65,-8.17 -6.66,-12.17 -15.17,-12.17l-66 0c-7.98,0 -12.66,3.99 -13.65,12.17l-86.34 552.83 -103.99 -552.83c-1.35,-8.17 -6.19,-12.17 -14.67,-12.17l-61.02 0c-8.48,0 -13.49,3.99 -15.17,12.17l-124.99 653.84c-0.69,3.66 -1.02,6.17 -1.02,7.82 0,4.02 4.02,6.69 12.17,8.34l51.85 9.83c3.5,0.69 6.33,1.02 8.32,1.02 3.85,0 6.52,-3.85 7.68,-11.67l86.01 -494.34c4.16,-24 7.16,-65.67 8.83,-124.99 1.98,28.65 6,69.33 12.17,121.99l97.16 489.83c1.68,8.17 6.5,12.17 14.67,12.17l53.17 0c8.81,0 13.82,-3.99 15.17,-12.17l81.99 -493.66c3.99,-23.83 7.49,-64.49 10.84,-122.01 0.66,27.69 3.66,68.34 9.33,122.01l91.65 501.17c1.35,7.82 4.35,11.67 8.83,11.67 1.68,0 3.99,-0.33 7.35,-1.02l51.83 -10.65c7.98,-2.01 12.17,-5.17 12.17,-9.33z"
   id="glyph44" />
   <glyph
   unicode="Z"
   horiz-adv-x="443"
   d="M426.83 14.17c0,-9.5 -4.49,-14.17 -13.65,-14.17l-373.02 0c-9.5,0 -14.15,4.68 -14.15,14.17l0 51.66 294 551.15 -263.67 0c-9.5,0 -14.17,2.67 -14.17,7.84 0,0.66 0.33,2.01 0.99,3.99l0.85 2.83 10.32 42.17c1.68,8.17 6.5,12.17 14.67,12.17l333 0c9.5,0 14.17,-4.65 14.17,-14.15l0 -47.84 -295.84 -553 292.84 0c9.17,0 13.65,-4.51 13.65,-13.68l0 -43.16z"
   id="glyph45" />
   <glyph
   unicode="a"
   horiz-adv-x="462"
   d="M405.66 24.66c0,-1.98 -1.32,-3.5 -3.83,-4.82l-43.02 -26.83c-2.65,-2.01 -5.15,-3 -7.82,-3 -12.66,0 -25.35,21 -38.17,63 -42.83,-42 -90.66,-63 -142.99,-63 -40.35,0 -72.52,12.33 -96.17,36.83 -23.83,24.66 -35.67,57.99 -35.67,99.99 0,113.01 87.99,171 264,174l0 33.17c0,32.01 -7.18,54.83 -21.35,68.5 -14.15,13.68 -37.65,20.5 -70.65,20.5 -33.17,0 -72.99,-9.66 -119.17,-29.01 -2.67,-1.16 -4.98,-1.82 -6.83,-1.82 -3.66,0 -6,1.49 -6.83,4.82l-15.17 40.02 -1.02 7.65c0,5.01 8.83,11.34 26.83,18.99 41.34,18.17 85.84,27.35 133.35,27.35 103.82,0 155.84,-46.68 155.84,-140.17l0 -189c0,-55.35 8.81,-99 26.65,-131.34 1.35,-2.17 2.01,-4.16 2.01,-5.83zm-103.65 85.18l0 129c-124.68,-1.02 -187.02,-36.35 -187.02,-106.02 0,-23.5 6.85,-42.5 20.5,-57.33 13.68,-14.83 31.35,-22.32 52.68,-22.32 33.33,0 71.15,18.99 113.84,56.67z"
   id="glyph46" />
   <glyph
   unicode="b"
   horiz-adv-x="500"
   d="M450 272.01c0,-190.68 -60.83,-286.02 -182.67,-286.02 -46.32,0 -89.01,16.35 -128.17,49.18 -12,-30.17 -22.82,-45.17 -32.32,-45.17 -2.01,0 -4.51,0.99 -7.84,3l-42.99 26.83c-2.01,1.82 -3,3.5 -3,4.82 0.33,2.67 1.32,5.01 3,7.35 18.66,24.5 27.99,59.48 27.99,105l0 561.15c0,6.85 3.66,11.01 11.17,12.69l51.66 12.17c0.66,0.66 3,0.99 6.83,0.99 4.18,0 6.33,-3.66 6.33,-11.17l0 -267.99c47.34,32.83 91.84,49.18 133.35,49.18 104.48,0 156.66,-74.01 156.66,-222zm-81.99 -10.68c0,110.5 -29.83,165.66 -89.34,165.66 -32.5,0 -72.17,-16.32 -118.68,-48.83l0 -285.5c29.67,-25.84 64.35,-38.67 104.01,-38.67 69.33,0 104.01,69.17 104.01,207.33z"
   id="glyph47" />
   <glyph
   unicode="c"
   horiz-adv-x="408"
   d="M398.18 430.16l-1.02 -6.33 -21.99 -39c-2.5,-4.65 -5.17,-6.83 -7.84,-6.83 -2.83,0 -5.67,1.16 -8.15,3.83 -40.68,30.17 -75,45.17 -103.02,45.17 -80.84,0 -121.16,-61.98 -121.16,-185.84 0,-124.82 37.16,-187.16 111.33,-187.16 22.16,0 42.99,4.49 62.5,13.68 11.34,5.65 29.83,17.32 55.16,35.32 3,2.01 5.34,3 7.35,3 2.67,0 4.82,-1.98 6.83,-5.83l15.17 -38.15c1.68,-4.18 2.5,-7.51 2.83,-10.18 0,-4.49 -5.34,-10.65 -15.99,-18.5 -42.69,-31.49 -89.34,-47.34 -139.68,-47.34 -59.67,0 -106.16,21.5 -139.49,64.35 -33.33,42.99 -50.01,102.5 -50.01,178.65 0,82.02 18.17,146.67 54.5,194.01 36.17,47.34 85.84,71.01 148.68,71.01 44.15,0 84.99,-13.02 121.99,-39 14.67,-10.51 22.02,-18.69 22.02,-24.85z"
   id="glyph48" />
   <glyph
   unicode="d"
   horiz-adv-x="500"
   d="M448.49 23.67c0,-2.01 -1.82,-3.83 -5.32,-5.83l-45 -24.83c-2.01,-2.01 -4.51,-3 -7.84,-3 -12,0 -23.01,19.98 -33.17,59.84 -56.67,-42.52 -106.32,-63.85 -149.01,-63.85 -49.16,0 -87.5,23.01 -115.32,68.84 -27.83,45.85 -41.83,109.35 -41.83,190.35 0,76.65 15.99,137.32 48.17,181.99 32.01,44.5 75.66,66.85 131.01,66.85 34.49,0 71.15,-10.68 109.82,-32.01l0 236.15c0,6.19 3.33,10.35 10.18,12.69l51.66 12.17c1.32,0.66 3.5,0.99 6.33,0.99 4.49,0 6.83,-3.66 6.83,-11.17l0 -554.82c0,-52.18 8.34,-91.51 25.18,-118.18 5.48,-8.5 8.32,-13.82 8.32,-16.16zm-108.5 87.99l0 283.51c-36.99,21.17 -70.82,31.82 -101.5,31.82 -37.32,0 -64.16,-13.98 -80.65,-41.83 -16.51,-27.83 -24.85,-73.16 -24.85,-136.16 0,-69 7.18,-118.84 21.69,-149.34 14.32,-30.5 38.15,-45.66 71.15,-45.66 35.01,0 73.02,19.16 114.17,57.66z"
   id="glyph49" />
   <glyph
   unicode="e"
   horiz-adv-x="462"
   d="M432 240.99c0,-12 -3.66,-18 -11.17,-18l-287.84 0c5.17,-112.65 49.35,-168.99 132.33,-168.99 35.5,0 74.01,12 115.68,35.83 3.66,2.01 6.99,3 10.32,3 2.34,0 4.51,-1.68 6.85,-5.01l18 -39c1.32,-2.83 1.98,-5.15 1.98,-6.83 0,-7.32 -12,-16.68 -36.17,-27.66 -39.66,-18.83 -80.67,-28.35 -123,-28.35 -63.5,0 -114,22.84 -151.65,68.5 -37.51,45.83 -56.34,107.17 -56.34,184.35 0,78 17.83,139.99 53.5,186.17 35.83,45.99 83.84,69 144.17,69 83.67,0 139.82,-40.02 168.17,-120.19 10.16,-28.32 15.17,-72.5 15.17,-132.83zm-81.99 44.01c-2.34,98.67 -38.01,147.99 -107.34,147.99 -68.84,0 -105.33,-49.32 -109.68,-147.99l217.02 0z"
   id="glyph50" />
   <glyph
   unicode="f"
   horiz-adv-x="295"
   d="M341.67 688.82c0,-0.66 -0.66,-2.48 -2.01,-5.83l-16.49 -40.98c-1.35,-3.83 -3.85,-5.83 -7.35,-5.83 -2.67,0 -5.83,0.99 -9.83,3 -28.84,13.82 -54.5,20.83 -77.01,20.83 -24.99,0 -42.17,-9.83 -51.17,-29.34 -5.83,-11.67 -8.83,-36.17 -8.83,-73.68l0 -76.98 143.84 0c7.51,0 11.34,-2.34 11.34,-6.83 0,-2.67 -0.33,-4.68 -0.99,-6.35l-13.18 -39.99c-1.98,-5.83 -6.33,-8.83 -13.16,-8.83l-127.84 0 0 -405.83c0,-6.17 -0.99,-9.66 -3,-10.68 -1.82,-0.99 -4.49,-1.49 -7.82,-1.49l-53.34 0c-5.01,0 -8.01,0.83 -9.17,2.67 -1.18,1.82 -1.68,5.01 -1.68,9.5l0 405.83 -66.33 0c-5.83,0 -9.17,1.02 -10.16,3 -1.02,1.84 -1.51,4.68 -1.51,8.17l0 38.67c0,6.17 1.35,9.83 3.85,11.17 1.32,0.66 3.99,0.99 7.82,0.99l66.33 0 0 78c0,54.17 8.67,92.67 25.84,115.65 25.16,33.5 62.5,50.34 111.99,50.34 23.34,0 47.5,-3.99 72.5,-12 24.85,-7.84 37.35,-15.66 37.35,-23.17z"
   id="glyph51" />
   <glyph
   unicode="g"
   horiz-adv-x="500"
   d="M447 461.84c0,-2.17 -2.01,-6.5 -5.83,-12.66 -16.84,-26.34 -25.16,-60 -25.16,-101.01l0 -154.32c0,-47.17 1.65,-104.17 4.98,-171 1.35,-26.67 2.01,-45.69 2.01,-57 0,-117.85 -59.17,-176.84 -177.66,-176.84 -53.67,0 -103.68,12.33 -149.84,37.16 -12.17,6.17 -18.17,11.67 -18.17,16.51 0,0.99 0.66,3.5 1.98,7.32l18 40.16c1.02,3.85 3,5.83 5.83,5.83 2.34,0 5.01,-0.99 7.84,-3 47.17,-25.32 90.83,-37.98 131.17,-37.98 43.65,0 73.82,12.17 90.66,36.33 10.16,13.98 15.17,38.34 15.17,72.99 0,6.99 -0.33,24.17 -0.99,51.5l-1.02 52.02c-44.5,-36.52 -90.83,-54.85 -138.99,-54.85 -47.67,0 -85.51,19.84 -113.34,59.5 -27.83,39.83 -41.67,93.83 -41.67,162.17 0,83.01 16.51,147 49.35,192 32.83,44.83 79.49,67.35 140.15,67.35 40.68,0 80.84,-14.01 120.52,-41.83 12.17,30.5 21.5,45.83 28.32,45.83 3,0 5.5,-0.66 7.84,-2.01l45.99 -28.32c1.84,-0.85 2.83,-2.83 2.83,-5.83zm-105.99 -332.01l0 269.84c-37.02,18.83 -68.01,28.35 -93.36,28.35 -75.83,0 -113.65,-58.02 -113.65,-174.17 0,-60.85 6.99,-104.84 20.83,-132 13.98,-27.17 36.66,-40.84 68.15,-40.84 33.66,0 73.02,16.32 118.02,48.83z"
   id="glyph52" />
   <glyph
   unicode="h"
   horiz-adv-x="519"
   d="M436 12.17c0,-6.17 -0.99,-9.66 -3,-10.68 -1.82,-0.99 -4.65,-1.49 -8.17,-1.49l-52.65 0c-4.84,0 -8.01,0.83 -9.17,2.67 -1.35,1.82 -2.01,5.01 -2.01,9.5l0 332.18c0,31.16 -4.98,52.82 -14.83,65.15 -9.99,12.33 -27.99,18.52 -54.17,18.52 -36.83,0 -80.84,-21 -132,-62.84l0 -353.01c0,-6.17 -1.32,-9.83 -3.83,-11.17 -1.32,-0.66 -3.83,-0.99 -7.32,-0.99l-52.68 0c-4.84,0 -8.01,0.83 -9.17,2.67 -1.32,1.82 -2.01,5.01 -2.01,9.5l0 685.99c0,6.19 3.33,10.35 10.18,12.69l51.66 12.17c0.66,0.66 3,0.99 6.83,0.99 4.18,0 6.33,-3.66 6.33,-11.17l0 -284.65c48.5,43.82 100.18,65.84 154.84,65.84 53.5,0 89.5,-19.51 108.5,-58.51 8.5,-18 12.66,-48.83 12.66,-92.84l0 -330.5z"
   id="glyph53" />
   <glyph
   unicode="i"
   horiz-adv-x="258"
   d="M191.01 658.16c0,-16.82 -5.83,-31.32 -17.5,-43.32 -11.83,-11.83 -26.01,-17.83 -42.5,-17.83 -17.01,0 -31.35,5.83 -43.18,17.67 -11.83,11.67 -17.83,26.32 -17.83,43.49 0,16.68 6,30.83 18,42.5 12.17,11.5 26.67,17.34 44.01,17.34 16.16,0 30.17,-5.83 41.67,-17.67 11.5,-11.67 17.34,-25.82 17.34,-42.17zm-15 -646c0,-6.17 -0.85,-9.66 -2.67,-10.68 -1.84,-0.99 -4.51,-1.49 -8.17,-1.49l-53.34 0c-4.98,0 -7.98,0.83 -9.17,2.67 -1.16,1.82 -1.65,5.01 -1.65,9.5l0 405.83 -79.84 0c-5.83,0 -9.33,1.02 -10.49,3 -1.18,1.84 -1.68,4.68 -1.68,8.17l0 38.67c0,6.17 1.32,9.83 3.83,11.17 1.68,0.66 4.51,0.99 8.34,0.99l144.17 0c4.84,0 7.84,-0.83 9,-2.67 1.16,-1.84 1.68,-5.01 1.68,-9.5l0 -455.67z"
   id="glyph54" />
   <glyph
   unicode="k"
   horiz-adv-x="443"
   d="M429.17 36c0,-2.01 -1.68,-4.84 -5.34,-8.34l-41.01 -30.83c-3.33,-2.5 -5.81,-3.83 -7.82,-3.83 -1.35,0 -3.33,1.32 -5.83,3.83l-209.17 250.16 0 -234.83c0,-6.17 -1.32,-9.83 -3.83,-11.17 -1.32,-0.66 -3.83,-0.99 -7.32,-0.99l-52.68 0c-4.84,0 -8.01,0.83 -9.17,2.67 -1.32,1.82 -2.01,5.01 -2.01,9.5l0 685.99c0,6.19 3.33,10.35 10.18,12.69l51.66 12.17 6.83 0.99c4.18,0 6.33,-3.66 6.33,-11.17l0 -452.98 200.84 225.83c3.5,4.16 6.99,6.33 10.35,6.33 2.48,0 5.48,-1.51 8.65,-4.35l38.17 -24.99c3.33,-3.17 4.84,-6.17 4.84,-8.67 0,-2.67 -1.51,-5.83 -4.84,-9.33l-170.84 -186 178.68 -214.82c2.34,-2.01 3.33,-4.68 3.33,-7.84z"
   id="glyph55" />
   <glyph
   unicode="l"
   horiz-adv-x="258"
   d="M272.84 14.01c0,-5.17 -9.5,-10.51 -28.68,-16.02 -19.32,-5.32 -37.98,-7.98 -56.15,-7.98 -58.02,0 -92.01,23.32 -102.17,69.83 -3.17,15.33 -4.84,56.34 -4.84,123l0 516.33c0,6.83 3.66,10.65 10.84,11.67l51.5 12.17c0.5,0.66 2.83,0.99 6.83,0.99 3.83,0 5.83,-3.66 5.83,-11.17l0 -530.48c0,-51.85 0.83,-82.51 2.5,-92.34 3.17,-25.32 16.82,-38.01 40.82,-38.01 14.01,0 29.01,4.02 44.83,12 3.85,1.35 6.5,2.01 7.84,2.01 2.17,0 4.49,-2.34 6.83,-6.99l12.17 -37.18c1.18,-4.16 1.84,-6.83 1.84,-7.82z"
   id="glyph56" />
   <glyph
   unicode="m"
   horiz-adv-x="722"
   d="M640.99 12.17c0,-6.17 -0.99,-9.66 -3.17,-10.68 -2.15,-0.99 -5.15,-1.49 -9,-1.49l-50.65 0c-6.19,0 -9.85,1.32 -11.17,3.83 -0.66,1.68 -1.02,4.51 -1.02,8.34l0 342.83c0,48.66 -21.33,73.02 -63.99,73.02 -28.32,0 -62.34,-13.35 -102,-40.02l0 -375.83c0,-6.17 -0.99,-9.66 -3,-10.68 -1.82,-0.99 -4.49,-1.49 -7.82,-1.49l-52.35 0c-4.98,0 -7.98,0.83 -9.17,2.67 -1.16,1.82 -1.65,5.01 -1.65,9.5l0 341.84c0,49.32 -21.35,74.01 -64.02,74.01 -29.83,0 -63.17,-14.34 -99.99,-42.85l0 -373c0,-6.17 -0.99,-9.66 -3.17,-10.68 -2.17,-0.99 -5.17,-1.49 -9,-1.49l-50.67 0c-6.17,0 -9.66,1.32 -10.68,3.83 -0.99,1.68 -1.49,4.51 -1.49,8.34l0 358.85c0,27.99 -6,55.98 -18,83.81 -0.66,0.69 -0.99,2.34 -0.99,5.01 0,2.83 1.65,4.84 4.82,5.83l40.02 22.84c3.66,2.31 6.66,3.5 9.33,3.5 10.16,0 19.65,-18.99 28.82,-57 50.34,39.33 97.18,59.01 140.01,59.01 46.49,0 78.17,-19.68 94.65,-59.01 55.35,39.33 104.01,59.01 146.01,59.01 43.68,0 74.01,-14.67 91.32,-44.01 12,-20.5 18,-52.84 18,-96.99l0 -340.85z"
   id="glyph57" />
   <glyph
   unicode="n"
   horiz-adv-x="519"
   d="M437.01 12.17c0,-6.17 -1.02,-9.66 -3,-10.68 -1.84,-0.99 -4.68,-1.49 -8.17,-1.49l-52.68 0c-4.82,0 -7.98,0.83 -9.17,2.67 -1.32,1.82 -1.98,5.01 -1.98,9.5l0 333c0,55.16 -22.02,82.84 -66,82.84 -42.35,0 -86.34,-21 -132,-62.84l0 -353.01c0,-6.17 -1.02,-9.66 -3,-10.68 -1.84,-0.99 -4.68,-1.49 -8.17,-1.49l-52.68 0c-4.82,0 -7.98,0.83 -9.17,2.67 -1.32,1.82 -1.98,5.01 -1.98,9.5l0 342.66c0,36.5 -6.33,68.5 -19.02,96.17 -0.99,2.67 -1.65,4.51 -1.98,5.83 0,3 1.65,4.84 4.82,5.83l45.5 25.84c3.17,2.31 5.83,3.5 7.68,3.5 12.83,0 23.01,-21.99 30.83,-66.17 56.67,45.5 110.34,68.17 161.01,68.17 49.49,0 83.5,-16.18 102.17,-48.35 11.34,-19.16 17.01,-52.65 17.01,-100.49l0 -333z"
   id="glyph58" />
   <glyph
   unicode="o"
   horiz-adv-x="500"
   d="M450 243.17c0,-81 -18.17,-144.17 -54.33,-189.33 -36.17,-45.17 -86.5,-67.84 -151.02,-67.84 -61.32,0 -108.83,22.18 -142.82,66.33 -33.83,44.34 -50.84,106.18 -50.84,185.51 0,81 18.17,144 54.33,188.84 36.17,44.83 86.5,67.35 150.99,67.35 60.69,0 108.17,-22.18 142.35,-66.69 34.16,-44.32 51.33,-105.83 51.33,-184.16zm-81.99 0.99c0,124.51 -39.52,186.85 -118.51,186.85 -77.67,0 -116.5,-61.02 -116.5,-183 0,-68.84 10.35,-120.69 31.02,-155.17 17.48,-29.17 46.65,-43.84 87.5,-43.84 39.17,0 67.32,14.01 84.5,42 21.33,34.51 32.01,85.51 32.01,153.17z"
   id="glyph59" />
   <glyph
   unicode="p"
   horiz-adv-x="500"
   d="M450 249.99c0,-81.99 -14.83,-146.51 -44.5,-193.49 -29.83,-47.01 -70.32,-70.51 -122.01,-70.51 -37.49,0 -76.98,14.67 -118.49,43.84l0 -213.99c0,-7.18 -3,-11.34 -9.17,-12.69l-52.68 -14.15c-2.31,-0.66 -4.16,-1.02 -5.83,-1.02 -4.82,0 -7.32,3.52 -7.32,10.68l0 543c0,43.65 -6.66,75.99 -20.17,97.16 -6.5,10.84 -9.83,17.17 -9.83,19.18 0,2.15 0.99,3.83 3,4.82l42.99 30.17c2.01,2.01 4.51,3 7.84,3 10.84,0 23.17,-19.98 37.16,-60 50.5,38.67 98.67,58.02 144.33,58.02 58.18,0 98.5,-23.17 121.35,-69.35 22.16,-44.15 33.33,-102.5 33.33,-174.66zm-81.99 -1.98c0,57.17 -5.01,99.5 -15.19,127.16 -12.33,34.49 -36.33,51.83 -72.17,51.83 -29.65,0 -68.15,-16.32 -115.65,-48.83l0 -282.17c41.67,-27.99 78,-42 108.83,-42 34.18,0 58.35,14.83 72.66,44.5 14.34,29.67 21.52,79.49 21.52,149.51z"
   id="glyph60" />
   <glyph
   unicode="r"
   horiz-adv-x="333"
   d="M333.17 478c0,-1.65 -0.66,-3.99 -2.01,-6.83l-24 -56.17c-0.99,-1.82 -2.67,-2.83 -5.32,-2.83 -0.35,0 -5.83,1.68 -16.68,4.84 -6.83,1.32 -12.5,2.01 -17.01,2.01 -22.16,0 -55.16,-25.35 -99.17,-76.18l0 -330.66c0,-6.17 -0.99,-9.66 -3,-10.68 -1.82,-0.99 -4.49,-1.49 -7.82,-1.49l-53.34 0c-5.01,0 -8.01,0.83 -9.17,2.67 -1.18,1.82 -1.68,5.01 -1.68,9.5l0 299.84c0,34.65 -0.83,57.5 -2.31,68.34 -3,22.65 -10.18,44.48 -21.85,65.32 -2.5,4.84 -3.83,8.34 -3.83,10.35 0,3.83 1.68,6.83 4.84,8.67l42 26.34c3.33,1.98 6,3 8.32,3 5.83,0 12.85,-8.67 20.83,-26.01 7.84,-17.5 13.68,-36.33 17.34,-56.84 31.16,35.01 54.33,57.66 69.5,67.65 15.17,10.18 33.33,15.19 54.5,15.19 11.34,0 22.51,-1.84 33.33,-5.34 11.01,-3.66 16.51,-7.18 16.51,-10.68z"
   id="glyph61" />
   <glyph
   unicode="s"
   horiz-adv-x="389"
   d="M348.99 128.01c0,-42.33 -14.67,-76.51 -43.98,-102.69 -29.17,-26.15 -67.68,-39.33 -115.18,-39.33 -54.33,0 -103.65,13.02 -147.99,39 -3.83,2.34 -5.83,5.34 -5.83,9.33 0,0.85 0.33,2.17 0.99,3.85l19.02 43.82c0.99,2.67 3,4.02 5.83,4.02 1.32,0 3.99,-0.69 7.82,-2.01 45.66,-22.68 86.34,-33.99 122.17,-33.99 24.17,0 43.49,6.66 58.16,19.98 14.67,13.35 22.02,30.85 22.02,52.18 0,30.99 -21.35,56.32 -64.02,76.16 -55.82,25.68 -93.17,46.16 -111.66,61.51 -30.83,25.32 -46.32,57 -46.32,95.15 0,40.68 14.15,74.01 42.66,100.02 28.49,25.98 65.01,39 109.49,39 26.01,0 54,-4.84 83.84,-14.67 30,-9.69 45,-18.85 45,-27.33 0,-1.84 -0.66,-4.35 -1.98,-7.18l-18 -36.66c-2.5,-4.16 -5.67,-6.33 -9.17,-6.33 0,0 -2.67,0.66 -7.84,1.98 -36.33,17.5 -67.35,26.17 -93.17,26.17 -50.5,0 -75.83,-22.49 -75.83,-67.32 0,-20.17 6.66,-36.5 19.98,-48.83 9,-8.34 43.84,-27.52 104.34,-57 36.99,-18 62.84,-36.35 77.5,-55.51 14.83,-18.99 22.16,-43.49 22.16,-73.32z"
   id="glyph62" />
   <glyph
   unicode="t"
   horiz-adv-x="333"
   d="M342.99 29.67c0,-7.84 -15.17,-16.35 -45.66,-25.68 -30.5,-9.33 -58.49,-13.98 -84.33,-13.98 -62.5,0 -101.01,24.33 -115.68,72.83 -4.16,13.65 -6.33,38.01 -6.33,73.32l0 281.84 -70.82 0c-8.17,0 -12.17,3.66 -12.17,11.17l0 38.67c0,6.17 1.32,9.83 3.83,11.17 1.65,0.66 4.49,0.99 8.34,0.99l70.82 0 0 137.17c0,6.83 3.33,11.15 10.18,12.66l51.66 14.15c3.66,1.35 5.67,2.01 6.33,2.01 4.51,0 6.83,-3.99 6.83,-12.17l0 -153.83 150.17 0c6.17,0 9.17,-2.34 9.17,-6.83 0,-1.68 -0.33,-3.69 -0.99,-6.35l-11.17 -38.48c-1.98,-6.85 -6.66,-10.35 -14.15,-10.35l-133.02 0 0 -281.15c0,-31.84 3.33,-52.18 9.85,-60.85 10.32,-13.32 27.17,-19.98 50.32,-19.98 20.83,0 50.84,7.98 89.84,24.17 3.33,1.16 5.83,1.82 7.51,1.82 3.5,0 5.83,-1.98 6.83,-5.83l10.68 -41.15c1.32,-2.83 1.98,-4.68 1.98,-5.34z"
   id="glyph63" />
   <glyph
   unicode="u"
   horiz-adv-x="500"
   d="M451 23.01c-0.66,-0.85 -2.17,-2.5 -4.49,-4.84l-44.83 -29.17c-3,-1.98 -5.34,-3 -6.85,-3 -10.82,0 -22.49,20.01 -35.15,59.84 -51.83,-39.83 -101.84,-59.84 -150,-59.84 -91.18,0 -136.68,44.67 -136.68,134.17l0 344.51c0,6.83 3.33,11.34 9.85,13.16l51.99 14.17c2.5,0.66 4.65,0.99 6.33,0.99 4.51,0 6.83,-3.66 6.83,-11.17l0 -312.17c0,-43.82 5.17,-74.15 15.69,-90.83 10.32,-16.49 29.15,-24.83 56.48,-24.83 43.51,0 85.51,17.01 125.84,50.84l0 359.84c0,7.16 3.17,11.5 9.66,13.16l52.84 14.17c2.17,0.66 4.16,0.99 5.67,0.99 4.49,0 6.83,-3.66 6.83,-11.17l0 -348.99c0,-43.16 9,-77.5 27,-102.83 2.01,-2.67 3,-5.01 3,-6.99z"
   id="glyph64" />
   <glyph
   unicode="v"
   horiz-adv-x="425"
   d="M423 466.66c0,-1.32 -0.66,-3.66 -2.01,-6.83l-182.15 -457.99c-2.17,-5.83 -6.52,-8.83 -12.69,-8.83l-38.15 0c-6.52,0 -10.84,3 -13.18,8.83l-168.83 460.82c-1.32,2.67 -2.01,4.68 -2.01,6.33 0,3.83 3.5,6.5 10.35,7.84l58.98 13.16 3 0c3.17,0 5.83,-3.17 7.68,-9.33l107.01 -326.84c1.98,-4.32 4.32,-11.34 7.32,-21l11.67 -42c5.34,20.5 11.67,41.01 19.16,61.84l119.17 328.16c1.84,6.17 4.49,9.17 7.68,9.17 1.32,0 3.33,-0.33 6,-0.99l52.16 -14.17c5.83,-1.49 8.83,-4.32 8.83,-8.17z"
   id="glyph65" />
   <glyph
   unicode="w"
   horiz-adv-x="610"
   d="M600.17 469.49c0,-1.32 -0.33,-2.83 -0.99,-4.49l-1.02 -2.83 -132.33 -459.33c-1.82,-6.5 -5.83,-9.83 -11.67,-9.83l-39 0c-6.17,0 -10.32,3.33 -12.33,9.83l-78.5 303.33c-3.33,11.67 -6,26.01 -8.34,42.99l-1.98 14.67 -2.83 21c-3.33,-30 -8.34,-55.82 -15.17,-77.67l-93.85 -305.32c-1.82,-5.83 -6.33,-8.83 -13.16,-8.83l-36.99 0c-6.17,0 -10.18,3.33 -11.83,9.83l-115.18 458.84c-0.66,2.67 -0.99,4.49 -0.99,5.83 0,4.65 3.17,7.32 9.33,8.32l50.67 12.69c2.67,0.99 4.68,1.49 6,1.49 3.83,0 6.66,-3.33 8.17,-10.16l70.82 -347.01c0.66,-2.67 3,-15.5 6.85,-38.67 0.99,6 5.32,24.17 13.16,54.85l95.34 324.17c1.49,5.83 5.5,8.83 11.67,8.83l39.99 0c6.5,0 10.65,-3 12.17,-8.83l89.01 -376.02 2.83 13.68 4.82 25.49 84.99 343.85c1.68,5.83 4.51,8.83 8.34,8.83 1.68,0 3.5,-0.33 5.83,-0.99l45.99 -10.68c6.85,-1.68 10.18,-4.32 10.18,-7.84z"
   id="glyph66" />
   <glyph
   unicode="y"
   horiz-adv-x="425"
   d="M421.68 460.17c0,-1.67 -0.34,-3.51 -0.85,-5.84l-113.84 -392.68c-26.33,-90.14 -48.33,-153.98 -65.99,-191.65 -25.99,-54.68 -66.33,-82.01 -121.01,-82.01 -24.15,0 -51.17,6.01 -80.99,18.17 -29.99,11.99 -45.01,22.82 -45.01,32.65 0.34,3.34 1.02,5.36 2.01,6.35l19.98 39.66c1.02,3.51 3.17,5.33 6.86,5.33 2.32,-0.31 4.48,-1.33 6.83,-3 34.81,-24.15 64.32,-36.14 88.33,-36.14 32.17,0 57.83,28.66 76.65,85.97l21 63.01 -40 0c-5.84,0 -9.84,3 -11.65,8.84l-157.35 444.5c-1.33,2.66 -1.98,4.82 -1.98,6.83 0,3.32 3.15,5.84 9.33,7.82l53.66 18.99 8.33 1.02c2.32,0 4.51,-3 6.83,-8.84l128.01 -378c5.16,-15 11.82,-39.17 19.98,-72.34 3.17,15.34 9.01,38.66 17.01,70.19l98.16 381.14c2.66,5.19 5.84,7.85 9.84,7.85 0.34,0 2.01,-0.34 4.85,-1.02l52.33 -18.48c5.84,-2.35 8.67,-5.02 8.67,-8.33z"
   id="glyph67" />
   <glyph
   unicode="z"
   horiz-adv-x="407"
   d="M389.85 60.01c0,-2.35 -0.51,-5.02 -1.84,-8.33l-19.16 -42.66c-1.84,-6.01 -6.35,-9.01 -13.18,-9.01l-312.01 0c-7.82,0 -11.65,4 -11.65,12.16l0 39.68 252.99 365.16 -221.33 0c-7.17,0 -10.66,3.66 -10.66,11.17l0 41.16c0,7.17 3.49,10.66 10.66,10.66l304.33 0c4.85,0 7.85,-0.82 9.01,-2.49 1.16,-1.5 1.67,-4.34 1.67,-8.16l0 -42.49 -249.02 -360.85 249.02 0c4.82,0 7.99,-0.31 9.33,-1.16 1.33,-0.82 1.84,-2.49 1.84,-4.82z"
   id="glyph68" />
   <glyph
   unicode="ö"
   horiz-adv-x="500"
   d="M402.01 629.83c0,-14.31 -5.19,-26.65 -15.51,-36.99 -10.49,-10.49 -23.16,-15.68 -38.15,-15.68 -14.68,0 -27.18,5.19 -37.5,15.68 -10.52,10.35 -15.68,22.99 -15.68,38.01 0,14.66 5.33,27.16 15.82,37.47 10.69,10.52 23.36,15.68 38.35,15.68 14.31,0 26.67,-5.33 37.16,-15.82 10.32,-10.69 15.51,-23.36 15.51,-38.35zm-196.67 0c0,-14.31 -5.19,-26.65 -15.68,-36.99 -10.32,-10.49 -22.99,-15.68 -37.67,-15.68 -14.83,0 -27.67,5.19 -37.98,15.68 -10.52,10.35 -15.68,22.99 -15.68,38.01 0,14.66 5.16,27.16 15.68,37.47 10.32,10.52 23.16,15.68 37.98,15.68 14.68,0 27.35,-5.33 37.67,-15.82 10.49,-10.69 15.68,-23.36 15.68,-38.35zm244.66 -386.67c0,-80.99 -18.17,-144.14 -54.34,-189.32 -36.17,-45.16 -86.48,-67.83 -151,-67.83 -61.31,0 -108.82,22.17 -142.84,66.33 -33.82,44.33 -50.82,106.19 -50.82,185.5 0,81.01 18.17,144 54.34,188.84 36.17,44.84 86.48,67.32 151,67.32 60.66,0 108.17,-22.17 142.33,-66.67 34.16,-44.33 51.34,-105.82 51.34,-184.17zm-82.01 1.02c0,124.5 -39.49,186.83 -118.49,186.83 -77.67,0 -116.5,-61 -116.5,-183 0,-68.82 10.35,-120.67 31.01,-155.17 17.49,-29.17 46.66,-43.82 87.48,-43.82 39.17,0 67.35,14 84.5,41.98 21.34,34.5 32,85.52 32,153.18z"
   id="glyph69" />
   <glyph
   unicode="ü"
   horiz-adv-x="500"
   d="M413.83 629.83c0,-14.31 -5.33,-26.65 -15.82,-36.99 -10.69,-10.49 -23.36,-15.68 -38.35,-15.68 -14.31,0 -26.65,5.19 -37.16,15.68 -10.32,10.35 -15.68,22.99 -15.68,38.01 0,14.66 5.36,27.16 15.68,37.47 10.52,10.52 23.16,15.68 38.18,15.68 14.48,0 27.16,-5.33 37.5,-15.82 10.49,-10.69 15.65,-23.36 15.65,-38.35zm-197.32 0c0,-14.31 -5.19,-26.65 -15.51,-36.99 -10.52,-10.49 -22.85,-15.68 -37.16,-15.68 -15,0 -27.84,5.19 -38.35,15.68 -10.66,10.35 -15.82,22.99 -15.82,38.01 0,14.66 5.16,27.16 15.82,37.47 10.52,10.52 23.36,15.68 38.35,15.68 14.66,0 26.99,-5.33 37.33,-15.82 10.32,-10.69 15.34,-23.36 15.34,-38.35zm234.48 -606.84c-0.65,-0.82 -2.15,-2.49 -4.48,-4.82l-44.84 -29.17c-3,-2.01 -5.33,-3 -6.83,-3 -10.83,0 -22.51,20.01 -35.18,59.84 -51.82,-39.83 -101.82,-59.84 -149.98,-59.84 -91.19,0 -136.69,44.67 -136.69,134.16l0 344.52c0,6.83 3.34,11.31 9.84,13.15l52.02 14.17c2.49,0.65 4.65,0.99 6.32,0.99 4.51,0 6.83,-3.66 6.83,-11.17l0 -312.15c0,-43.85 5.16,-74.18 15.68,-90.85 10.32,-16.5 29.17,-24.83 56.49,-24.83 43.51,0 85.49,17.01 125.83,50.82l0 359.86c0,7.14 3.17,11.48 9.67,13.15l52.84 14.17c2.15,0.65 4.17,0.99 5.67,0.99 4.51,0 6.83,-3.66 6.83,-11.17l0 -349c0,-43.17 9.01,-77.5 27.01,-102.84 1.98,-2.66 2.98,-4.99 2.98,-7z"
   id="glyph70" />
  </font>
  <font
   id="FontID0"
   horiz-adv-x="556"
   font-variant="normal"
   style="fill-rule:nonzero"
   font-style="normal"
   font-weight="700">
	<font-face
   font-family="Officina Sans OS ITC TT"
   id="font-face70">
		<font-face-src>
			<font-face-name
   name="Officina Sans OS ITC TT Fett" />
		</font-face-src>
	</font-face>
   <missing-glyph
   id="missing-glyph70"><path
     d="M0 0z"
     id="path70" /></missing-glyph>
   <glyph
   unicode="1"
   horiz-adv-x="537"
   d="M460 21c0,-9.33 -1.16,-15.33 -3.33,-17.5 -2.34,-2.34 -8.17,-3.5 -17.67,-3.5l-292.99 0c-9,0 -14.83,1.16 -17.34,3.5 -2.34,2.17 -3.66,8.17 -3.66,17.5l0 51c0,12 3.17,18.66 9.33,20.01 2.5,0.66 6.5,0.99 11.67,0.99l94.98 0 0 348 -79.98 -44.5c-5.17,-3 -8.83,-4.32 -11.17,-4.32 -4.16,0 -8.67,4.16 -13.68,12.66l-26.32 45.33c-2.5,4.49 -3.85,8.83 -3.85,12.66 0,5.5 3.85,10.84 11.34,16.18l159.99 115.99 69.69 0c11.65,0 18.33,-3 19.98,-8.83 0.66,-2.5 1.02,-6.33 1.02,-11.17l0 -481.99 71.15 0c11.67,0 18.33,-3 19.84,-8.83 0.66,-2.5 0.99,-6.66 0.99,-12.17l0 -51z"
   id="glyph71" />
   <glyph
   unicode="2"
   horiz-adv-x="537"
   d="M471 435.33c0,-47.01 -13.35,-87 -39.99,-120.17 -12.35,-15 -24.69,-27.17 -37.02,-36.66 -12.33,-9.5 -39.99,-27.17 -82.98,-53.17 -40.68,-24.83 -67.18,-44.34 -79.68,-58.65 -12.66,-14.34 -19.68,-32.5 -21.33,-54.69l234 0c12,0 18.66,-3 20.01,-8.83 0.66,-2.48 0.99,-6.66 0.99,-12.17l0 -69.99c0,-11.67 -3,-18.33 -8.83,-20.01 -2.67,-0.66 -6.66,-0.99 -12.17,-0.99l-360 0c-9.33,0 -14.17,4.68 -14.17,14.17l0 7.82c0,62.84 9.17,111.17 27.33,145.02 25.51,47.84 75.33,95.15 149.84,142.16 45,28.32 72,47.67 81,57.99 14.67,17.01 22.02,37.35 22.02,61.18 0,49.82 -28.02,74.65 -84,74.65 -41.5,0 -74.34,-28.65 -98.01,-85.98 -4.16,-10.18 -9.33,-15.17 -15.17,-15.17 -2.01,0 -5.5,0.99 -10.68,3l-63.99 24.33c-8.17,3 -12.17,7.84 -12.17,14.67 0,11.5 5.5,27.99 16.68,49.65 10.98,21.69 23.15,40.18 36.5,55.51 37.82,43.32 91.32,64.98 160.49,64.98 57.66,0 103.84,-16.32 138.83,-48.83 35.01,-32.5 52.51,-75.83 52.51,-129.83z"
   id="glyph72" />
   <glyph
   unicode="3"
   horiz-adv-x="537"
   d="M465 117.17c0,-62.5 -23.67,-113.67 -70.84,-153.33 -42.33,-35.17 -94.98,-52.84 -158.15,-52.84 -57.69,0 -111.17,11.01 -160.68,32.67 -19.49,8.83 -29.34,16.18 -29.34,22.02 0,1.98 0.69,5.48 2.01,10.32l20.01 71.84c1.65,6.17 5.32,9.33 11.15,9.33 2.34,0 5.5,-0.99 9.85,-3 51,-24.83 96.5,-37.16 136.16,-37.16 73.84,0 110.84,35.67 110.84,106.99 0,66.66 -42,100.02 -126,100.02l-29.67 0c-12.17,0 -18.83,3 -20.01,8.83 -0.66,2.48 -0.99,6.66 -0.99,12.17l0 66c0,11.65 2.83,18.33 8.67,19.98 2.67,0.66 6.83,1.02 12.33,1.02l31.68 0c33.33,0 57.66,5.65 73.32,17.15 23.17,17.17 34.68,42.85 34.68,76.68 0,25.16 -7.51,45.33 -22.51,60.5 -15,15.17 -34.84,22.65 -59.5,22.65 -32.34,0 -62.15,-16.98 -90,-50.98 -5.5,-6.52 -9.83,-9.69 -13.16,-9.69 -1.84,0 -4.84,1.18 -8.67,3.85l-55.32 49.82c-3.17,3 -4.84,6.33 -4.84,10.35 0,7.16 6.99,18.33 21,33.66 41.01,45.33 93.83,67.98 158.17,67.98 58.98,0 106.49,-16.32 142.65,-49.16 36.17,-32.67 54.17,-75.5 54.17,-128.67 0,-68.67 -31.49,-118.32 -94.65,-148.99 78.5,-25.35 117.66,-82.02 117.66,-170.01z"
   id="glyph73" />
   <glyph
   unicode="4"
   horiz-adv-x="537"
   d="M500.34 63.99c0,-11.67 -3.17,-18.33 -9.33,-19.98 -2.67,-0.69 -6.52,-1.02 -11.83,-1.02l-57.17 0 0 -129c0,-9.5 -1.18,-15.33 -3.35,-17.48 -2.31,-2.34 -8.15,-3.52 -17.65,-3.52l-83.01 0c-11.67,0 -18.33,3.17 -20.01,9.33 -0.66,2.5 -0.99,6.52 -0.99,11.67l0 129 -245.01 0c-9.5,0 -15.33,1.02 -17.67,3.17 -2.15,2.17 -3.33,7.68 -3.33,16.84l0 105 249 416.84c5.17,8.83 10.02,13.16 14.17,13.16 2.67,0 6.99,-1.32 13.16,-3.83l60.17 -26.5c9.69,-4.16 14.5,-8.34 14.5,-12.66 0,-3.17 -1.82,-8.34 -5.83,-15.17l-232.82 -395.84 155.67 0 12.99 161.17c0.66,8.83 2.17,14.32 4.65,16.65 2.5,2.17 7.84,3.33 16.35,3.33l68.01 0c12,0 18.66,-3 19.98,-9.17 0.66,-2.67 1.02,-6.66 1.02,-11.83l0 -163.16 57.17 0c9.5,0 15.33,-1.32 17.65,-3.83 2.34,-2.67 3.52,-9.33 3.52,-20.01l0 -53.17z"
   id="glyph74" />
   <glyph
   unicode="5"
   horiz-adv-x="537"
   d="M486 154.84c0,-73.35 -23.83,-132.36 -71.34,-176.84 -47.5,-44.67 -110.34,-67.02 -188.51,-67.02 -51.17,0 -100.16,9 -147.17,26.83 -12,4.68 -18,11.01 -18,19.18 0,3.83 0.33,7.49 1.02,10.65l14.15 73.35c1.02,5.83 3.85,8.83 8.83,8.83 1.84,0 4.51,-0.69 7.68,-2.01 45.99,-17.83 88.32,-26.83 127.49,-26.83 44.83,0 80.84,12 108,36.17 27.17,24.17 40.84,56.01 40.84,95.84 0,70.65 -33.33,105.99 -99.99,105.99 -41.01,0 -74.34,-15.33 -100.18,-45.99 -4.82,-6 -9.5,-8.83 -14.15,-8.83 0,0 -3.19,0.99 -9.69,2.83l-60 18.17c-10.82,3.17 -16.16,7.68 -16.16,13.68 0,3.5 0.33,6.99 0.99,10.16l31.18 328.99c0.66,8.5 2.15,13.68 4.49,15.85 2.17,2.15 7.84,3.17 16.51,3.17l292.99 0c11.67,0 18.33,-3 20.01,-9.17 0.66,-2.67 0.99,-6.5 0.99,-11.83l0 -67.02c0,-8.48 -1.16,-13.98 -3.66,-16.32 -2.5,-2.5 -8.17,-3.66 -17.34,-3.66l-205.99 0 -18.17 -156c28.65,19.32 63.17,29.01 103.16,29.01 56.67,0 102.83,-19.18 138.5,-57.35 35.67,-38.32 53.5,-88.32 53.5,-149.81z"
   id="glyph75" />
   <glyph
   unicode="6"
   horiz-adv-x="537"
   d="M488.01 234.99c0,-85.65 -23.34,-150.83 -69.85,-195.83 -38.83,-37.49 -87.5,-56.17 -146.15,-56.17 -69,0 -121.84,25.35 -158.34,75.85 -36.5,50.65 -54.66,123.66 -54.66,219 0,123.99 26.67,222.99 79.82,297.14 53.17,74.01 124.68,111 214.18,111 25.65,0 49.49,-3.5 71.15,-10.49 21.85,-6.99 32.83,-14.5 32.83,-22.68 0,-2.65 -0.66,-5.48 -1.98,-8.83l-21 -69.83c-1.02,-5.5 -3.69,-8.17 -8.34,-8.17 -1.02,0 -3.17,0.52 -6.85,1.84 -23.32,8.83 -44.65,13.16 -63.99,13.16 -85.49,0 -141.17,-54.99 -166.99,-164.98 34.98,34.65 73.98,51.99 117.33,51.99 45.66,0 84.99,-15.33 117.83,-45.83 43.32,-40.51 65.01,-102.85 65.01,-187.18zm-121.02 -3.83c0,87.83 -29.17,131.84 -87.33,131.84 -59.17,0 -88.65,-44.67 -88.65,-133.84 0,-90.83 28.32,-136.16 84.83,-136.16 28.65,0 51,12.17 66.99,36.66 16.18,24.33 24.17,58.18 24.17,101.5z"
   id="glyph76" />
   <glyph
   unicode=":"
   horiz-adv-x="295"
   d="M243.01 409.32c0,-26.82 -9.18,-49.32 -27.67,-67.66 -18.34,-18.48 -40.85,-27.67 -67.52,-27.67 -26.5,0 -48.81,9.35 -67.15,27.84 -18.51,18.51 -27.67,41.33 -27.67,68.34 0,26.16 9.33,48.16 28.15,66.5 18.68,18.17 41.5,27.33 68.51,27.33 25.82,0 47.68,-9.33 65.99,-27.84 18.17,-18.48 27.35,-40.82 27.35,-66.84zm0 -329.98c0,-26.84 -9.18,-49.35 -27.67,-67.66 -18.34,-18.51 -40.85,-27.67 -67.52,-27.67 -26.5,0 -48.81,9.33 -67.15,27.81 -18.51,18.51 -27.67,41.36 -27.67,68.34 0,26.16 9.33,48.16 28.15,66.5 18.68,18.17 41.5,27.33 68.51,27.33 25.82,0 47.68,-9.33 65.99,-27.84 18.17,-18.48 27.35,-40.82 27.35,-66.81z"
   id="glyph77" />
   <glyph
   unicode="G"
   horiz-adv-x="556"
   d="M508.99 59.17c0,-11.01 -5.15,-20.01 -15.66,-26.83 -50.5,-32.83 -112.82,-49.35 -186.99,-49.35 -176.84,0 -265.32,119.67 -265.32,358.85 0,240.83 89.67,361.16 268.99,361.16 63.5,0 118.84,-14.67 166.02,-43.82 12.66,-8.17 19.16,-14.83 19.16,-20.01 0,-2.67 -0.66,-5.5 -2.01,-8.34l-37.16 -74.67c-2.34,-3.66 -4.51,-5.34 -6.83,-5.34 -3.17,0 -6.35,1.18 -9.35,3.35 -50.32,27.17 -91.82,40.82 -123.99,40.82 -42,0 -72.99,-14.83 -92.84,-44.5 -27.99,-41.32 -42,-108.83 -42,-202.49 0,-92.84 10.68,-158.67 31.84,-197.34 20.5,-37.16 55.32,-55.65 104.17,-55.65 23.81,0 46.82,5.15 69,15.66l0 140.34 -75 0c-11.67,0 -18.35,3.17 -20.01,9.33 -0.66,2.5 -0.99,6.5 -0.99,11.67l0 66.99c0,9.5 1.16,15.33 3.66,17.5 2.5,2.31 8.17,3.5 17.34,3.5l177 0c9.17,0 14.81,-1.18 17.32,-3.5 2.5,-2.17 3.66,-8.01 3.66,-17.5l0 -279.83z"
   id="glyph78" />
   <glyph
   unicode="L"
   horiz-adv-x="482"
   d="M480 112.84c0,-1.68 -0.66,-5.67 -2.01,-11.83l-18 -83.01c-2.67,-12 -10.32,-18 -22.98,-18l-331.02 0c-9.5,0 -15.33,1.16 -17.67,3.33 -2.15,2.34 -3.33,8.17 -3.33,17.67l0 643.99c0,9.52 1.18,15.35 3.33,17.67 2.34,2.17 8.17,3.33 17.67,3.33l95.01 0c11.67,0 18.33,-3.17 20.01,-9.33 0.66,-2.5 0.99,-6.5 0.99,-11.67l0 -541 237.99 0c13.35,0 20.01,-3.66 20.01,-11.15z"
   id="glyph79" />
   <glyph
   unicode="S"
   horiz-adv-x="482"
   d="M452 194.02c0,-61.86 -20.16,-112 -60.35,-150.36 -40.16,-38.49 -92.66,-57.67 -157.83,-57.67 -40.31,0 -85.17,7.18 -134.65,21.51 -49.51,14.33 -74.17,27.18 -74.17,38.52 0,1.98 0.66,5.64 1.98,11.15l33.17 85.83c2.33,6.02 5.17,8.85 8.85,8.85 2.17,0 5.32,-1.01 9.17,-2.83 59.65,-32.66 110.65,-49.01 153.01,-49.01 59.81,0 89.83,27.65 89.83,82.99 0,25.01 -6.99,45.35 -21.01,61.01 -13.32,14.68 -51.34,37.67 -113.83,68.82 -59.84,30.02 -100.85,58.68 -122.99,86.17 -22.17,27.5 -33.17,63.34 -33.17,107.69 0,59.15 19.81,106.33 59.31,141.17 39.5,34.83 92.85,52.16 159.84,52.16 39.34,0 81.01,-7.18 125.01,-21.67 43.84,-14.49 65.83,-28.16 65.83,-41.17 0,-1.32 -1.01,-4.16 -2.83,-8.35l-36.16 -75.65c-2.33,-4.82 -5.35,-7.34 -8.85,-7.34 -2.33,0 -15.34,6.17 -39.15,18.17 -34.17,17.32 -67.5,26.02 -100.19,26.02 -28,0 -50.14,-6.52 -66.33,-19.53 -16.31,-12.98 -24.47,-30.83 -24.47,-53.17 0,-25.17 12.98,-46.14 38.99,-62.99 9.48,-6.33 44.5,-24.66 105.01,-55.34 51.5,-25.67 88.66,-54.65 111.5,-86.83 22.99,-32.16 34.49,-71.65 34.49,-118.14z"
   id="glyph80" />
   <glyph
   unicode="U"
   horiz-adv-x="610"
   d="M547.99 231.99c0,-43.99 -4,-78.83 -11.99,-104.65 -7.99,-25.99 -22.17,-49.66 -42.66,-71.18 -46.52,-48.81 -112.68,-73.16 -198.34,-73.16 -92.66,0 -157.66,29 -194.82,86.85 -22.85,35.49 -34.19,89.49 -34.19,162.14l0 433.02c0,9.5 1.19,15.34 3.34,17.66 2.32,2.18 8.16,3.34 17.66,3.34l95.02 0c11.65,0 18.31,-3.17 19.98,-9.35 0.68,-2.49 0.99,-6.49 0.99,-11.65l0 -433.02c0,-52.98 6.69,-88.33 20.01,-105.82 17.66,-23.5 45.01,-35.18 82.18,-35.18 39.32,0 67.66,10.83 84.98,32.51 17.18,21.66 25.85,57.17 25.85,106.67l0 434.83c0,11.65 3.15,18.34 9.33,19.98 2.49,0.68 6.49,1.02 11.65,1.02l90.03 0c9.5,0 15.31,-1.16 17.49,-3.34 2.32,-2.32 3.49,-8.16 3.49,-17.66l0 -433.02z"
   id="glyph81" />
   <glyph
   unicode="a"
   horiz-adv-x="482"
   d="M439.82 27.99c0,-4.65 -2.65,-7.82 -7.82,-9.83l-78.17 -31.16c-3,-2.01 -7.02,-3 -12.17,-3 -9.17,0 -19.18,19.65 -29.83,58.98 -37.18,-37.98 -79.68,-57 -128.01,-57 -45.83,0 -82.32,13.68 -109.32,41.01 -27,27.33 -40.51,64.16 -40.51,110.34 0,87.5 49.68,141 149.01,160.49 26.17,5.17 63.5,8.34 111.99,9.33l0 30.66c0,28.68 -4.65,48.35 -14.15,59.01 -9.52,10.84 -26.67,16.18 -51.85,16.18 -30,0 -67.32,-8.67 -111.99,-25.84 -4.16,-2.17 -8.01,-3.33 -11.17,-3.33 -4.16,0 -7.49,3.33 -9.83,10.16l-21 60c-1.68,3.5 -2.5,7.18 -2.5,10.68 0,10.82 18.66,21.17 55.84,31.16 36.99,10.16 75.66,15.17 115.65,15.17 80.5,0 132.33,-25.65 155.84,-77.17 9.5,-20.48 14.17,-48 14.17,-82.82l0 -204c0,-40.32 7.65,-76.32 22.82,-107.84 2.01,-4.32 3,-8.01 3,-11.17zm-144.83 85.68l0 110.5c-49.98,0 -85.98,-6.17 -107.5,-18.33 -21.66,-12.35 -32.48,-32.83 -32.48,-61.84 0,-19.68 6.17,-36 18.5,-49.16 12.33,-13.18 27.5,-19.84 45.33,-19.84 26.67,0 52.16,12.83 76.16,38.67z"
   id="glyph82" />
   <glyph
   unicode="c"
   horiz-adv-x="407"
   d="M405.5 454c0,-3.99 -0.83,-7.65 -2.83,-11.17l-34.65 -63.99c-2.67,-4.49 -5.67,-6.83 -9.35,-6.83 -2.83,0 -6.17,1.32 -9.66,3.99 -30.99,22.68 -59.15,34.02 -84.99,34.02 -66,0 -99,-56.01 -99,-167.84 0,-105.5 33.33,-158.17 99.99,-158.17 26.67,0 54,9.33 82.02,27.83 4.82,3.5 8.48,5.34 10.65,5.34 3,0 5.83,-2.34 8.34,-7.32l24 -61.02c1.82,-4.82 2.83,-8.67 2.83,-11.67 0,-12.66 -15.66,-24.83 -47.17,-36.66 -31.32,-11.67 -63.99,-17.5 -97.82,-17.5 -68.01,0 -120.85,22.18 -158.51,66.69 -37.51,44.32 -56.34,106.65 -56.34,187.16 0,84.83 20.67,151.82 61.84,200.67 41.15,48.99 97.49,73.49 169.16,73.49 30.5,0 61.84,-6.5 93.66,-19.32 32.01,-12.85 47.84,-25.35 47.84,-37.68z"
   id="glyph83" />
   <glyph
   unicode="d"
   horiz-adv-x="519"
   d="M465.67 30.83c0,-3.5 -3,-6.5 -8.83,-8.67l-83.01 -33.17c-5.15,-1.98 -8.65,-3 -10.16,-3 -11.17,0 -20.17,17.01 -27,51.17 -43.82,-36.17 -90.66,-54.17 -140.01,-54.17 -51.83,0 -91.82,22.18 -120.17,66.69 -28.32,44.32 -42.5,106.99 -42.5,187.99 0,95.34 19.51,166.51 58.68,213.33 33.83,40.02 76.49,60 127.65,60 32.17,0 65.17,-9.33 98.67,-28.16l0 203.15c0,10.02 5.01,16.02 15.17,18l102 20.01c6.5,0 9.85,-5.67 9.85,-17.01l0 -583.82c0,-30.33 5.81,-58.84 17.65,-85.84 0.69,-1.65 1.35,-3.83 2.01,-6.5zm-146.67 85.35l0 275.84c-23.83,12 -47.84,18 -71.84,18 -31.65,0 -54,-12.35 -66.83,-37.18 -12.83,-24.66 -19.32,-67.32 -19.32,-127.82 0,-57.85 6.17,-99.69 18.33,-125.5 12.17,-25.68 31.98,-38.5 59.5,-38.5 31.32,0 57.99,11.67 80.15,35.17z"
   id="glyph84" />
   <glyph
   unicode="e"
   horiz-adv-x="481"
   d="M450.02 237.83c0,-8.66 -1.35,-14.99 -3.84,-18.99 -2.68,-3.84 -8.66,-5.83 -18.02,-5.83l-268.16 0c2.02,-84 38.83,-126.02 110.49,-126.02 37.17,0 75.02,10.33 113.35,31.18 5.17,2.65 9.48,3.84 12.98,3.84 5.01,0 8.69,-3.02 11.34,-9.2l24.66 -59.5c2.02,-4.98 3.02,-8.66 3.02,-11.31 0,-8.69 -13.67,-19.02 -41.01,-30.68 -43.65,-18.83 -89.67,-28.35 -138.17,-28.35 -63.5,0 -113.17,16.5 -149.01,49.35 -49.83,45.48 -74.65,115.81 -74.65,210.83 0,80.31 20,144.98 60,194.14 40.16,49.17 93.01,73.67 158.83,73.67 132.16,0 198.17,-90.99 198.17,-273.17zm-133.01 68.19c-1.01,41.48 -6.99,70.8 -18.17,88 -10.99,17.32 -29.32,25.98 -54.68,25.98 -29.67,0 -51.34,-12.5 -64.66,-37.67 -8.82,-16.31 -14.99,-41.83 -18.49,-76.31l156 0z"
   id="glyph85" />
   <glyph
   unicode="f"
   horiz-adv-x="352"
   d="M380.01 687.82c0,-0.31 -0.68,-2.83 -2.01,-7.65l-18 -71.35c-2.32,-5.81 -5.33,-8.65 -8.84,-8.65 -2.32,0 -5.64,0.82 -10.32,2.83 -20.18,9.33 -40.17,14 -60.18,14 -22.65,0 -38.66,-7 -47.82,-21 -5.16,-8.5 -7.82,-28.52 -7.82,-60.01l0 -42.01 113.98 0c11.34,0 17.01,-3.32 17.01,-10.15 -0.34,-2.66 -0.82,-5.84 -1.84,-9.84l-14.14 -57.83c-2.35,-10.18 -8.67,-15.19 -19.19,-15.19l-95.81 0 0 -383.81c0,-11.51 -5.67,-17.18 -17.18,-17.18l-92.66 0c-11.51,0 -17.18,5.67 -17.18,17.18l0 383.81 -76 0c-8.33,0 -13.32,1.02 -14.83,3.17 -1.5,2.18 -2.18,9.01 -2.18,20.66l0 55.02c0,9.5 5.67,14.14 17.01,14.14l76 0 0 42.01c0,61.17 11,105.5 32.85,132.83 29.48,36.85 72,55.16 126.99,55.16 30.67,0 58.65,-3.66 83.99,-11.17 25.51,-7.48 38.18,-15.82 38.18,-25z"
   id="glyph86" />
   <glyph
   unicode="h"
   horiz-adv-x="537"
   d="M472 17.01c0,-11.34 -5.67,-17.01 -17.17,-17.01l-93.17 0c-11.15,0 -16.65,5.67 -16.65,17.17l0 308.67c0,30.33 -4.18,51.99 -12.66,64.82 -8.5,12.83 -22.68,19.35 -42.5,19.35 -27.35,0 -55.84,-13.68 -85.84,-41.17l0 -351.66c0,-11.5 -5.67,-17.17 -17.17,-17.17l-92.67 0c-11.48,0 -17.15,5.67 -17.15,17.17l0 668.82c0,10.02 4.82,16.02 14.67,18l93.33 19.02c1.82,0.66 4.82,0.99 8.83,0.99 6.83,0 10.16,-5.67 10.16,-17.01l0 -253.82c40.65,38.5 86.5,57.83 137.67,57.83 51.5,0 88.16,-18 110.34,-54.17 13.32,-21.83 19.98,-56.17 19.98,-102.99l0 -336.83z"
   id="glyph87" />
   <glyph
   unicode="i"
   horiz-adv-x="295"
   d="M236.01 640.99c0,-22.49 -7.84,-41.48 -23.5,-57.33 -15.66,-15.83 -34.84,-23.67 -57.66,-23.67 -22.68,0 -41.67,7.84 -57.35,23.67 -15.66,15.85 -23.48,35.17 -23.48,58.35 0,21.83 7.98,40.49 24,56.34 15.99,15.83 35.15,23.65 57.66,23.65 22.32,0 41.17,-7.98 56.84,-23.83 15.66,-15.99 23.5,-34.98 23.5,-57.17zm-14.01 -623.98c0,-11.34 -5.67,-17.01 -17.17,-17.01l-93.17 0c-11.17,0 -16.65,5.67 -16.65,17.17l0 383.84 -76.02 0c-11.32,0 -16.98,5.65 -16.98,16.98l0 59.01c0,11.34 5.67,17.01 16.98,17.01l186 0c11.34,0 17.01,-5.67 17.01,-17.01l0 -460z"
   id="glyph88" />
   <glyph
   unicode="l"
   horiz-adv-x="277"
   d="M289.16 11.34c0,-6.85 -10.98,-13.35 -32.83,-19.35 -21.66,-6 -44.48,-9 -68.32,-9 -59.5,0 -97.51,24.17 -113.67,72.33 -6.17,17.17 -9.33,57.69 -9.33,121.51l0 508.16c0,10.68 4.98,17.01 15.17,18.99l89.84 18c6.83,1.35 10.98,2.01 12.17,2.01 6.5,0 9.83,-5.67 9.83,-17.17l0 -520.82c0,-39.17 0.66,-61.16 2.01,-66 3.5,-13.32 12,-20.01 25.32,-20.01 9.17,0 20.01,2.01 32.67,6 2.01,0.69 4.32,1.02 6.83,1.02 4.68,0 7.35,-2.01 8.34,-6l21 -85.84c0.66,-1.32 0.99,-2.5 0.99,-3.83z"
   id="glyph89" />
   <glyph
   unicode="m"
   horiz-adv-x="777"
   d="M714.99 17.01c0,-11.34 -5.67,-17.01 -17.17,-17.01l-92.66 0c-11.5,0 -17.17,5.67 -17.17,17.01l0 316c0,51.34 -14.99,77.01 -45.01,77.01 -24.66,0 -53.32,-15.02 -85.98,-44.85l0 -348.16c0,-11.34 -5.67,-17.01 -17.17,-17.01l-90.68 0c-11.5,0 -17.17,5.67 -17.17,17.17l0 307.65c0,28.19 -1.67,47.02 -4.82,56.85 -6.17,18.83 -20,28.35 -41.17,28.35 -25.01,0 -53.67,-14.36 -86.02,-43.02l0 -349.83c0,-11.5 -5.67,-17.17 -17.17,-17.17l-91.18 0c-11.15,0 -16.66,5.67 -16.66,17.01l0 335.81c0,41.01 -5.98,77.01 -17.98,108 -2.02,3.84 -2.99,7.69 -2.99,11.18 0,5.51 3.65,9.51 10.8,11.65l81.2 27.34c6.49,1.35 9.83,2.02 9.83,2.02 11.65,0 22.49,-24 32.16,-72 50.68,46.65 100.35,69.98 149.32,69.98 51.5,0 87.84,-23.34 109.01,-69.98 51.69,46.65 103.18,69.98 154.68,69.98 46.65,0 78.65,-16.82 95.81,-50.33 12.19,-22.99 18.17,-61.32 18.17,-114.65l0 -329.01z"
   id="glyph90" />
   <glyph
   unicode="n"
   horiz-adv-x="537"
   d="M473.01 17.01c0,-11.34 -5.67,-17.01 -17.17,-17.01l-93.17 0c-11.17,0 -16.68,5.67 -16.68,17.17l0 308.67c0,56.15 -18.99,84.17 -57.17,84.17 -25.98,0 -54.99,-13.68 -86.84,-41.17l0 -351.66c0,-11.5 -5.67,-17.17 -17.15,-17.17l-93.17 0c-11.17,0 -16.68,5.67 -16.68,17.17l0 335.84c0,42.83 -6.83,79.16 -20.67,108.83 -2.17,4.16 -3.33,7.65 -3.33,10.16 0,4.02 2.83,6.83 8.34,8.83l88.65 33.17c3.69,1.35 7.02,2.01 10.35,2.01 12.33,0 24.17,-23.01 35.67,-69.17 46.49,42.83 96.33,64.16 149.65,64.16 86.17,0 129.36,-52.65 129.36,-158.17l0 -335.81z"
   id="glyph91" />
   <glyph
   unicode="r"
   horiz-adv-x="351"
   d="M365.17 488.5c0,-1.83 -0.66,-5.51 -2.33,-10.68l-30.83 -80.82c-2.33,-5.83 -4.82,-8.85 -7.84,-8.85 -0.98,0 -3.34,0.66 -7.34,2.02 -14.99,5.17 -28.31,7.84 -40,7.84 -21.48,0 -46.8,-16 -75.81,-47.84l0 -333.01c0,-11.5 -5.67,-17.17 -17.17,-17.17l-93.17 0c-11.18,0 -16.66,5.67 -16.66,17.01l0 303.65c0,47.84 -10.02,94.17 -30.02,139.18 -1.32,3.81 -1.98,6.99 -1.98,9.17 0,4.31 3.31,7.5 9.83,9.83l80.98 28.66c5.86,2.33 10.02,3.5 12.19,3.5 13.32,0 25.98,-25.98 38.17,-77.83 7.81,9.32 18.99,22.33 33.64,38.83 26.02,26.02 56.5,38.99 91.34,38.99 14.68,0 27.84,-2.33 39.5,-6.83 11.69,-4.5 17.51,-9.67 17.51,-15.65z"
   id="glyph92" />
   <glyph
   unicode="s"
   horiz-adv-x="425"
   d="M393.01 145.01c0,-45.51 -15.34,-84.19 -45.83,-116.19 -29.51,-30.49 -70.52,-45.83 -122.68,-45.83 -58.83,0 -115.34,14.02 -169.51,42.02 -14.65,7.5 -21.98,13.83 -21.98,18.99 0,2.68 1.01,6.68 2.99,12.16l22.83 61.01c2.68,6.49 5.98,9.83 9.83,9.83 2.33,0 5.35,-0.98 9.35,-2.99 52.82,-28.66 97.98,-42.99 135.81,-42.99 38.83,0 58.17,17.17 58.17,51.65 0,14.33 -4.82,25.51 -14.33,33.35 -9.67,7.65 -30.49,17.64 -62.68,29.64 -52.5,20.19 -86.99,38.36 -104,54.17 -26.65,25.51 -40,58.17 -40,98.17 0,47.84 16.66,86.99 50.02,117.32 33.32,30.52 76,45.67 128,45.67 31.5,0 64.82,-5.32 100,-16.16 34.99,-10.68 52.66,-20.66 52.66,-30.17 0,-2.49 -1.01,-6.17 -2.99,-10.65l-24.66 -57.01c-2.68,-5.83 -6.02,-8.85 -10.17,-8.85 -1.35,0 -4,0.66 -7.84,2.02 -38.49,17.17 -72,25.83 -100.5,25.83 -42.33,0 -63.5,-17.01 -63.5,-50.83 0,-13.67 4.16,-24.16 12.35,-31.34 8.16,-7.34 25.83,-16.31 52.98,-26.65 60,-23.53 98.33,-43.53 115.02,-60 27.15,-26.83 40.66,-60.85 40.66,-102.17z"
   id="glyph93" />
   <glyph
   unicode="t"
   horiz-adv-x="370"
   d="M366.02 22.02c0,-8.19 -10.36,-15.34 -31.18,-22.02 -35.18,-11.34 -68.82,-17.01 -101.17,-17.01 -59.18,0 -99.5,21.51 -121.01,64.5 -9.17,18.83 -13.67,49.83 -13.67,92.66l0 260.85 -69.32 0c-11.18,0 -16.66,5.67 -16.66,17.01l0 58.99c0,11.34 5.48,17.01 16.66,17.01l69.32 0 0 126.14c0,10.52 5.35,16.5 16.19,18.17l91.81 12.66 8.85 0c6.83,0 10.17,-5.32 10.17,-16.16l0 -140.82 113.64 0c11.34,0 17.17,-3.34 17.17,-10.17 0,-4 -0.31,-6.83 -0.98,-8.85l-13.17 -58.83c-2.02,-10.14 -7.84,-15.15 -17.67,-15.15l-98.99 0 0 -242.99c0,-22.83 1.17,-37.51 3.5,-44 4.5,-13.35 15.65,-20 33.48,-20 15.69,0 37.67,5.64 66.02,16.82 3.15,1.32 6.17,1.98 8.66,1.98 4.66,0 8,-3.31 10.33,-9.83l15.65 -69.67c1.51,-5.98 2.36,-9.67 2.36,-11.31z"
   id="glyph94" />
   <glyph
   unicode="u"
   horiz-adv-x="537"
   d="M485.01 15.33c0,-3.99 -3.35,-6.66 -9.85,-8.34l-84 -18.99c-5.83,-1.32 -9.66,-2.01 -11.15,-2.01 -11.5,0 -21.35,18.33 -29.83,55.02 -40.68,-38.67 -86.84,-58.02 -138.17,-58.02 -50.17,0 -87.69,14.34 -112.84,43.02 -16.32,18.5 -26.5,42.66 -30.66,72.33 -2.34,13.98 -3.5,40.65 -3.5,79.98l0 293.18c0,9.66 4.98,15.5 15.17,17.5l92.84 19.98c1.32,0.69 3.99,1.02 8.32,1.02 7.18,0 10.68,-5.17 10.68,-15.66l0 -310.18c0,-37.49 3.17,-61.82 9.33,-73.32 9.33,-17.83 26.67,-26.83 51.66,-26.83 26.67,0 54.33,12 83.01,36.17l0 351.17c0,9.83 5.01,15.66 15.17,17.67l92.84 19.98 10.16 1.02c5.83,0 8.83,-5.17 8.83,-15.66l0 -368.18c0,-42.66 6.33,-76.68 19.02,-102 1.98,-3 3,-6 3,-8.83z"
   id="glyph95" />
   <glyph
   unicode="y"
   horiz-adv-x="443"
   d="M450 480c0,-1.68 -0.5,-4.84 -1.84,-9.66l-100.16 -366.17c-5.83,-21.85 -11.5,-43.84 -17.01,-66 -16.98,-69.66 -30.33,-117.85 -40.16,-144.5 -9.33,-25.02 -21.5,-46.18 -36,-63.52 -29.34,-34.82 -69.66,-52.16 -121.16,-52.16 -28.02,0 -57.85,5.34 -89.34,16.16 -31.68,10.68 -47.34,21 -47.34,31.18 0,1.65 1.32,5.17 3.83,10.65l31.35 64.02c1.82,4.82 4.82,7.16 8.67,7.16 2.31,0 4.98,-0.99 7.82,-3.33 30.33,-14.5 56.01,-21.83 77.17,-21.83 21.17,0 37.32,5.5 48.66,16.32 11.17,10.84 21,30.83 29.5,59.67l11.67 42 -42 0c-9.33,0 -15.66,4.32 -18.99,13.16l-156.69 456.17c-1.98,5.5 -3,9 -3,10.68 0,5.5 5.34,9 16.18,10.32l108.83 10.68c5.5,0 9.5,-4.68 11.67,-14.17l66.5 -245.67c12.99,-49.49 25.84,-107.15 38.5,-173.32l15.17 84c3.66,20.81 6.66,36.33 9.33,46.49l9.66 42.83 56.17 244.68c2.34,10.16 5.83,15.17 10.82,15.17 1.35,0 4.02,-0.33 8.17,-0.99l88.02 -9.69c10.65,-1.32 15.99,-4.82 15.99,-10.32z"
   id="glyph96" />
   <glyph
   unicode="ä"
   horiz-adv-x="482"
   d="M393.84 637.17c0,-19.16 -6.69,-35.49 -20.18,-49.01 -13.49,-13.49 -29.82,-20.32 -48.67,-20.32 -19.16,0 -35.49,6.83 -48.98,20.32 -13.52,13.52 -20.35,29.85 -20.35,49.01 0,19.16 6.83,35.49 20.35,48.84 13.49,13.32 30.16,19.98 50,19.98 18.48,0 34.5,-6.83 47.82,-20.32 13.32,-13.49 20.01,-29.68 20.01,-48.5zm-177.16 0c0,-19.16 -6.83,-35.49 -20.35,-49.01 -13.49,-13.49 -29.65,-20.32 -48.5,-20.32 -18.99,0 -35.15,6.83 -48.67,20.32 -13.49,13.52 -20.15,29.85 -20.15,49.01 0,19.16 6.66,35.49 20.15,48.84 13.52,13.32 30.02,19.98 49.69,19.98 18.48,0 34.5,-6.83 47.82,-20.32 13.32,-13.49 20.01,-29.68 20.01,-48.5zm223.14 -609.16c0,-4.68 -2.66,-7.85 -7.82,-9.84l-78.15 -31.18c-3,-1.98 -7,-2.98 -12.19,-2.98 -9.16,0 -19.16,19.64 -29.82,58.99 -37.16,-38.01 -79.68,-57 -128.01,-57 -45.84,0 -82.32,13.66 -109.33,41.02 -26.99,27.33 -40.51,64.15 -40.51,110.32 0,87.5 49.69,140.99 149.02,160.5 26.16,5.16 63.5,8.33 112,9.33l0 30.67c0,28.66 -4.68,48.33 -14.17,58.99 -9.5,10.86 -26.67,16.19 -51.82,16.19 -30.02,0 -67.35,-8.67 -112,-25.85 -4.17,-2.15 -8.02,-3.32 -11.17,-3.32 -4.17,0 -7.51,3.32 -9.84,10.18l-21 59.98c-1.67,3.51 -2.49,7.17 -2.49,10.69 0,10.83 18.65,21.15 55.81,31.15 37.02,10.18 75.68,15.17 115.68,15.17 80.5,0 132.32,-25.65 155.82,-77.16 9.5,-20.49 14.17,-48.02 14.17,-82.83l0 -204.01c0,-40.34 7.68,-76.34 22.85,-107.83 1.98,-4.34 2.98,-8.02 2.98,-11.17zm-144.82 85.66l0 110.49c-50,0 -86,-6.15 -107.49,-18.34 -21.68,-12.33 -32.51,-32.82 -32.51,-61.82 0,-19.67 6.18,-36 18.51,-49.15 12.33,-13.18 27.5,-19.84 45.33,-19.84 26.67,0 52.16,12.84 76.17,38.66z"
   id="glyph97" />
  </font>
</defs>
</svg>
