<?xml version="1.0" encoding="UTF-8" standalone="no"?>
<!-- Creator: CorelDRAW 2021 (64-Bit) -->

<svg
   xml:space="preserve"
   width="209.974mm"
   height="171.541mm"
   version="1.0"
   style="shape-rendering:geometricPrecision; text-rendering:geometricPrecision; image-rendering:optimizeQuality; fill-rule:evenodd; clip-rule:evenodd"
   viewBox="0 0 20994.86 17152.02"
   id="svg155"
   sodipodi:docname="moderne_ostasienstudien__b.a._.svg"
   inkscape:version="1.3-dev (77bc73e, 2022-05-18)"
   xmlns:inkscape="http://www.inkscape.org/namespaces/inkscape"
   xmlns:sodipodi="http://sodipodi.sourceforge.net/DTD/sodipodi-0.dtd"
   xmlns="http://www.w3.org/2000/svg"
   xmlns:svg="http://www.w3.org/2000/svg"><sodipodi:namedview
   id="namedview155"
   pagecolor="#ffffff"
   bordercolor="#000000"
   borderopacity="0.25"
   inkscape:showpageshadow="2"
   inkscape:pageopacity="0.0"
   inkscape:pagecheckerboard="0"
   inkscape:deskcolor="#d1d1d1"
   inkscape:document-units="mm"
   showgrid="false"
   inkscape:zoom="0.36400433"
   inkscape:cx="396.9733"
   inkscape:cy="324.17197"
   inkscape:window-width="1440"
   inkscape:window-height="900"
   inkscape:window-x="0"
   inkscape:window-y="0"
   inkscape:window-maximized="0"
   inkscape:current-layer="Ebene_x0020_1" />
 <defs
   id="defs77">
  <font
   id="FontID1"
   horiz-adv-x="537"
   font-variant="normal"
   style="fill-rule:nonzero"
   font-style="normal"
   font-weight="400">
	<font-face
   font-family="Officina Sans OS ITC TT"
   id="font-face1">
		<font-face-src>
			<font-face-name
   name="Officina Sans OS ITC TT" />
		</font-face-src>
	</font-face>
   <missing-glyph
   id="missing-glyph1"><path
     d="M0 0z"
     id="path1" /></missing-glyph>
   <glyph
   unicode="("
   horiz-adv-x="370"
   d="M316.84 -202.18c0,-3.83 -5.67,-9.5 -16.83,-16.83 -11.16,-7.33 -20.01,-10.99 -26.16,-10.99 -9.68,0 -32.68,26.99 -68.85,80.99 -82,122.85 -123,255.5 -123,398 0,153.67 48.33,296.68 145,429.18 24.49,33.16 39.99,49.82 46.85,49.82 3.65,0 7.66,-1.34 12.32,-3.83l23.84 -15.17c4.66,-3 6.83,-5.82 6.83,-8.82 0,-3.83 -2.85,-10 -8.85,-18.02 -95.99,-127.99 -143.99,-272.33 -143.99,-433.16 0,-159.84 48.01,-304.16 143.99,-433.16 6,-8.01 8.85,-14.16 8.85,-18.02z"
   id="glyph1" />
   <glyph
   unicode=")"
   horiz-adv-x="370"
   d="M288.99 249c0,-153.34 -48.33,-296.32 -145.15,-429.18 -24.34,-33.16 -40.02,-49.82 -46.85,-49.82 -3.5,0 -7.66,1.34 -12.17,3.83l-23.99 14.16c-4.51,3.68 -6.83,6.83 -6.83,9.83 0,3.86 3,10 8.82,18.02 96.19,129 144.17,273.32 144.17,433.16 0,159.84 -47.98,304.16 -144.17,433.16 -5.82,7.84 -8.82,13.83 -8.82,18.02 0,3 7.66,9.32 23.01,19 9.32,5.82 16.15,8.82 19.98,8.82 9.17,0 32,-26.99 68.85,-80.99 82.15,-120.51 123.15,-253.18 123.15,-398z"
   id="glyph2" />
   <glyph
   unicode="-"
   horiz-adv-x="351"
   d="M314.85 232.16c0,-9.5 -4.69,-14.16 -14.19,-14.16l-249.98 0c-9.17,0 -13.68,4.66 -13.68,14.16l0 46.67c0,9.5 4.51,14.16 13.68,14.16l249.98 0c9.5,0 14.19,-4.66 14.19,-14.16l0 -46.67z"
   id="glyph3" />
   <glyph
   unicode="."
   horiz-adv-x="295"
   d="M219.16 57.18c0,-19.5 -7.01,-36.19 -20.84,-50.17 -13.81,-14.01 -30.32,-21.02 -49.49,-21.02 -19.83,0 -36.67,6.85 -50.32,20.51 -13.68,13.66 -20.51,30.49 -20.51,50.68 0,19.48 7.01,36.16 21.02,49.64 13.99,13.51 31,20.18 50.83,20.18 18.5,0 34.67,-6.83 48.48,-20.66 13.83,-13.83 20.84,-30.16 20.84,-49.16z"
   id="glyph4" />
   <glyph
   unicode="0"
   horiz-adv-x="499"
   d="M457 292.17c0,-204.17 -69.17,-306.18 -207.49,-306.18 -57.66,0 -102.84,19.68 -135.5,59.02 -46.01,55.99 -69,134.31 -69,234.84 0,96.67 18.82,171.81 56.5,225.66 37.67,53.65 90.34,80.49 157.83,80.49 63.68,0 112.49,-25.33 146.51,-75.83 34.17,-50.68 51.16,-123.33 51.16,-218zm-82 -2.34c0,150.19 -40.5,225.18 -121.49,225.18 -40.02,0 -71.01,-20.18 -93.16,-60.33 -22.18,-40.17 -33.34,-96.34 -33.34,-168.69 0,-76.83 12,-136.15 35.99,-178.16 19.5,-33.82 48.69,-50.83 87.52,-50.83 44.83,0 76.33,19.33 94.83,58.16 19.83,42.01 29.66,100.17 29.66,174.66z"
   id="glyph5" />
   <glyph
   unicode="1"
   horiz-adv-x="499"
   d="M424.84 14.16c0,-9.5 -4.51,-14.16 -13.68,-14.16l-264.17 0c-9.5,0 -14.16,4.66 -14.16,14.16l0 37.67c0,9.5 4.66,14.16 14.16,14.16l102.01 0 0 426.18 -111.84 -67.33c-4.49,-2.67 -7.99,-4.01 -10.16,-4.01 -3,0 -5.34,2.49 -6.83,7.33l-13.18 23.99c-1.99,3.5 -3,6.5 -3,8.85 0,3.18 2.34,6.65 6.83,10.16l150.34 109.85 49.67 0c9.5,0 14.16,-4.66 14.16,-14.16l0 -500.84 86.16 0c9,0 13.68,-4.66 13.68,-14.16l0 -37.67z"
   id="glyph6" />
   <glyph
   unicode="2"
   horiz-adv-x="499"
   d="M430.99 14.16c0,-9.5 -4.66,-14.16 -14.16,-14.16l-335.66 0c-6.17,0 -9.68,1.51 -10.66,4.33 -1.01,1.99 -1.51,5.34 -1.51,9.83 0,65.02 13.33,119.67 40.17,163.5 26.84,44 70.84,83.34 132,118.19 45.84,26.33 74.52,46.64 85.83,60.98 14.67,18.5 22,41.18 22,67.84 0,28.32 -8.49,50.5 -25.65,66.33 -17.01,16 -40.5,24.02 -70.51,24.02 -28.17,0 -51,-7.33 -68.49,-22.18 -17.34,-14.84 -32.33,-39.84 -45.01,-74.84 -2.67,-6.48 -6.17,-9.83 -10.33,-9.83 -1.99,0 -5.17,0.68 -9.65,2.02l-41 11.67c-5.52,2.32 -8.34,5.64 -8.34,10.33 0,7.48 4.33,20.49 13.15,38.98 8.85,18.67 17.84,34.02 27.01,46.01 35.48,45.84 84.49,68.82 147.17,68.82 53.83,0 96.16,-13.99 127.16,-41.98 31,-28.02 46.49,-66.35 46.49,-114.84 0,-47.17 -14.67,-86.33 -44,-117.36 -12.83,-12.98 -24.49,-22.98 -35.33,-30.16 -9.17,-6.15 -39.66,-24.17 -91.5,-53.83 -68.82,-39.66 -106.49,-91.32 -113,-154.83l269.66 0c9.5,0 14.16,-4.66 14.16,-14.16l0 -44.68z"
   id="glyph7" />
   <glyph
   unicode="3"
   horiz-adv-x="499"
   d="M433.99 109.85c0,-57.18 -19.66,-103.52 -58.82,-138.85 -39.19,-35.33 -90.67,-52.99 -154.68,-52.99 -34.32,0 -70.16,4.99 -108.01,15.17 -37.65,10 -56.5,19.66 -56.5,28.83 0,1.51 1.01,4.66 3,9.17l20.01 45.01c1.66,3.83 3.83,5.82 6.83,5.82 2.49,0 10.18,-3 23.01,-8.85 33.82,-16.15 70.48,-24.17 109.82,-24.17 88.85,0 133.33,41.35 133.33,124.01 0,82 -48.66,123 -145.98,123l-34.35 0c-9,0 -13.66,4.66 -13.66,14.01l0 39.99c0,9.32 4.66,14.01 13.83,14.01l33.16 0c39.34,0 70.84,10.84 93.99,32.48 23.33,21.67 35,50.68 35,87.17 0,29.33 -8.82,52.84 -26.33,70.18 -17.66,17.49 -41.33,26.16 -70.84,26.16 -36.49,0 -70.16,-16.98 -100.65,-50.83 -7.84,-8.67 -14.19,-13.18 -19.18,-13.18 -2.17,0 -5.01,1.34 -8.16,4.01l-32.84 27.85c-3.5,2.32 -5.34,4.99 -5.34,8.32 0,10 16.18,27.01 48.33,50.85 34.85,25.98 75.02,38.98 120.68,38.98 50.65,0 92,-14.82 123.65,-44.5 31.83,-29.48 47.68,-68.17 47.68,-115.67 0,-70.66 -34.35,-119.65 -103.02,-146.99 27.85,-8.49 49.34,-18.67 64.51,-30.67 41,-32.66 61.49,-78.67 61.49,-138.32z"
   id="glyph8" />
   <glyph
   unicode="4"
   horiz-adv-x="499"
   d="M469.5 86.84c0,-9.17 -4.84,-13.83 -14.16,-13.83l-79.33 0 0 -140.84c0,-9.5 -4.66,-14.16 -14.16,-14.16l-46.67 0c-9.5,0 -14.16,4.66 -14.16,14.16l0 140.84 -257.84 0c-6.17,0 -9.83,1.84 -11.16,5.34 -0.68,1.99 -1.01,4.81 -1.01,8.32l0 56.17 259.33 430.34c3.18,5.17 8.85,7.84 17.01,7.84l49.82 -7.84c8.19,-1.34 12.17,-4.33 12.17,-9.17 0,-2.32 -1.34,-5.32 -3.83,-8.82l-255.32 -416.17 190.66 0 11.16 160.82c0.68,8.85 5.49,13.18 14.16,13.18l35.68 0c9.5,0 14.16,-4.66 14.16,-14.16l0 -159.84 79.33 0c9.32,0 14.16,-4.84 14.16,-14.34l0 -37.82z"
   id="glyph9" />
   <glyph
   unicode="6"
   horiz-adv-x="499"
   d="M443.01 224.18c0,-70 -18.02,-127.18 -53.85,-171.51 -35.99,-44.5 -82.5,-66.68 -139.66,-66.68 -67.84,0 -118.67,30.84 -152.33,92.36 -25.5,46.17 -38.18,106.65 -38.18,181.66 0,120 25,215.66 75.02,286.5 50,70.99 117.15,106.49 201.82,106.49 23.16,0 42.99,-2.17 59.32,-6.33 16.51,-4.33 24.67,-9.5 24.67,-15.67 0,-2.67 -0.33,-4.66 -0.98,-5.85l-10.68 -42.16c-1.34,-4.49 -3.83,-6.83 -7.33,-6.83l-6.83 0.83c-20.16,6.68 -40.5,10 -61.01,10 -54.15,0 -97.98,-23.16 -131.82,-69.5 -28,-38 -46.17,-86.16 -54.33,-144.5 38,43.32 80.49,64.99 127.49,64.99 51.33,0 92.33,-19.5 122.85,-58.49 30.49,-39.19 45.84,-90.84 45.84,-155.33zm-82 -1.18c0,97.35 -37.17,146.01 -111.51,146.01 -34.35,0 -61.01,-12.5 -80.01,-37.67 -19,-25 -28.5,-60.5 -28.5,-106.32 0,-112.01 36.51,-168.01 109.52,-168.01 73.66,0 110.5,55.34 110.5,165.99z"
   id="glyph10" />
   <glyph
   unicode="7"
   horiz-adv-x="499"
   d="M426.66 538.85l-230.83 -605.67c-2.32,-6.68 -5.67,-10.18 -9.83,-10.18 -0.66,0 -1.99,0 -3.83,0l-1.99 0 -54.18 8.34c-8.16,1.01 -12.32,3.5 -12.32,7.84 0,1.99 1.16,4.99 3.5,9.32l215.81 555.5 -257.82 0c-9.5,0 -14.16,4.66 -14.16,14.16l0 43.67c0,9.5 4.66,14.16 14.16,14.16l337.83 0c9.17,0 13.66,-4.66 13.66,-14.16l0 -22.98z"
   id="glyph11" />
   <glyph
   unicode="9"
   horiz-adv-x="499"
   d="M435 313.01c0,-123.68 -22.65,-220.5 -68.17,-290.35 -45.33,-69.83 -108.33,-104.65 -189,-104.65 -35,0 -61.84,4.33 -80.84,13.15 -6.83,3.02 -10.33,7.18 -10.33,12.68l0 6.33 5.01 41c0,5.34 2.65,7.84 8.16,7.84 0.66,0 3.33,-0.66 7.84,-1.81 24.82,-7.51 48.16,-11.19 69.98,-11.19 94.02,0 152.51,74.67 175.34,224 -31.32,-50.65 -74.67,-75.98 -130.01,-75.98 -50.5,0 -91.15,20.31 -122.32,60.98 -31.17,40.67 -46.67,93.99 -46.67,160.17 0,68.67 17.99,124.34 54.15,166.85 36.01,42.66 83.18,63.98 141.17,63.98 123.83,0 185.67,-91 185.67,-272.99zm-82 49.67c0,101.5 -35.66,152.33 -106.82,152.33 -34.17,0 -61.18,-14.01 -81.17,-42.01 -20.01,-28 -30.01,-66 -30.01,-114.15 0,-49.16 9.5,-87.67 28.5,-115.34 19,-27.67 45.66,-41.5 79.83,-41.5 73.18,0 109.67,53.5 109.67,160.67z"
   id="glyph12" />
   <glyph
   unicode="A"
   horiz-adv-x="537"
   d="M517.17 7.84c0,-5.17 -4.84,-7.84 -14.16,-7.84l-64.01 0c-6.83,0 -11.84,3.68 -15.17,11.16l-54.66 194.84 -203.19 0 -56.14 -194.84c-1.84,-7.48 -6.85,-11.16 -14.69,-11.16l-59.98 0c-9.5,0 -14.19,2.34 -14.19,6.83 0,1.66 0.68,4.66 2.02,9.35l201.17 658.64c2.17,7.51 7.16,11.19 14.67,11.19l60 0c7.81,0 12.83,-3.68 15.15,-11.19l201.17 -658.64c1.34,-4.69 2.02,-7.33 2.02,-8.34zm-167 267.17l-60.18 220.17c-8.67,31.5 -16.33,63.5 -22.83,95.66 -4.66,-23.51 -12.32,-55.01 -23.01,-94.68l-60.15 -221.15 166.17 0z"
   id="glyph13" />
   <glyph
   unicode="B"
   horiz-adv-x="556"
   d="M499.99 189c0,-42.01 -10.33,-78.82 -30.82,-110.32 -20.51,-31.68 -48.66,-53.5 -84.49,-65.52 -25,-8.82 -68.34,-13.15 -129.83,-13.15l-145.18 0c-9.17,0 -13.66,4.66 -13.66,14.16l0 657.66c0,9.5 4.49,14.19 13.66,14.19l163.17 0c62.82,0 108.16,-9.02 136.15,-26.84 42.66,-27.67 64.01,-73.51 64.01,-137.16 0,-77.19 -32.66,-131.52 -98.15,-163.17 32.66,-9.02 56.5,-20.69 71.82,-34.67 35.51,-32.84 53.32,-77.99 53.32,-135.17zm-115.99 324.35c0,38.66 -8.49,66.15 -25.65,82.33 -17.16,16.15 -46.34,24.32 -87.34,24.32l-92.99 0 0 -237.99 72 0c38.98,0 67.48,6 85,18.17 32.66,22.65 48.99,60.33 48.99,113.17zm27.01 -321.85c0,51.33 -19,87.34 -57.18,108.33 -19.15,10.84 -46.49,16.18 -82,16.18l-93.82 0 0 -250.01 97.65 0c41,0 71.84,8.01 92.33,23.99 28.68,22.5 43.02,56.35 43.02,101.5z"
   id="glyph14" />
   <glyph
   unicode="C"
   horiz-adv-x="462"
   d="M441.17 64.01c0,-6.83 -9.35,-17.34 -27.85,-31.68 -39.66,-30.82 -84.82,-46.34 -135.32,-46.34 -73.51,0 -129.5,31.02 -168.16,93.19 -38.51,62.17 -57.83,152.48 -57.83,270.82 0,116.83 18.98,205.18 57.15,265 36.16,56.67 90.16,85 162.01,85 55.67,0 105.33,-18.67 148.98,-55.99 10.68,-9.17 16.18,-15.83 16.18,-20.01 0,-2.67 -0.66,-5.32 -1.99,-7.84l-29.33 -38c-1.34,-2.65 -4.01,-3.98 -7.84,-3.98 -2.02,0 -13.33,7.99 -34.17,23.99 -30.01,23.16 -60.33,34.83 -91,34.83 -45.66,0 -78.85,-21.82 -99.66,-65.49 -20.84,-43.67 -31.35,-113.17 -31.35,-208.65 0,-203.84 47.17,-305.85 141.35,-305.85 34.5,0 71.82,17.66 111.84,52.99 4.66,3.86 8.16,5.85 10.84,5.85 2.65,0 5.32,-2.34 8.32,-6.83l24.85 -33.16c1.99,-2.02 3,-4.51 3,-7.84z"
   id="glyph15" />
   <glyph
   unicode="J"
   horiz-adv-x="443"
   d="M360 212.01c0,-41.33 -0.68,-68.01 -1.99,-80.01 -3.18,-29.66 -11.52,-54.51 -24.85,-74.67 -31.17,-47.5 -81.5,-71.34 -150.82,-71.34 -114.18,0 -171.33,63.68 -171.33,190.84 0,13.33 3.15,20.01 9.32,20.01l58.84 0c5.17,0 7.81,-3.33 7.81,-9.83l0 -12.17c0,-81.17 32,-121.84 96.19,-121.84 44.33,0 73.33,17.84 86.99,53.68 5.17,14.34 7.84,47.65 7.84,100.17l0 410.15 -172.84 0c-9.32,0 -14.16,4.51 -14.16,13.68l0 41.15c0,9.5 4.84,14.19 14.16,14.19l241.19 0c9.15,0 13.66,-4.69 13.66,-14.19l0 -459.82z"
   id="glyph16" />
   <glyph
   unicode="K"
   horiz-adv-x="518"
   d="M503.67 36.99c0,-3.65 -2.17,-7.01 -6.83,-10.33l-45.84 -31.83c-4.01,-2.49 -7.01,-3.83 -9.32,-3.83 -2.85,0 -6.17,2.32 -9.68,6.83l-253.99 327.34 0 -311.01c0,-9.5 -4.69,-14.16 -14.19,-14.16l-54.15 0c-9.17,0 -13.66,4.66 -13.66,14.16l0 657.66c0,9.5 4.49,14.19 13.66,14.19l54.15 0c9.5,0 14.19,-4.69 14.19,-14.19l0 -324.65 256.81 339.99c4.01,5.17 7.18,7.84 9.85,7.84 2.32,0 5.32,-1.66 9.32,-4.84l36.99 -25c5.17,-3.5 7.84,-7.01 7.84,-10.18 0,-2.32 -1.66,-5.67 -4.84,-9.83l-235.31 -304.34 240.15 -295.16c3.33,-3.15 4.84,-6.17 4.84,-8.67z"
   id="glyph17" />
   <glyph
   unicode="P"
   horiz-adv-x="481"
   d="M465.99 502c0,-91.83 -33.16,-155.18 -99.66,-190.01 -28.5,-14.67 -67.16,-22 -116.5,-22l-71.82 0 0 -275.84c0,-9.5 -4.69,-14.16 -14.19,-14.16l-54.15 0c-9.17,0 -13.66,4.66 -13.66,14.16l0 657.66c0,9.5 4.49,14.19 13.66,14.19l153.49 0c59.67,0 102.34,-7.69 128.01,-23.01 49.82,-29.84 74.82,-83.66 74.82,-161zm-83.99 -1.01c0,57.51 -18.67,93.52 -55.84,107.68 -13.66,5.49 -37.17,8.32 -70.33,8.32l-77.82 0 0 -255 66 0c43.65,0 74.99,7.66 93.99,23.01 29.33,23.66 44,62.34 44,115.99z"
   id="glyph18" />
   <glyph
   unicode="S"
   horiz-adv-x="481"
   d="M439 182.35c0,-58.69 -19.33,-106.02 -58.16,-142.18 -38.68,-36.16 -89.33,-54.18 -151.85,-54.18 -37.5,0 -78.32,7.01 -122.5,21.02 -44.33,13.99 -66.5,26.99 -66.5,38.98 0,2.02 0.68,4.69 2.02,8.34l19 47.68c1.34,3.33 3.5,4.99 6.83,4.99 3,0 8.67,-2.34 17.16,-6.83 51,-28.17 99.34,-42.16 145,-42.16 36.67,0 66.33,10.33 88.5,31 22.33,20.66 33.49,48.01 33.49,81.82 0,30.52 -8.49,55.99 -25.33,76.18 -16.98,20.16 -50.17,44.33 -99.66,72.65 -65.34,37.85 -107.33,67.18 -126,88.35 -26.66,30.32 -39.99,67.33 -39.99,110.83 0,53.17 18.32,96.49 54.99,130.33 36.51,33.82 83.84,50.83 141.85,50.83 33.49,0 69.65,-6.33 108.48,-19.15 39.01,-12.85 58.51,-24.52 58.51,-35 0,-1.84 -0.68,-4.51 -2.02,-7.69l-17.99 -45.33c-1.66,-3.98 -4.33,-5.82 -7.84,-5.82 -1.34,0 -15.67,6.65 -42.99,20.01 -30.34,14.67 -62.67,22 -97.17,22 -34.5,0 -61.51,-8.67 -80.84,-26.18 -19.33,-17.34 -29,-41.66 -29,-73 0,-35.66 13.36,-63.98 40.02,-84.82 7.16,-5.67 47.15,-30.49 120.15,-74.84 48.18,-28.5 81.02,-55.31 98.68,-79.98 22.15,-30.67 33.16,-66.5 33.16,-107.83z"
   id="glyph19" />
   <glyph
   unicode="W"
   horiz-adv-x="685"
   d="M663.16 672c0,-1.01 -0.33,-2.34 -0.98,-3.83l0 -4.01 -138.17 -651.99c-1.66,-8.16 -6.68,-12.17 -15.17,-12.17l-66 0c-8.01,0 -12.68,4.01 -13.66,12.17l-86.33 552.83 -104 -552.83c-1.34,-8.16 -6.17,-12.17 -14.67,-12.17l-61.01 0c-8.49,0 -13.51,4.01 -15.17,12.17l-124.99 653.83c-0.68,3.65 -1.01,6.17 -1.01,7.84 0,3.98 4.01,6.65 12.17,8.32l51.84 9.85c3.5,0.66 6.33,0.98 8.32,0.98 3.86,0 6.5,-3.83 7.69,-11.67l85.98 -494.32c4.18,-24.02 7.18,-65.67 8.85,-125.02 1.99,28.68 6,69.35 12.17,122.02l97.17 489.83c1.66,8.16 6.5,12.17 14.67,12.17l53.15 0c8.85,0 13.83,-4.01 15.17,-12.17l82 -493.66c4.01,-23.84 7.51,-64.51 10.84,-122.02 0.68,27.67 3.68,68.34 9.35,122.02l91.65 501.15c1.34,7.84 4.33,11.67 8.85,11.67 1.66,0 3.98,-0.33 7.33,-0.98l51.84 -10.68c7.99,-1.99 12.15,-5.17 12.15,-9.32z"
   id="glyph20" />
   <glyph
   unicode="a"
   horiz-adv-x="462"
   d="M405.66 24.67c0,-2.02 -1.34,-3.5 -3.83,-4.84l-42.99 -26.84c-2.67,-1.99 -5.17,-3 -7.84,-3 -12.68,0 -25.35,21.02 -38.18,63 -42.84,-41.98 -90.67,-63 -143.01,-63 -40.32,0 -72.5,12.35 -96.16,36.84 -23.81,24.67 -35.66,57.98 -35.66,99.99 0,113 88,171.01 263.99,174l0 33.16c0,32 -7.16,54.83 -21.32,68.49 -14.16,13.68 -37.67,20.51 -70.69,20.51 -33.16,0 -72.98,-9.68 -119.14,-29 -2.67,-1.16 -5.01,-1.84 -6.85,-1.84 -3.65,0 -6,1.51 -6.83,4.84l-15.17 39.99 -0.98 7.69c0,4.99 8.82,11.31 26.81,19 41.35,18.17 85.86,27.32 133.36,27.32 103.82,0 155.81,-46.67 155.81,-140.16l0 -189c0,-55.34 8.85,-99.01 26.69,-131.34 1.34,-2.17 1.99,-4.16 1.99,-5.82zm-103.67 85.18l0 129c-124.66,-1.01 -186.98,-36.34 -186.98,-106.02 0,-23.49 6.83,-42.49 20.49,-57.33 13.66,-14.84 31.32,-22.33 52.67,-22.33 33.34,0 71.16,19 113.83,56.67z"
   id="glyph21" />
   <glyph
   unicode="b"
   horiz-adv-x="499"
   d="M449.99 272.01c0,-190.66 -60.83,-286.02 -182.65,-286.02 -46.34,0 -89.01,16.35 -128.17,49.19 -12.02,-30.19 -22.86,-45.18 -32.36,-45.18 -1.99,0 -4.49,1.01 -7.81,3l-43.02 26.84c-1.99,1.84 -3,3.5 -3,4.84 0.33,2.67 1.34,4.99 3,7.33 18.67,24.49 28,59.5 28,105.01l0 561.15c0,6.85 3.68,11.01 11.16,12.68l51.68 12.17c0.66,0.66 3,0.98 6.83,0.98 4.16,0 6.33,-3.65 6.33,-11.16l0 -268c47.35,32.84 91.85,49.16 133.33,49.16 104.5,0 156.67,-73.99 156.67,-221.98zm-82 -10.68c0,110.5 -29.84,165.69 -89.33,165.69 -32.48,0 -72.15,-16.35 -118.67,-48.84l0 -285.51c29.69,-25.83 64.33,-38.66 104,-38.66 69.35,0 104,69.17 104,207.32z"
   id="glyph22" />
   <glyph
   unicode="c"
   horiz-adv-x="408"
   d="M398.16 430.16l-0.98 -6.33 -22 -39.01c-2.49,-4.66 -5.17,-6.83 -7.84,-6.83 -2.85,0 -5.67,1.16 -8.16,3.83 -40.67,30.16 -74.99,45.18 -103.02,45.18 -80.82,0 -121.16,-62.02 -121.16,-185.85 0,-124.84 37.17,-187.16 111.33,-187.16 22.18,0 43.02,4.49 62.5,13.66 11.34,5.67 29.84,17.34 55.19,35.33 3,2.02 5.32,3 7.33,3 2.65,0 4.81,-1.99 6.83,-5.82l15.17 -38.18c1.66,-4.16 2.49,-7.48 2.82,-10.16 0,-4.51 -5.34,-10.66 -16,-18.5 -42.66,-31.5 -89.33,-47.35 -139.66,-47.35 -59.67,0 -106.17,21.52 -139.51,64.33 -33.34,43.02 -50,102.51 -50,178.67 0,82 18.17,146.69 54.51,194.01 36.16,47.33 85.83,70.99 148.65,70.99 44.18,0 85,-12.98 121.99,-38.98 14.67,-10.51 22,-18.67 22,-24.85z"
   id="glyph23" />
   <glyph
   unicode="d"
   horiz-adv-x="499"
   d="M448.5 23.66c0,-1.99 -1.84,-3.83 -5.34,-5.82l-45.01 -24.85c-1.99,-1.99 -4.49,-3 -7.81,-3 -12.02,0 -23.01,20.01 -33.19,59.85 -56.65,-42.51 -106.32,-63.86 -148.98,-63.86 -49.16,0 -87.52,23.01 -115.34,68.85 -27.85,45.84 -41.83,109.34 -41.83,190.33 0,76.66 16,137.34 48.16,181.99 32,44.5 75.67,66.83 131.01,66.83 34.5,0 71.16,-10.66 109.82,-31.98l0 236.15c0,6.17 3.33,10.33 10.18,12.68l51.66 12.17c1.34,0.66 3.5,0.98 6.33,0.98 4.51,0 6.83,-3.65 6.83,-11.16l0 -554.82c0,-52.16 8.34,-91.5 25.17,-118.16 5.49,-8.52 8.34,-13.83 8.34,-16.18zm-108.51 88l0 283.5c-36.99,21.17 -70.84,31.85 -101.5,31.85 -37.32,0 -64.16,-14.01 -80.66,-41.83 -16.48,-27.85 -24.82,-73.18 -24.82,-136.18 0,-69 7.16,-118.84 21.67,-149.33 14.31,-30.49 38.15,-45.66 71.16,-45.66 35,0 73,19.15 114.15,57.66z"
   id="glyph24" />
   <glyph
   unicode="e"
   horiz-adv-x="462"
   d="M432 241.01c0,-12.02 -3.65,-18.02 -11.16,-18.02l-287.83 0c5.17,-112.67 49.34,-168.99 132.32,-168.99 35.51,0 74.01,12 115.67,35.83 3.68,1.99 7.01,3 10.33,3 2.34,0 4.51,-1.66 6.83,-5.01l18.02 -38.98c1.34,-2.85 1.99,-5.17 1.99,-6.83 0,-7.33 -12,-16.68 -36.16,-27.67 -39.66,-18.85 -80.66,-28.35 -123,-28.35 -63.5,0 -114,22.86 -151.68,68.52 -37.5,45.84 -56.32,107.15 -56.32,184.34 0,77.99 17.84,139.98 53.5,186.15 35.83,46.01 83.84,69 144.17,69 83.66,0 139.83,-39.99 168.16,-120.15 10.18,-28.35 15.17,-72.5 15.17,-132.83zm-82 44c-2.34,98.66 -38,148 -107.33,148 -68.85,0 -105.33,-49.34 -109.67,-148l216.99 0z"
   id="glyph25" />
   <glyph
   unicode="f"
   horiz-adv-x="295"
   d="M341.66 688.83c0,-0.66 -0.66,-2.49 -1.99,-5.85l-16.51 -41c-1.34,-3.83 -3.83,-5.82 -7.33,-5.82 -2.67,0 -5.82,1.01 -9.83,3 -28.83,13.83 -54.51,20.84 -77.01,20.84 -25,0 -42.16,-9.83 -51.16,-29.33 -5.85,-11.67 -8.85,-36.16 -8.85,-73.68l0 -76.99 143.84 0c7.51,0 11.34,-2.34 11.34,-6.83 0,-2.67 -0.33,-4.69 -1.01,-6.35l-13.15 -39.99c-2.02,-5.82 -6.35,-8.85 -13.18,-8.85l-127.84 0 0 -405.82c0,-6.17 -0.98,-9.68 -3,-10.66 -1.81,-1.01 -4.49,-1.51 -7.81,-1.51l-53.35 0c-4.99,0 -7.99,0.83 -9.17,2.67 -1.16,1.84 -1.66,4.99 -1.66,9.5l0 405.82 -66.33 0c-5.85,0 -9.17,1.01 -10.18,3.02 -0.98,1.81 -1.49,4.66 -1.49,8.16l0 38.66c0,6.17 1.34,9.83 3.83,11.16 1.34,0.68 4.01,1.01 7.84,1.01l66.33 0 0 77.99c0,54.18 8.67,92.66 25.83,115.67 25.17,33.49 62.52,50.32 112.01,50.32 23.33,0 47.5,-3.98 72.5,-12 24.82,-7.84 37.32,-15.65 37.32,-23.16z"
   id="glyph26" />
   <glyph
   unicode="g"
   horiz-adv-x="499"
   d="M446.99 461.84c0,-2.17 -1.99,-6.5 -5.82,-12.68 -16.83,-26.33 -25.17,-60 -25.17,-101l0 -154.32c0,-47.17 1.66,-104.18 5.01,-171.01 1.31,-26.66 1.99,-45.66 1.99,-57 0,-117.83 -59.17,-176.83 -177.66,-176.83 -53.68,0 -103.67,12.32 -149.84,37.17 -12.17,6.15 -18.17,11.67 -18.17,16.51 0,0.98 0.66,3.48 1.99,7.33l17.99 40.14c1.01,3.86 3.02,5.85 5.85,5.85 2.34,0 4.99,-1.01 7.84,-3 47.17,-25.33 90.82,-38 131.16,-38 43.67,0 73.84,12.17 90.67,36.34 10.16,13.99 15.17,38.33 15.17,73 0,6.98 -0.35,24.17 -1.01,51.48l-1.01 52.01c-44.5,-36.51 -90.82,-54.83 -139,-54.83 -47.65,0 -85.5,19.83 -113.32,59.5 -27.85,39.84 -41.66,93.84 -41.66,162.16 0,83.01 16.48,147.02 49.32,192 32.84,44.86 79.51,67.33 140.16,67.33 40.67,0 80.84,-13.99 120.51,-41.83 12.17,30.52 21.5,45.84 28.35,45.84 3,0 5.49,-0.66 7.81,-1.99l46.01 -28.35c1.84,-0.83 2.82,-2.82 2.82,-5.82zm-105.99 -332.01l0 269.84c-36.99,18.82 -68.01,28.32 -93.34,28.32 -75.83,0 -113.65,-57.98 -113.65,-174.16 0,-60.83 6.98,-104.83 20.81,-132 14.01,-27.17 36.67,-40.85 68.17,-40.85 33.67,0 73,16.33 118.01,48.84z"
   id="glyph27" />
   <glyph
   unicode="h"
   horiz-adv-x="518"
   d="M436.01 12.17c0,-6.17 -1.01,-9.68 -3,-10.66 -1.84,-1.01 -4.66,-1.51 -8.16,-1.51l-52.67 0c-4.84,0 -8.01,0.83 -9.17,2.67 -1.34,1.84 -1.99,4.99 -1.99,9.5l0 332.16c0,31.17 -5.01,52.84 -14.84,65.17 -10,12.35 -28,18.5 -54.18,18.5 -36.82,0 -80.82,-20.99 -132,-62.82l0 -353c0,-6.17 -1.34,-9.83 -3.83,-11.16 -1.34,-0.68 -3.83,-1.01 -7.33,-1.01l-52.67 0c-4.84,0 -7.99,0.83 -9.17,2.67 -1.31,1.84 -1.99,4.99 -1.99,9.5l0 685.99c0,6.17 3.33,10.33 10.16,12.68l51.68 12.17c0.66,0.66 3,0.98 6.83,0.98 4.16,0 6.33,-3.65 6.33,-11.16l0 -284.66c48.51,43.82 100.17,65.82 154.85,65.82 53.5,0 89.48,-19.48 108.48,-58.49 8.49,-17.99 12.68,-48.84 12.68,-92.84l0 -330.49z"
   id="glyph28" />
   <glyph
   unicode="i"
   horiz-adv-x="258"
   d="M190.99 658.17c0,-16.83 -5.82,-31.32 -17.49,-43.34 -11.84,-11.82 -26.01,-17.82 -42.51,-17.82 -16.98,0 -31.32,5.82 -43.17,17.66 -11.82,11.67 -17.82,26.33 -17.82,43.49 0,16.66 6,30.84 17.99,42.51 12.17,11.49 26.66,17.31 44,17.31 16.18,0 30.16,-5.82 41.68,-17.66 11.49,-11.67 17.31,-25.83 17.31,-42.16zm-14.99 -645.99c0,-6.17 -0.83,-9.68 -2.67,-10.66 -1.81,-1.01 -4.49,-1.51 -8.16,-1.51l-53.32 0c-5.01,0 -8.01,0.83 -9.17,2.67 -1.16,1.84 -1.66,4.99 -1.66,9.5l0 405.82 -79.83 0c-5.85,0 -9.32,1.01 -10.51,3.02 -1.16,1.81 -1.66,4.66 -1.66,8.16l0 38.66c0,6.17 1.34,9.83 3.83,11.16 1.66,0.68 4.51,1.01 8.34,1.01l144.17 0c4.84,0 7.84,-0.83 9,-2.67 1.16,-1.84 1.66,-4.99 1.66,-9.5l0 -455.66z"
   id="glyph29" />
   <glyph
   unicode="k"
   horiz-adv-x="443"
   d="M429.18 36.01c0,-2.02 -1.69,-4.84 -5.34,-8.34l-41 -30.84c-3.33,-2.49 -5.85,-3.83 -7.84,-3.83 -1.34,0 -3.33,1.34 -5.82,3.83l-209.18 250.18 0 -234.84c0,-6.17 -1.34,-9.83 -3.83,-11.16 -1.34,-0.68 -3.83,-1.01 -7.33,-1.01l-52.67 0c-4.84,0 -7.99,0.83 -9.17,2.67 -1.31,1.84 -1.99,4.99 -1.99,9.5l0 685.99c0,6.17 3.33,10.33 10.16,12.68l51.68 12.17 6.83 0.98c4.16,0 6.33,-3.65 6.33,-11.16l0 -452.99 200.84 225.84c3.5,4.16 7.01,6.33 10.33,6.33 2.49,0 5.49,-1.49 8.67,-4.33l38.15 -25c3.35,-3.18 4.84,-6.17 4.84,-8.67 0,-2.67 -1.49,-5.82 -4.84,-9.32l-170.83 -186 178.67 -214.85c2.34,-1.99 3.35,-4.66 3.35,-7.81z"
   id="glyph30" />
   <glyph
   unicode="l"
   horiz-adv-x="258"
   d="M272.84 14.01c0,-5.17 -9.5,-10.51 -28.68,-16 -19.33,-5.34 -38,-8.01 -56.17,-8.01 -57.98,0 -91.98,23.33 -102.16,69.83 -3.18,15.35 -4.84,56.35 -4.84,123l0 516.34c0,6.83 3.68,10.66 10.84,11.67l51.51 12.17c0.5,0.66 2.82,0.98 6.83,0.98 3.83,0 5.85,-3.65 5.85,-11.16l0 -530.48c0,-51.84 0.83,-82.5 2.49,-92.36 3.15,-25.33 16.83,-37.98 40.82,-37.98 14.01,0 29,3.98 44.83,12 3.83,1.34 6.5,1.99 7.84,1.99 2.17,0 4.51,-2.34 6.83,-7.01l12.17 -37.17c1.16,-4.16 1.84,-6.83 1.84,-7.81z"
   id="glyph31" />
   <glyph
   unicode="n"
   horiz-adv-x="518"
   d="M436.99 12.17c0,-6.17 -0.98,-9.68 -3,-10.66 -1.81,-1.01 -4.66,-1.51 -8.16,-1.51l-52.67 0c-4.81,0 -7.99,0.83 -9.15,2.67 -1.34,1.84 -2.02,4.99 -2.02,9.5l0 332.99c0,55.16 -22,82.83 -66,82.83 -42.34,0 -86.33,-20.99 -132,-62.82l0 -353c0,-6.17 -1.01,-9.68 -3,-10.66 -1.84,-1.01 -4.66,-1.51 -8.16,-1.51l-52.67 0c-4.84,0 -8.01,0.83 -9.17,2.67 -1.34,1.84 -1.99,4.99 -1.99,9.5l0 342.67c0,36.49 -6.35,68.49 -19,96.16 -1.01,2.67 -1.66,4.51 -2.02,5.85 0,3 1.69,4.81 4.84,5.82l45.51 25.83c3.15,2.34 5.82,3.5 7.66,3.5 12.83,0 23.01,-22 30.84,-66.17 56.65,45.51 110.32,68.17 161,68.17 49.49,0 83.49,-16.15 102.16,-48.33 11.34,-19.15 16.98,-52.67 16.98,-100.5l0 -332.99z"
   id="glyph32" />
   <glyph
   unicode="o"
   horiz-adv-x="499"
   d="M449.99 243.18c0,-81.02 -18.17,-144.17 -54.33,-189.35 -36.16,-45.16 -86.49,-67.84 -151,-67.84 -61.34,0 -108.84,22.18 -142.83,66.35 -33.84,44.33 -50.83,106.17 -50.83,185.5 0,80.99 18.17,143.99 54.33,188.82 36.16,44.86 86.51,67.33 151,67.33 60.68,0 108.16,-22.15 142.33,-66.65 34.17,-44.33 51.33,-105.84 51.33,-184.16zm-82 0.98c0,124.51 -39.49,186.83 -118.49,186.83 -77.67,0 -116.5,-60.98 -116.5,-183 0,-68.82 10.33,-120.66 31,-155.15 17.49,-29.18 46.67,-43.85 87.49,-43.85 39.19,0 67.33,14.01 84.49,42.01 21.34,34.5 32,85.5 32,153.16z"
   id="glyph33" />
   <glyph
   unicode="p"
   horiz-adv-x="499"
   d="M449.99 250.01c0,-82 -14.82,-146.51 -44.5,-193.51 -29.81,-47 -70.33,-70.51 -121.99,-70.51 -37.5,0 -76.99,14.67 -118.49,43.85l0 -214c0,-7.18 -3,-11.34 -9.17,-12.68l-52.67 -14.16c-2.34,-0.68 -4.16,-1.01 -5.85,-1.01 -4.81,0 -7.33,3.5 -7.33,10.66l0 543c0,43.67 -6.65,76 -20.16,97.17 -6.5,10.84 -9.83,17.16 -9.83,19.18 0,2.17 1.01,3.83 3,4.84l42.99 30.16c2.02,1.99 4.51,3 7.84,3 10.84,0 23.18,-20.01 37.17,-60 50.5,38.66 98.68,57.98 144.34,57.98 58.16,0 98.48,-23.16 121.34,-69.32 22.15,-44.18 33.31,-102.49 33.31,-174.66zm-82 -2.02c0,57.18 -4.99,99.51 -15.17,127.18 -12.32,34.5 -36.31,51.84 -72.15,51.84 -29.69,0 -68.17,-16.35 -115.67,-48.84l0 -282.16c41.66,-28.02 77.99,-42.01 108.84,-42.01 34.15,0 58.31,14.84 72.65,44.5 14.34,29.66 21.5,79.51 21.5,149.48z"
   id="glyph34" />
   <glyph
   unicode="r"
   horiz-adv-x="332"
   d="M333.17 477.99c0,-1.66 -0.66,-3.98 -1.99,-6.83l-24.02 -56.17c-0.98,-1.81 -2.67,-2.82 -5.32,-2.82 -0.35,0 -5.85,1.66 -16.68,4.84 -6.83,1.34 -12.5,1.99 -16.98,1.99 -22.18,0 -55.19,-25.33 -99.19,-76.15l0 -330.67c0,-6.17 -0.98,-9.68 -3,-10.66 -1.81,-1.01 -4.49,-1.51 -7.81,-1.51l-53.35 0c-4.99,0 -7.99,0.83 -9.17,2.67 -1.16,1.84 -1.66,4.99 -1.66,9.5l0 299.83c0,34.67 -0.83,57.51 -2.32,68.34 -3,22.65 -10.18,44.5 -21.85,65.32 -2.49,4.84 -3.83,8.34 -3.83,10.33 0,3.86 1.66,6.85 4.84,8.67l42.01 26.33c3.33,2.02 6,3 8.32,3 5.85,0 12.85,-8.67 20.84,-25.98 7.84,-17.51 13.66,-36.34 17.34,-56.85 31.17,35 54.33,57.68 69.5,67.69 15.17,10.16 33.34,15.15 54.51,15.15 11.31,0 22.48,-1.81 33.31,-5.32 11.01,-3.68 16.51,-7.18 16.51,-10.68z"
   id="glyph35" />
   <glyph
   unicode="s"
   horiz-adv-x="389"
   d="M348.99 127.99c0,-42.31 -14.67,-76.48 -44,-102.66 -29.16,-26.16 -67.66,-39.34 -115.16,-39.34 -54.33,0 -103.67,13 -148,39.01 -3.83,2.34 -5.82,5.34 -5.82,9.32 0,0.86 0.33,2.17 0.98,3.86l19 43.82c1.01,2.67 3,4.01 5.85,4.01 1.34,0 3.98,-0.68 7.84,-2.02 45.66,-22.65 86.33,-33.99 122.17,-33.99 24.17,0 43.49,6.68 58.16,20.01 14.67,13.33 22,30.82 22,52.16 0,31 -21.34,56.32 -64.01,76.15 -55.84,25.68 -93.16,46.17 -111.66,61.51 -30.84,25.33 -46.34,57 -46.34,95.15 0,40.67 14.16,74.01 42.66,100.02 28.5,26.01 65.02,38.98 109.52,38.98 25.98,0 53.98,-4.81 83.81,-14.67 30.01,-9.65 45.01,-18.82 45.01,-27.32 0,-1.84 -0.66,-4.33 -1.99,-7.18l-18.02 -36.67c-2.49,-4.16 -5.64,-6.33 -9.15,-6.33 0,0 -2.67,0.66 -7.84,1.99 -36.34,17.51 -67.33,26.18 -93.16,26.18 -50.5,0 -75.85,-22.5 -75.85,-67.33 0,-20.18 6.68,-36.51 20.01,-48.84 9,-8.34 43.82,-27.49 104.33,-57 37.02,-17.99 62.85,-36.34 77.51,-55.49 14.82,-19 22.15,-43.52 22.15,-73.36z"
   id="glyph36" />
   <glyph
   unicode="t"
   horiz-adv-x="332"
   d="M342.99 29.66c0,-7.84 -15.17,-16.33 -45.66,-25.65 -30.49,-9.35 -58.49,-14.01 -84.34,-14.01 -62.5,0 -101,24.34 -115.67,72.83 -4.16,13.68 -6.33,38 -6.33,73.36l0 281.81 -70.84 0c-8.16,0 -12.17,3.68 -12.17,11.19l0 38.66c0,6.17 1.34,9.83 3.86,11.16 1.66,0.68 4.49,1.01 8.32,1.01l70.84 0 0 137.16c0,6.83 3.33,11.16 10.18,12.68l51.66 14.16c3.65,1.34 5.67,1.99 6.33,1.99 4.51,0 6.83,-4.01 6.83,-12.17l0 -153.82 150.17 0c6.17,0 9.17,-2.34 9.17,-6.83 0,-1.66 -0.33,-3.68 -0.98,-6.35l-11.19 -38.48c-1.99,-6.85 -6.65,-10.36 -14.16,-10.36l-133 0 0 -281.15c0,-31.83 3.35,-52.16 9.85,-60.83 10.33,-13.33 27.17,-20.01 50.32,-20.01 20.84,0 50.83,8.01 89.84,24.17 3.33,1.18 5.82,1.84 7.48,1.84 3.5,0 5.85,-1.99 6.85,-5.82l10.66 -41.18c1.34,-2.85 1.99,-4.66 1.99,-5.34z"
   id="glyph37" />
   <glyph
   unicode="u"
   horiz-adv-x="499"
   d="M451 23.01c-0.66,-0.83 -2.17,-2.49 -4.51,-4.84l-44.83 -29.18c-3,-1.99 -5.32,-3 -6.83,-3 -10.84,0 -22.5,20.01 -35.15,59.85 -51.84,-39.84 -101.83,-59.85 -150.01,-59.85 -91.17,0 -136.66,44.68 -136.66,134.19l0 344.48c0,6.85 3.33,11.34 9.83,13.18l52.01 14.16c2.49,0.66 4.66,1.01 6.33,1.01 4.49,0 6.83,-3.68 6.83,-11.16l0 -312.17c0,-43.85 5.17,-74.16 15.67,-90.84 10.33,-16.48 29.16,-24.82 56.5,-24.82 43.49,0 85.5,16.98 125.82,50.83l0 359.83c0,7.18 3.18,11.52 9.68,13.18l52.84 14.16c2.14,0.66 4.16,1.01 5.64,1.01 4.51,0 6.85,-3.68 6.85,-11.16l0 -349.02c0,-43.17 9,-77.49 26.99,-102.84 1.99,-2.65 3,-4.99 3,-6.98z"
   id="glyph38" />
   <glyph
   unicode="v"
   horiz-adv-x="425"
   d="M423 466.67c0,-1.34 -0.68,-3.68 -1.99,-6.83l-182.17 -458c-2.17,-5.85 -6.5,-8.85 -12.68,-8.85l-38.18 0c-6.5,0 -10.81,3 -13.15,8.85l-168.84 460.83c-1.34,2.67 -1.99,4.66 -1.99,6.33 0,3.83 3.5,6.5 10.33,7.84l58.99 13.18 3 0c3.18,0 5.85,-3.18 7.66,-9.35l107 -326.82c2.02,-4.33 4.33,-11.34 7.33,-21.02l11.67 -41.98c5.34,20.49 11.67,41 19.18,61.81l119.17 328.18c1.84,6.17 4.49,9.17 7.66,9.17 1.34,0 3.33,-0.35 6,-1.01l52.16 -14.16c5.85,-1.51 8.85,-4.33 8.85,-8.16z"
   id="glyph39" />
   <glyph
   unicode="w"
   horiz-adv-x="610"
   d="M600.16 469.5c0,-1.34 -0.33,-2.82 -0.98,-4.49l-1.01 -2.85 -132.32 -459.34c-1.84,-6.5 -5.85,-9.83 -11.67,-9.83l-39.01 0c-6.17,0 -10.33,3.33 -12.32,9.83l-78.5 303.35c-3.35,11.67 -6.02,25.98 -8.34,42.99l-2.02 14.67 -2.82 20.99c-3.33,-29.99 -8.34,-55.82 -15.17,-77.67l-93.82 -305.32c-1.84,-5.85 -6.35,-8.85 -13.18,-8.85l-36.99 0c-6.17,0 -10.18,3.33 -11.84,9.83l-115.16 458.84c-0.66,2.67 -1.01,4.51 -1.01,5.85 0,4.66 3.18,7.33 9.35,8.32l50.65 12.68c2.67,1.01 4.69,1.51 6,1.51 3.86,0 6.68,-3.35 8.19,-10.18l70.81 -347c0.68,-2.67 3,-15.5 6.85,-38.66 0.98,6 5.32,24.17 13.15,54.83l95.33 324.17c1.51,5.82 5.49,8.82 11.67,8.82l39.99 0c6.5,0 10.68,-3 12.17,-8.82l89.01 -376 2.85 13.66 4.81 25.5 85 343.82c1.69,5.85 4.51,8.85 8.34,8.85 1.66,0 3.5,-0.33 5.85,-1.01l45.99 -10.66c6.83,-1.66 10.16,-4.33 10.16,-7.84z"
   id="glyph40" />
   <glyph
   unicode="z"
   horiz-adv-x="407"
   d="M389.84 60c0,-2.34 -0.5,-4.99 -1.84,-8.34l-19.18 -42.66c-1.81,-6 -6.33,-9 -13.15,-9l-312 0c-7.84,0 -11.67,4.01 -11.67,12.17l0 39.66 253.01 365.17 -221.35 0c-7.16,0 -10.66,3.65 -10.66,11.16l0 41.18c0,7.16 3.5,10.66 10.66,10.66l304.34 0c4.84,0 7.84,-0.83 9,-2.49 1.18,-1.51 1.69,-4.33 1.69,-8.16l0 -42.51 -249 -360.83 249 0c4.81,0 7.99,-0.33 9.32,-1.16 1.34,-0.83 1.84,-2.49 1.84,-4.84z"
   id="glyph41" />
  </font>
  <font
   id="FontID0"
   horiz-adv-x="556"
   font-variant="normal"
   style="fill-rule:nonzero"
   font-style="normal"
   font-weight="700">
	<font-face
   font-family="Officina Sans OS ITC TT"
   id="font-face41">
		<font-face-src>
			<font-face-name
   name="Officina Sans OS ITC TT Fett" />
		</font-face-src>
	</font-face>
   <missing-glyph
   id="missing-glyph41"><path
     d="M0 0z"
     id="path41" /></missing-glyph>
   <glyph
   unicode="1"
   horiz-adv-x="537"
   d="M460 20.99c0,-9.32 -1.16,-15.32 -3.33,-17.49 -2.34,-2.34 -8.16,-3.5 -17.66,-3.5l-293 0c-9,0 -14.84,1.16 -17.34,3.5 -2.34,2.17 -3.68,8.16 -3.68,17.49l0 51c0,12 3.18,18.67 9.35,20.01 2.49,0.66 6.5,1.01 11.67,1.01l95 0 0 347.98 -80.01 -44.5c-5.17,-3 -8.85,-4.33 -11.16,-4.33 -4.18,0 -8.67,4.18 -13.66,12.68l-26.33 45.33c-2.52,4.51 -3.86,8.82 -3.86,12.68 0,5.49 3.86,10.84 11.34,16.15l159.99 115.99 69.68 0c11.67,0 18.35,-3 20.01,-8.82 0.66,-2.49 0.98,-6.33 0.98,-11.16l0 -481.99 71.16 0c11.67,0 18.35,-3.02 19.83,-8.85 0.68,-2.49 1.01,-6.68 1.01,-12.17l0 -51z"
   id="glyph42" />
   <glyph
   unicode="2"
   horiz-adv-x="537"
   d="M471.01 435.32c0,-47 -13.33,-86.99 -40.02,-120.15 -12.32,-14.99 -24.65,-27.17 -36.99,-36.67 -12.32,-9.5 -39.99,-27.17 -83.01,-53.17 -40.65,-24.85 -67.16,-44.33 -79.66,-58.66 -12.68,-14.34 -19.66,-32.51 -21.34,-54.68l234 0c12,0 18.67,-3 20.01,-8.82 0.66,-2.49 1.01,-6.68 1.01,-12.17l0 -70c0,-11.67 -3,-18.32 -8.85,-19.98 -2.67,-0.68 -6.65,-1.01 -12.17,-1.01l-360 0c-9.32,0 -14.16,4.66 -14.16,14.16l0 7.84c0,62.82 9.17,111.16 27.34,145 25.5,47.83 75.32,95.18 149.84,142.18 44.98,28.32 72,47.65 80.99,57.98 14.67,17.01 22,37.35 22,61.18 0,49.82 -28,74.67 -83.99,74.67 -41.5,0 -74.34,-28.68 -98,-86.01 -4.18,-10.18 -9.35,-15.17 -15.17,-15.17 -1.99,0 -5.49,1.01 -10.66,3l-64.01 24.34c-8.16,3 -12.17,7.81 -12.17,14.67 0,11.49 5.49,28 16.66,49.67 11.01,21.65 23.18,40.14 36.51,55.49 37.82,43.34 91.32,64.99 160.5,64.99 57.66,0 103.82,-16.33 138.83,-48.81 35,-32.51 52.52,-75.85 52.52,-129.85z"
   id="glyph43" />
   <glyph
   unicode="3"
   horiz-adv-x="537"
   d="M465.01 117.18c0,-62.52 -23.69,-113.68 -70.84,-153.34 -42.34,-35.18 -95,-52.84 -158.18,-52.84 -57.66,0 -111.16,11.01 -160.67,32.68 -19.48,8.82 -29.33,16.15 -29.33,22 0,1.99 0.68,5.49 2.02,10.33l19.98 71.82c1.69,6.17 5.34,9.35 11.19,9.35 2.32,0 5.49,-1.01 9.83,-3.02 51,-24.82 96.49,-37.14 136.15,-37.14 73.84,0 110.83,35.66 110.83,107 0,66.65 -41.98,99.99 -126,99.99l-29.66 0c-12.17,0 -18.82,3 -19.98,8.85 -0.68,2.49 -1.01,6.65 -1.01,12.15l0 66c0,11.67 2.82,18.35 8.67,20.01 2.67,0.68 6.83,1.01 12.32,1.01l31.68 0c33.34,0 57.66,5.67 73.33,17.16 23.16,17.16 34.67,42.84 34.67,76.66 0,25.17 -7.51,45.33 -22.5,60.5 -15.02,15.17 -34.85,22.68 -59.5,22.68 -32.36,0 -62.17,-17.01 -90.01,-51 -5.49,-6.5 -9.83,-9.68 -13.15,-9.68 -1.84,0 -4.84,1.18 -8.67,3.83l-55.34 49.85c-3.18,3 -4.84,6.33 -4.84,10.33 0,7.16 7.01,18.32 20.99,33.67 41,45.33 93.84,67.99 158.18,67.99 58.99,0 106.49,-16.33 142.66,-49.16 36.19,-32.66 54.18,-75.5 54.18,-128.67 0,-68.64 -31.5,-118.31 -94.68,-148.98 78.5,-25.35 117.68,-82 117.68,-170z"
   id="glyph44" />
   <glyph
   unicode="4"
   horiz-adv-x="537"
   d="M500.34 64.01c0,-11.67 -3.18,-18.35 -9.35,-20.01 -2.65,-0.66 -6.5,-1.01 -11.82,-1.01l-57.18 0 0 -129c0,-9.5 -1.16,-15.32 -3.33,-17.49 -2.34,-2.34 -8.16,-3.5 -17.66,-3.5l-83.01 0c-11.67,0 -18.32,3.18 -19.98,9.32 -0.68,2.52 -1.01,6.5 -1.01,11.67l0 129 -244.99 0c-9.5,0 -15.35,1.01 -17.69,3.18 -2.17,2.17 -3.33,7.66 -3.33,16.83l0 105.01 249 416.83c5.17,8.82 10,13.15 14.16,13.15 2.67,0 7.01,-1.31 13.18,-3.83l60.18 -26.48c9.65,-4.18 14.49,-8.34 14.49,-12.68 0,-3.18 -1.84,-8.34 -5.85,-15.17l-232.82 -395.84 155.66 0 13 161.18c0.68,8.82 2.17,14.34 4.66,16.66 2.49,2.17 7.84,3.35 16.33,3.35l68.01 0c12,0 18.67,-3 20.01,-9.17 0.66,-2.67 0.98,-6.68 0.98,-11.84l0 -163.17 57.18 0c9.5,0 15.32,-1.34 17.66,-3.83 2.32,-2.67 3.5,-9.32 3.5,-19.98l0 -53.17z"
   id="glyph45" />
   <glyph
   unicode="5"
   horiz-adv-x="537"
   d="M486 154.83c0,-73.33 -23.84,-132.32 -71.34,-176.83 -47.5,-44.68 -110.32,-67.01 -188.49,-67.01 -51.16,0 -100.17,9 -147.17,26.84 -12,4.66 -17.99,11.01 -17.99,19.18 0,3.83 0.33,7.48 0.98,10.66l14.19 73.33c0.98,5.82 3.83,8.85 8.82,8.85 1.84,0 4.51,-0.68 7.66,-2.02 46.01,-17.84 88.35,-26.84 127.51,-26.84 44.83,0 80.84,12.02 108.01,36.19 27.17,24.17 40.82,55.99 40.82,95.81 0,70.69 -33.34,106.02 -99.99,106.02 -41,0 -74.34,-15.35 -100.17,-46.01 -4.84,-6 -9.5,-8.82 -14.16,-8.82 0,0 -3.18,1.01 -9.68,2.82l-60 18.17c-10.84,3.18 -16.15,7.69 -16.15,13.68 0,3.5 0.33,6.98 0.98,10.16l31.17 329.01c0.66,8.49 2.17,13.66 4.51,15.83 2.17,2.17 7.81,3.18 16.48,3.18l293 0c11.67,0 18.35,-3 20.01,-9.17 0.68,-2.67 1.01,-6.5 1.01,-11.84l0 -66.98c0,-8.52 -1.18,-14.01 -3.68,-16.35 -2.49,-2.49 -8.16,-3.65 -17.34,-3.65l-205.98 0 -18.17 -156.01c28.65,19.35 63.15,29 103.17,29 56.67,0 102.84,-19.15 138.5,-57.33 35.66,-38.33 53.5,-88.32 53.5,-149.84z"
   id="glyph46" />
   <glyph
   unicode="6"
   horiz-adv-x="537"
   d="M487.99 235.01c0,-85.68 -23.33,-150.85 -69.83,-195.85 -38.83,-37.5 -87.49,-56.17 -146.16,-56.17 -69,0 -121.84,25.35 -158.33,75.85 -36.51,50.65 -54.68,123.65 -54.68,218.99 0,124.01 26.69,223.02 79.83,297.18 53.17,73.99 124.66,111 214.17,111 25.68,0 49.49,-3.5 71.16,-10.51 21.85,-7.01 32.84,-14.52 32.84,-22.68 0,-2.65 -0.66,-5.49 -1.99,-8.82l-21.02 -69.83c-0.98,-5.52 -3.65,-8.16 -8.32,-8.16 -1.01,0 -3.18,0.48 -6.83,1.81 -23.33,8.85 -44.68,13.18 -64.01,13.18 -85.5,0 -141.17,-55.01 -167,-165.01 35,34.67 73.99,52.01 117.33,52.01 45.66,0 85,-15.35 117.83,-45.84 43.34,-40.5 64.99,-102.84 64.99,-187.16zm-120.98 -3.86c0,87.85 -29.18,131.84 -87.34,131.84 -59.17,0 -88.68,-44.68 -88.68,-133.84 0,-90.84 28.35,-136.15 84.85,-136.15 28.65,0 51,12.15 67.01,36.67 16.15,24.32 24.17,58.16 24.17,101.48z"
   id="glyph47" />
   <glyph
   unicode="7"
   horiz-adv-x="537"
   d="M464.83 537.01l-225.99 -608.85c-4.01,-10.81 -9.17,-16.15 -15.67,-16.15 -1.34,0 -4.51,0.66 -9.32,1.99l-84.02 14.16c-12,1.84 -17.99,6.17 -17.99,12.68 0,1.99 1.49,6.33 4.33,13.18l206.66 524.99 -239.83 0c-11.67,0 -18.35,3.18 -20.01,9.35 -0.66,2.49 -1.01,6.48 -1.01,11.64l0 76c0,11.67 3.18,18.35 9.35,20.01 2.49,0.68 6.5,1.01 11.67,1.01l360.83 0c12,0 18.65,-3.18 19.98,-9.35 0.68,-2.49 1.01,-6.5 1.01,-11.67l0 -38.98z"
   id="glyph48" />
   <glyph
   unicode="8"
   horiz-adv-x="537"
   d="M503.01 176.83c0,-44 -15.67,-83.81 -47.02,-119.65 -42.99,-49.52 -106.49,-74.19 -190.48,-74.19 -70.51,0 -125.34,15.67 -164.5,46.85 -45.33,36.49 -67.99,84.49 -67.99,143.99 0,84.02 47.15,143.51 141.65,178.16 -77.82,34.02 -116.65,87.01 -116.65,159.19 0,49.49 20.16,91 60.66,124.49 40.5,33.52 90.84,50.35 150.85,50.35 59.65,0 109.32,-16.68 148.98,-50.02 39.66,-33.31 59.5,-74.99 59.5,-124.81 0,-63.68 -38.48,-116.17 -115.49,-157.17 93.67,-40.34 140.51,-99.34 140.51,-177.18zm-152 320.16c0,25.5 -7.69,46.17 -23.01,62.02 -15.5,16 -35.51,23.99 -60.5,23.99 -23.99,0 -43.67,-7.84 -59.17,-23.66 -15.5,-15.83 -23.33,-35.83 -23.33,-60.33 0,-23.18 6.5,-42.01 19.35,-56.85 12.98,-14.82 35.66,-29.16 67.99,-43.14 52.49,22.33 78.67,55.16 78.67,97.98zm25 -315.83c0,40.34 -18.35,71.67 -55.01,93.84 -12.32,7.33 -31.65,17.16 -58.34,29.16 -68.49,-32.48 -102.66,-73.48 -102.66,-123 0,-29 9.83,-51.99 29.51,-69.32 19.5,-17.16 45.51,-25.83 77.99,-25.83 31.83,0 57.83,8.82 78.17,26.66 20.16,17.66 30.34,40.5 30.34,68.49z"
   id="glyph49" />
   <glyph
   unicode="A"
   horiz-adv-x="556"
   d="M551.82 11.16c0,-7.48 -6.5,-11.16 -19.48,-11.16l-109.34 0c-8.49,0 -13.83,0.83 -16.18,2.49 -2.32,1.51 -4.49,6.5 -6.83,14.52l-42.99 164 -169.01 0 -42.81 -164c-2.34,-8.01 -4.51,-13 -6.35,-14.52 -1.99,-1.66 -7.16,-2.49 -15.65,-2.49l-99.19 0c-13.33,0 -19.98,3.68 -19.98,11.16 0,1.99 0.98,6.17 3,12.83l197.16 644.84c2.34,8.16 4.51,13.18 6.65,14.67 2.02,1.66 7.18,2.52 15.35,2.52l104 0c7.84,0 12.83,-0.86 14.84,-2.52 2.17,-1.49 4.49,-6.5 7.16,-14.67l196.83 -644.84c1.84,-6.65 2.82,-10.84 2.82,-12.83zm-220.65 262.83l-37.17 171.33c-6.17,28.5 -14.52,73.66 -24.85,135.68 -7.48,-47.35 -16.15,-92.51 -25.83,-135.68l-40.17 -171.33 128.01 0z"
   id="glyph50" />
   <glyph
   unicode="B"
   horiz-adv-x="574"
   d="M525.01 193.84c0,-36.84 -9.02,-71.34 -27.17,-103.5 -18.02,-32.18 -41.18,-55.34 -69.5,-69.35 -28.35,-13.99 -79.18,-20.99 -152.33,-20.99l-170.02 0c-9.5,0 -15.32,1.16 -17.49,3.33 -2.34,2.34 -3.5,8.16 -3.5,17.66l0 644c0,11.67 3.18,18.35 9.32,20.01 2.52,0.66 6.5,1.01 11.67,1.01l162.19 0c41,0 68.82,-0.86 83.34,-2.52 31.98,-3.83 58.16,-12.65 78.65,-26.33 46.52,-31.5 69.83,-80.66 69.83,-147.49 0,-70.16 -33.64,-120.51 -100.98,-150.82 39.99,-10.33 70.99,-30.01 92.99,-59.02 22,-29 33.01,-64.33 33.01,-105.99zm-158 301.84c0,36.82 -13,63.15 -39.01,78.65 -12.32,7.18 -32.33,10.68 -59.82,10.68l-53.17 0 0 -184.01 41.83 0c36.84,0 62.82,5.67 77.99,16.98 21.5,15.52 32.18,41.5 32.18,77.69zm19.98 -293.35c0,34.5 -9.5,58.99 -28.32,73.68 -18.82,14.67 -50.32,22 -94.5,22l-49.16 0 0 -189.02 47.33 0c44.83,0 76.83,7.18 96.01,21.52 19.15,14.31 28.65,38.33 28.65,71.82z"
   id="glyph51" />
   <glyph
   unicode="E"
   horiz-adv-x="481"
   d="M460 674.82c0,-1.99 -0.66,-6.33 -1.99,-12.83l-20.01 -67.84c-3.18,-11.49 -10.51,-17.16 -22,-17.16l-193.99 0 0 -164 167.15 0c11.67,0 18.35,-3.18 20.01,-9.32 0.66,-2.52 1.01,-6.5 1.01,-11.67l0 -67.01c0,-12 -3,-18.67 -9.35,-20.01 -2.49,-0.66 -6.5,-0.98 -11.67,-0.98l-167.15 0 0 -195.02 210.17 0c11.67,0 18.32,-3 19.98,-8.82 0.68,-2.49 1.01,-6.68 1.01,-12.17l0 -67.01c0,-9.5 -1.16,-15.32 -3.5,-17.49 -2.17,-2.34 -7.99,-3.5 -17.49,-3.5l-326.19 0c-9.5,0 -15.32,1.16 -17.66,3.33 -2.17,2.34 -3.33,8.16 -3.33,17.66l0 644c0,9.5 1.16,15.35 3.5,17.66 2.17,2.17 7.99,3.35 17.49,3.35l334.02 0c13.33,0 19.98,-3.68 19.98,-11.19z"
   id="glyph52" />
   <glyph
   unicode="F"
   horiz-adv-x="444"
   d="M460 674.82c0,0.5 -0.66,-3.65 -1.99,-12.83l-20.01 -67.84c-3.18,-11.49 -10.51,-17.16 -22,-17.16l-193.99 0 0 -164 167.15 0c11.67,0 18.35,-3.18 20.01,-9.32 0.66,-2.52 1.01,-6.5 1.01,-11.67l0 -67.01c0,-12 -3,-18.67 -9.35,-20.01 -2.49,-0.66 -6.5,-0.98 -11.67,-0.98l-167.15 0 0 -283.02c0,-11.67 -3.18,-18.32 -9.35,-19.98 -2.49,-0.68 -6.5,-1.01 -11.67,-1.01l-95 0c-9.5,0 -15.32,1.16 -17.66,3.33 -2.17,2.34 -3.33,8.16 -3.33,17.66l0 644c0,9.5 1.16,15.35 3.5,17.66 2.17,2.17 7.99,3.35 17.49,3.35l334.02 0c13.33,0 19.98,-3.68 19.98,-11.19z"
   id="glyph53" />
   <glyph
   unicode="M"
   horiz-adv-x="704"
   d="M636.34 13.15c0,-8.82 -7.01,-13.15 -21.02,-13.15l-90.32 0c-8.34,0 -14.01,1.16 -16.51,3.33 -2.67,2.34 -4.18,7.84 -4.51,16.68l-6.83 387.17c0,35.15 0.33,71.82 1.01,110 -14.52,-65.17 -27.01,-113.5 -37.02,-145.18l-63.83 -205c-2.32,-7.51 -4.49,-12 -6.83,-13.66 -2.32,-1.66 -7.66,-2.49 -16,-2.49l-60.98 0c-8.16,0 -13.18,0.98 -15.35,2.65 -2.17,1.84 -4.33,6.68 -6.5,14.52l-56.17 194.82c-10.99,39.01 -23.16,90.52 -36.49,154.35l0 -157.35 -8.01 -339.82c0,-8.85 -1.31,-14.34 -3.83,-16.68 -2.65,-2.17 -8.32,-3.33 -17.16,-3.33l-80.99 0c-13.33,0 -20.01,4.84 -20.01,14.49l0 5.52 29.33 645.99c0.68,13.33 7.66,20.01 21.02,20.01l98.66 0c11.34,0 18.82,-5.34 22.33,-16.18l79.68 -252.83c6.83,-20.84 15.98,-59.35 27.32,-115.16 12.68,47.83 24.02,86.49 33.67,116.15l85 251.85c2.67,7.51 5.01,12.17 7.01,13.66 2.17,1.66 7.16,2.52 14.99,2.52l94.17 0c8.49,0 14.01,-1.18 16.68,-3.35 2.49,-2.32 3.98,-7.84 4.31,-16.66l33.19 -652.85z"
   id="glyph54" />
   <glyph
   unicode="O"
   horiz-adv-x="574"
   d="M534.99 351.01c0,-245.34 -83.66,-368.02 -250.99,-368.02 -162.66,0 -244.01,121.01 -244.01,363.18 0,139.66 29.33,237.83 87.85,294.84 42.66,41.33 97.32,61.99 164,61.99 71.34,0 127.66,-23.84 168.99,-71.34 49.52,-56.5 74.16,-150.17 74.16,-280.65zm-143.99 -11.16c0,170.15 -35,255.15 -105.01,255.15 -67.99,0 -101.98,-84.32 -101.98,-253.16 0,-167.17 34.32,-250.84 102.99,-250.84 69.32,0 104,83.01 104,248.85z"
   id="glyph55" />
   <glyph
   unicode="R"
   horiz-adv-x="556"
   d="M544.01 22c0,-4.84 -5.34,-9 -16.18,-12.17l-88.83 -24.82c-7.33,-2.02 -11.34,-3 -12.35,-3 -4.49,0 -9.15,4.66 -13.66,14.16l-141.17 284.83 -52.82 0 0 -260.01c0,-11.67 -3.18,-18.32 -9.35,-19.98 -2.49,-0.68 -6.5,-1.01 -11.67,-1.01l-92 0c-9.5,0 -15.32,1.16 -17.66,3.68 -2.17,2.49 -3.33,9.15 -3.33,20.31l0 641c0,9.5 1.16,15.35 3.5,17.66 2.17,2.17 7.99,3.35 17.49,3.35l163.02 0c67.48,0 116.83,-8.67 148,-25.85 56.67,-31.65 85,-88.65 85,-171.33 0,-87.67 -37.35,-151.15 -111.84,-190.99l149.01 -260.67c3.15,-5.85 4.84,-10.84 4.84,-15.17zm-178.01 468.66c0,35.33 -7.84,60 -23.66,73.66 -15.85,13.83 -44,20.69 -84.85,20.69l-38.48 0 0 -198.02 27.82 0c44,0 74.84,7.69 92.51,23.18 17.82,15.32 26.66,42.16 26.66,80.49z"
   id="glyph56" />
   <glyph
   unicode="S"
   horiz-adv-x="481"
   d="M451.99 194.01c0,-61.82 -20.16,-112.02 -60.31,-150.33 -40.19,-38.51 -92.67,-57.69 -157.85,-57.69 -40.32,0 -85.14,7.19 -134.67,21.5 -49.49,14.35 -74.15,27.18 -74.15,38.51 0,2.02 0.67,5.68 2.02,11.16l33.16 85.85c2.32,6.01 5.14,8.84 8.84,8.84 2.15,0 5.31,-1.01 9.14,-2.82 59.67,-32.69 110.68,-49.02 153.01,-49.02 59.84,0 89.85,27.69 89.85,82.99 0,25 -7.02,45.36 -21,61.02 -13.34,14.65 -51.34,37.67 -113.84,68.85 -59.84,29.97 -100.83,58.67 -123.01,86.15 -22.18,27.48 -33.16,63.34 -33.16,107.65 0,59.17 19.82,106.34 59.34,141.19 39.48,34.84 92.84,52.15 159.83,52.15 39.31,0 80.98,-7.16 124.99,-21.64 43.85,-14.52 65.82,-28.19 65.82,-41.19 0,-1.31 -0.97,-4.17 -2.82,-8.33l-36.15 -75.67c-2.35,-4.84 -5.34,-7.32 -8.84,-7.32 -2.35,0 -15.36,6.18 -39.18,18.18 -34.17,17.34 -67.5,26.01 -100.16,26.01 -28.02,0 -50.16,-6.52 -66.33,-19.52 -16.33,-13 -24.53,-30.81 -24.53,-53.16 0,-25.17 13,-46.17 39.01,-63 9.51,-6.35 44.52,-24.66 105,-55.34 51.51,-25.67 88.67,-54.67 111.52,-86.82 22.98,-32.19 34.47,-71.67 34.47,-118.17z"
   id="glyph57" />
   <glyph
   unicode="a"
   horiz-adv-x="481"
   d="M439.84 28c0,-4.66 -2.67,-7.84 -7.84,-9.83l-78.17 -31.17c-3,-1.99 -7.01,-3 -12.17,-3 -9.15,0 -19.15,19.68 -29.84,58.99 -37.14,-38 -79.66,-57 -127.99,-57 -45.84,0 -82.33,13.68 -109.34,41 -26.99,27.34 -40.5,64.18 -40.5,110.35 0,87.49 49.67,140.99 149.01,160.5 26.16,5.17 63.5,8.34 111.99,9.32l0 30.67c0,28.68 -4.66,48.33 -14.16,59.02 -9.5,10.81 -26.66,16.15 -51.84,16.15 -29.99,0 -67.33,-8.67 -111.99,-25.83 -4.16,-2.17 -8.01,-3.33 -11.16,-3.33 -4.18,0 -7.51,3.33 -9.83,10.16l-21.02 60c-1.66,3.5 -2.49,7.16 -2.49,10.66 0,10.84 18.67,21.17 55.84,31.17 36.99,10.18 75.65,15.17 115.67,15.17 80.49,0 132.32,-25.68 155.83,-77.16 9.5,-20.51 14.16,-48.01 14.16,-82.83l0 -204.02c0,-40.32 7.66,-76.33 22.83,-107.83 1.99,-4.33 3,-7.99 3,-11.16zm-144.85 85.68l0 110.5c-50,0 -85.98,-6.17 -107.48,-18.35 -21.67,-12.32 -32.51,-32.84 -32.51,-61.84 0,-19.66 6.17,-35.99 18.5,-49.16 12.32,-13.15 27.49,-19.83 45.33,-19.83 26.66,0 52.16,12.83 76.15,38.68z"
   id="glyph58" />
   <glyph
   unicode="b"
   horiz-adv-x="518"
   d="M484.99 259.66c0,-88.5 -19,-156.67 -56.83,-204.65 -38,-48.01 -85.18,-72.02 -141.82,-72.02 -37.17,0 -71.19,14.67 -102.01,43.85 -11.49,-27.17 -21.17,-40.85 -29.33,-40.85 -4.01,0 -8.49,0.68 -13.66,2.02l-81.02 19.98c-6.17,1.69 -9.32,4.33 -9.32,8.34 0,1.51 1.16,4.51 3.33,8.67 12.5,27.67 18.67,62.67 18.67,105.01l0 556.01c0,9.98 4.84,15.98 14.67,17.99l93.34 19c1.81,0.66 4.81,0.98 8.82,0.98 6.83,0 10.18,-5.64 10.18,-16.98l0 -240.18c42.99,29.51 83.34,44.18 120.83,44.18 51.99,0 92.48,-22 121.16,-65.82 28.65,-44.02 42.99,-105.84 42.99,-185.52zm-126.98 -5.82c0,104.18 -27.01,156.16 -81.17,156.16 -21.85,0 -47.5,-10.66 -76.83,-32.15l0 -276.84c19,-14.01 38.48,-20.99 58.66,-20.99 30.67,0 54.83,15.5 72.65,46.67 17.84,31 26.69,73.48 26.69,127.16z"
   id="glyph59" />
   <glyph
   unicode="c"
   horiz-adv-x="407"
   d="M405.49 454c0,-4.01 -0.83,-7.66 -2.82,-11.16l-34.67 -64.01c-2.65,-4.49 -5.67,-6.83 -9.32,-6.83 -2.82,0 -6.17,1.34 -9.68,4.01 -31,22.65 -59.17,33.99 -85,33.99 -66,0 -98.98,-55.99 -98.98,-167.83 0,-105.51 33.31,-158.18 99.99,-158.18 26.66,0 54,9.35 82,27.85 4.84,3.5 8.49,5.34 10.66,5.34 3,0 5.85,-2.34 8.34,-7.33l23.99 -61.01c1.84,-4.84 2.85,-8.67 2.85,-11.67 0,-12.68 -15.67,-24.85 -47.17,-36.67 -31.32,-11.67 -64.01,-17.51 -97.83,-17.51 -68.01,0 -120.83,22.18 -158.51,66.68 -37.5,44.33 -56.32,106.67 -56.32,187.16 0,84.85 20.66,151.83 61.81,200.67 41.18,49.01 97.5,73.51 169.17,73.51 30.52,0 61.84,-6.5 93.67,-19.33 32,-12.83 47.83,-25.33 47.83,-37.67z"
   id="glyph60" />
   <glyph
   unicode="d"
   horiz-adv-x="518"
   d="M465.67 30.84c0,-3.5 -3,-6.5 -8.82,-8.67l-83.01 -33.19c-5.17,-1.99 -8.67,-3 -10.18,-3 -11.16,0 -20.16,17.01 -26.99,51.18 -43.82,-36.16 -90.67,-54.18 -140.01,-54.18 -51.84,0 -91.83,22.18 -120.15,66.68 -28.35,44.33 -42.51,107 -42.51,187.99 0,95.33 19.5,166.52 58.66,213.34 33.84,39.99 76.51,60 127.66,60 32.18,0 65.17,-9.32 98.68,-28.17l0 203.19c0,9.98 4.99,15.98 15.17,17.99l101.98 19.98c6.5,0 9.85,-5.64 9.85,-16.98l0 -583.83c0,-30.34 5.82,-58.84 17.66,-85.86 0.66,-1.66 1.34,-3.83 1.99,-6.48zm-146.66 85.33l0 275.84c-23.84,12 -47.83,17.99 -71.84,17.99 -31.65,0 -54,-12.32 -66.83,-37.17 -12.83,-24.67 -19.33,-67.33 -19.33,-127.84 0,-57.83 6.17,-99.66 18.32,-125.49 12.17,-25.65 32,-38.51 59.52,-38.51 31.32,0 57.98,11.67 80.16,35.18z"
   id="glyph61" />
   <glyph
   unicode="e"
   horiz-adv-x="481"
   d="M450 237.82c0,-8.67 -1.34,-14.99 -3.83,-18.98 -2.69,-3.83 -8.67,-5.85 -18.01,-5.85l-268.16 0c1.98,-84 38.84,-126 110.51,-126 37.16,0 74.99,10.35 113.33,31.18 5.14,2.65 9.48,3.83 13,3.83 4.97,0 8.64,-2.99 11.32,-9.17l24.66 -59.51c2.02,-5.01 2.99,-8.67 2.99,-11.32 0,-8.67 -13.64,-18.98 -40.99,-30.68 -43.68,-18.82 -89.68,-28.32 -138.16,-28.32 -63.5,0 -113.16,16.5 -149.02,49.32 -49.83,45.49 -74.66,115.85 -74.66,210.84 0,80.34 19.99,145.02 60.01,194.17 40.15,49.16 93,73.65 158.83,73.65 132.18,0 198.17,-90.99 198.17,-273.17zm-132.99 68.17c-1.01,41.5 -7.02,70.83 -18.18,88 -11.02,17.34 -29.33,26.01 -54.67,26.01 -29.67,0 -51.34,-12.5 -64.68,-37.67 -8.84,-16.33 -14.99,-41.83 -18.48,-76.34l156 0z"
   id="glyph62" />
   <glyph
   unicode="g"
   horiz-adv-x="499"
   d="M464.66 474.01c0,-2.67 -1.99,-8.67 -5.82,-18.17 -14.52,-34.67 -21.85,-72.5 -21.85,-113.17l0 -148c0,-54.66 1.01,-108.84 3.02,-162.51 1.31,-36.16 1.99,-57.15 1.99,-63 0,-57.33 -16.18,-101.33 -48.66,-132 -32.33,-30.82 -78.85,-46.17 -139.51,-46.17 -42.34,0 -86.84,6.35 -133.33,18.85 -46.67,12.5 -69.83,24.65 -69.83,36.31 0,2.34 0.66,5.52 1.81,9.85l21.52 68.82c1.99,6.83 5.64,10.18 10.81,10.18 3,0 5.85,-0.83 8.85,-2.85 54.33,-24.82 104,-37.17 148.68,-37.17 27.64,0 47.33,6.35 58.99,19 11.82,12.68 17.66,33.99 17.66,64.01 0,14.34 -1.66,36.01 -4.84,64.99 -35.33,-24.65 -73.99,-36.99 -116.32,-36.99 -50.5,0 -90.52,21.85 -119.85,65.67 -29.33,43.67 -44,102.84 -44,177.33 0,80.34 16.51,144.17 49.34,191.34 32.84,47.15 77.34,70.66 133.33,70.66 40.67,0 79,-15.32 115.16,-46.17 13.33,32.84 25.17,49.16 35.18,49.16 3.98,0 7.16,-0.66 9.83,-1.99l79 -28.35c5.82,-2.82 8.82,-6.15 8.82,-9.65zm-150.67 -332.84l0 236c-25.65,19.18 -49.32,28.83 -70.81,28.83 -54.83,0 -82.18,-50.65 -82.18,-152 0,-97.98 24.67,-146.99 73.84,-146.99 31,0 57.33,11.34 79.15,34.17z"
   id="glyph63" />
   <glyph
   unicode="h"
   horiz-adv-x="537"
   d="M471.99 17.01c0,-11.34 -5.64,-17.01 -17.16,-17.01l-93.16 0c-11.16,0 -16.66,5.67 -16.66,17.16l0 308.67c0,30.34 -4.18,52.01 -12.68,64.84 -8.49,12.83 -22.65,19.33 -42.51,19.33 -27.32,0 -55.82,-13.66 -85.83,-41.18l0 -351.66c0,-11.49 -5.67,-17.16 -17.16,-17.16l-92.66 0c-11.52,0 -17.16,5.67 -17.16,17.16l0 668.85c0,9.98 4.81,15.98 14.67,17.99l93.31 19c1.84,0.66 4.84,0.98 8.85,0.98 6.83,0 10.16,-5.64 10.16,-16.98l0 -253.84c40.67,38.51 86.51,57.83 137.67,57.83 51.51,0 88.17,-17.99 110.35,-54.15 13.33,-21.85 19.98,-56.17 19.98,-103.02l0 -336.82z"
   id="glyph64" />
   <glyph
   unicode="i"
   horiz-adv-x="295"
   d="M236 641c0,-22.5 -7.84,-41.5 -23.49,-57.33 -15.67,-15.85 -34.85,-23.69 -57.68,-23.69 -22.65,0 -41.66,7.84 -57.33,23.69 -15.67,15.83 -23.49,35.15 -23.49,58.31 0,21.85 7.99,40.52 23.99,56.35 16,15.83 35.15,23.66 57.66,23.66 22.35,0 41.18,-7.99 56.85,-23.84 15.65,-16 23.49,-35 23.49,-57.15zm-13.99 -624c0,-11.34 -5.67,-17.01 -17.19,-17.01l-93.16 0c-11.16,0 -16.66,5.67 -16.66,17.16l0 383.84 -76 0c-11.34,0 -17.01,5.67 -17.01,16.98l0 59.02c0,11.34 5.67,16.98 17.01,16.98l186 0c11.34,0 17.01,-5.64 17.01,-16.98l0 -460z"
   id="glyph65" />
   <glyph
   unicode="j"
   horiz-adv-x="295"
   d="M236 641c0,-22.5 -7.84,-41.5 -23.49,-57.33 -15.67,-15.85 -34.85,-23.69 -57.68,-23.69 -22.65,0 -41.66,7.84 -57.33,23.69 -15.67,15.83 -23.49,35.15 -23.49,58.31 0,21.85 7.99,40.52 23.99,56.35 16,15.83 35.15,23.66 57.66,23.66 22.35,0 41.18,-7.99 56.85,-23.84 15.65,-16 23.49,-35 23.49,-57.15zm-13.99 -631.33c0,-86.69 -8.52,-145.18 -25.35,-175.84 -25,-46.49 -73.66,-69.83 -145.83,-69.83 -27.67,0 -53.17,2.82 -76.15,8.49 -23.18,5.85 -34.67,12.17 -34.67,19.33 0,2.34 0.66,5.67 1.99,9.85l21.85 75.32c1.34,4.51 4.49,6.83 9.32,6.83 0,0 2.49,-0.66 7.84,-1.99 19.5,-8.52 38.18,-12.83 55.99,-12.83 29,0 46.85,16.33 53.68,48.81 2.82,12.68 4.33,43.34 4.33,91.85l0 391.33 -76 0c-11.34,0 -17.01,5.67 -17.01,16.98l0 59.02c0,11.34 5.67,16.98 17.01,16.98l186 0c11.34,0 17.01,-5.64 17.01,-17.16l0 -467.15z"
   id="glyph66" />
   <glyph
   unicode="l"
   horiz-adv-x="277"
   d="M289.17 11.34c0,-6.83 -11.01,-13.33 -32.84,-19.33 -21.67,-6.02 -44.5,-9.02 -68.34,-9.02 -59.5,0 -97.5,24.17 -113.65,72.35 -6.17,17.16 -9.35,57.66 -9.35,121.49l0 508.18c0,10.66 5.01,16.98 15.17,19l89.84 17.99c6.83,1.34 11.01,1.99 12.17,1.99 6.5,0 9.83,-5.64 9.83,-17.16l0 -520.83c0,-39.16 0.68,-61.16 2.02,-66 3.48,-13.33 12,-20.01 25.33,-20.01 9.17,0 19.98,2.02 32.66,6 1.99,0.68 4.33,1.01 6.83,1.01 4.66,0 7.33,-1.99 8.34,-6l20.99 -85.83c0.68,-1.34 1.01,-2.49 1.01,-3.83z"
   id="glyph67" />
   <glyph
   unicode="m"
   horiz-adv-x="777"
   d="M715.01 17c0,-11.32 -5.68,-17 -17.17,-17l-92.67 0c-11.49,0 -17.17,5.68 -17.17,17l0 316.01c0,51.34 -14.99,76.98 -44.99,76.98 -24.66,0 -53.36,-14.99 -86.02,-44.82l0 -348.16c0,-11.32 -5.64,-17 -17.17,-17l-90.65 0c-11.49,0 -17.17,5.68 -17.17,17.17l0 307.67c0,28.16 -1.68,47.01 -4.84,56.82 -6.15,18.85 -19.99,28.32 -41.16,28.32 -25,0 -53.66,-14.31 -86.02,-42.97l0 -349.84c0,-11.49 -5.64,-17.17 -17.17,-17.17l-91.16 0c-11.16,0 -16.67,5.68 -16.67,17l0 335.83c0,40.99 -5.98,77.01 -18.01,107.99 -1.98,3.83 -2.99,7.66 -2.99,11.19 0,5.48 3.66,9.48 10.85,11.66l81.14 27.32c6.52,1.34 9.84,2.02 9.84,2.02 11.66,0 22.51,-23.99 32.16,-72 50.67,46.67 100.33,69.99 149.35,69.99 51.48,0 87.83,-23.32 109,-69.99 51.64,46.67 103.15,69.99 154.66,69.99 46.67,0 78.66,-16.83 95.83,-50.33 12.16,-22.98 18.18,-61.32 18.18,-114.64l0 -329.01z"
   id="glyph68" />
   <glyph
   unicode="n"
   horiz-adv-x="537"
   d="M473 17.01c0,-11.34 -5.67,-17.01 -17.16,-17.01l-93.16 0c-11.16,0 -16.68,5.67 -16.68,17.16l0 308.67c0,56.17 -19,84.17 -57.15,84.17 -26.01,0 -55.01,-13.66 -86.84,-41.18l0 -351.66c0,-11.49 -5.67,-17.16 -17.16,-17.16l-93.16 0c-11.19,0 -16.68,5.67 -16.68,17.16l0 335.84c0,42.84 -6.83,79.18 -20.66,108.84 -2.17,4.16 -3.33,7.66 -3.33,10.16 0,4.01 2.82,6.85 8.34,8.85l88.65 33.16c3.68,1.34 7.01,1.99 10.33,1.99 12.35,0 24.17,-22.98 35.68,-69.15 46.49,42.81 96.31,64.16 149.66,64.16 86.16,0 129.32,-52.67 129.32,-158.18l0 -335.81z"
   id="glyph69" />
   <glyph
   unicode="o"
   horiz-adv-x="499"
   d="M468.01 247.99c0,-81.65 -19.35,-146.33 -58.19,-193.84 -38.83,-47.48 -91.65,-71.16 -158.83,-71.16 -68.49,0 -121.82,23.33 -160.32,69.85 -38.51,46.49 -57.66,111.16 -57.66,194.16 0,80.99 19.15,144.67 57.66,190.84 40.67,48.81 95.51,73.15 164.18,73.15 65.82,0 117.83,-23.66 155.99,-70.84 38.18,-47.17 57.18,-111.16 57.18,-192.17zm-135.02 -1.99c0,58.99 -6.5,101 -19.48,126.17 -13,25.15 -34.5,37.82 -64.51,37.82 -28.68,0 -49.34,-12.83 -61.99,-38.51 -12.68,-25.83 -19,-67.16 -19,-124.49 0,-57.83 6.5,-99.51 19.33,-125.02 12.83,-25.33 33.67,-38 62.67,-38 29.33,0 50.5,12.68 63.5,38 12.98,25.5 19.48,66.83 19.48,124.01z"
   id="glyph70" />
   <glyph
   unicode="p"
   horiz-adv-x="518"
   d="M486 254.84c0,-181.19 -61.01,-271.85 -182.82,-271.85 -36.19,0 -70.18,8.67 -102.18,25.85l0 -180.83c0,-10 -4.99,-16 -15.17,-18.02l-93.31 -19.98 -9.68 -1.01c-5.82,0 -8.82,5.34 -8.82,16.15l0 549.68c0,32.51 -6.5,65.49 -19.68,98.98 -1.49,3.35 -2.32,5.85 -2.32,7.84 0,3.35 3.48,6.35 10.33,9.35l86.81 36.49c4.84,2.34 8.01,3.5 9.35,3.5 9.32,0 18.67,-17.34 27.82,-52.01 38.33,34.67 80.66,52.01 126.83,52.01 115.19,0 172.84,-85.33 172.84,-256.16zm-127.01 -4.01c0,106.17 -26.66,159.16 -80.16,159.16 -25.17,0 -51.18,-12 -77.84,-36.16l0 -275.84c23.51,-12.68 46.85,-19 70,-19 32.51,0 55.34,12.68 68.49,38 13,25.5 19.5,70 19.5,133.84z"
   id="glyph71" />
   <glyph
   unicode="r"
   horiz-adv-x="351"
   d="M365.16 488.51c0,-1.85 -0.67,-5.51 -2.32,-10.68l-30.84 -80.81c-2.32,-5.85 -4.84,-8.84 -7.83,-8.84 -1.01,0 -3.33,0.64 -7.32,1.98 -15.02,5.17 -28.36,7.83 -40.02,7.83 -21.5,0 -46.84,-15.99 -75.83,-47.81l0 -333.01c0,-11.49 -5.64,-17.17 -17.17,-17.17l-93.17 0c-11.16,0 -16.67,5.68 -16.67,17l0 303.68c0,47.81 -9.98,94.15 -29.97,139.17 -1.34,3.83 -2.02,6.99 -2.02,9.14 0,4.33 3.33,7.53 9.84,9.84l80.98 28.66c5.85,2.35 10.01,3.49 12.16,3.49 13.34,0 26.01,-25.97 38.17,-77.82 7.86,9.34 19.02,22.34 33.67,38.84 26.01,25.97 56.52,38.98 91.36,38.98 14.65,0 27.82,-2.32 39.48,-6.82 11.66,-4.5 17.51,-9.68 17.51,-15.66z"
   id="glyph72" />
   <glyph
   unicode="s"
   horiz-adv-x="425"
   d="M392.98 144.98c0,-45.49 -15.32,-84.13 -45.83,-116.15 -29.5,-30.51 -70.49,-45.83 -122.64,-45.83 -58.83,0 -115.35,14.01 -169.51,42 -14.68,7.49 -22.01,13.84 -22.01,19.02 0,2.65 1.01,6.65 2.99,12.16l22.85 60.98c2.65,6.52 6.01,9.84 9.84,9.84 2.32,0 5.31,-1.01 9.31,-3.02 52.85,-28.66 98.01,-42.97 135.84,-42.97 38.84,0 58.16,17.17 58.16,51.64 0,14.35 -4.84,25.5 -14.31,33.33 -9.68,7.69 -30.51,17.67 -62.66,29.67 -52.52,20.19 -87.02,38.34 -104.03,54.2 -26.64,25.47 -39.98,58.16 -39.98,98.15 0,47.85 16.67,86.99 50,117.33 33.33,30.51 76,45.66 127.98,45.66 31.52,0 64.85,-5.31 100.03,-16.16 34.98,-10.65 52.65,-20.66 52.65,-30.17 0,-2.49 -1.01,-6.15 -2.99,-10.65l-24.66 -56.99c-2.69,-5.85 -6.01,-8.84 -10.18,-8.84 -1.34,0 -4,0.64 -7.83,1.98 -38.51,17.17 -72,25.84 -100.5,25.84 -42.34,0 -63.5,-17 -63.5,-50.84 0,-13.68 4.17,-24.16 12.33,-31.32 8.16,-7.36 25.84,-16.36 53.02,-26.68 59.98,-23.52 98.31,-43.51 114.98,-60.01 27.18,-26.81 40.66,-60.82 40.66,-102.18z"
   id="glyph73" />
   <glyph
   unicode="t"
   horiz-adv-x="370"
   d="M366 22.01c0,-8.16 -10.35,-15.36 -31.18,-22.01 -35.15,-11.32 -68.81,-17 -101.17,-17 -59.17,0 -99.49,21.5 -120.99,64.51 -9.17,18.82 -13.68,49.83 -13.68,92.67l0 260.84 -69.32 0c-11.16,0 -16.67,5.64 -16.67,17l0 58.97c0,11.36 5.51,17 16.67,17l69.32 0 0 126.17c0,10.52 5.34,16.5 16.2,18.18l91.83 12.67 8.84 0c6.82,0 10.15,-5.34 10.15,-16.16l0 -140.85 113.67 0c11.32,0 17.17,-3.33 17.17,-10.15 0,-4 -0.34,-6.85 -1.01,-8.84l-13.17 -58.83c-1.98,-10.18 -7.83,-15.15 -17.64,-15.15l-99.02 0 0 -243.03c0,-22.81 1.18,-37.5 3.49,-43.98 4.5,-13.34 15.69,-19.99 33.5,-19.99 15.69,0 37.67,5.64 66.02,16.83 3.16,1.31 6.15,1.98 8.67,1.98 4.67,0 8,-3.33 10.32,-9.84l15.66 -69.65c1.51,-6.01 2.35,-9.68 2.35,-11.32z"
   id="glyph74" />
   <glyph
   unicode="u"
   horiz-adv-x="537"
   d="M484.99 15.32c0,-3.98 -3.33,-6.65 -9.83,-8.32l-83.99 -19c-5.85,-1.34 -9.68,-2.02 -11.16,-2.02 -11.52,0 -21.34,18.35 -29.84,55.01 -40.67,-38.66 -86.84,-58.01 -138.17,-58.01 -50.17,0 -87.67,14.34 -112.84,43.02 -16.33,18.5 -26.48,42.66 -30.67,72.32 -2.32,14.01 -3.5,40.67 -3.5,80.01l0 293.17c0,9.65 5.01,15.5 15.17,17.49l92.84 20.01c1.34,0.66 4.01,0.98 8.34,0.98 7.16,0 10.66,-5.17 10.66,-15.65l0 -310.18c0,-37.5 3.18,-61.81 9.35,-73.33 9.32,-17.82 26.66,-26.84 51.66,-26.84 26.66,0 54.33,12.02 82.98,36.19l0 351.16c0,9.83 5.01,15.67 15.17,17.66l92.84 20.01 10.18 0.98c5.82,0 8.82,-5.17 8.82,-15.65l0 -368.17c0,-42.66 6.35,-76.68 19,-102.01 2.02,-3 3,-6 3,-8.85z"
   id="glyph75" />
   <glyph
   unicode="z"
   horiz-adv-x="425"
   d="M414.16 95.15c0,-2.49 -0.98,-6.33 -3,-11.16l-30.16 -70.84c-4.01,-8.82 -10.33,-13.15 -19.15,-13.15l-319.68 0c-11.49,0 -17.16,5.67 -17.16,17.01l0 68.67 232.85 307.31 -194.67 0c-11.52,0 -17.19,5.85 -17.19,17.34l0 66.5c0,11.52 5.67,17.16 17.19,17.16l314.82 0c7.84,0 12.68,-1.34 14.52,-4.16 1.66,-2.67 2.65,-7.01 2.65,-12.83l0 -73.33 -226.17 -298.67 229.01 0c10.84,0 16.15,-3.35 16.15,-9.85z"
   id="glyph76" />
   <glyph
   unicode="ä"
   horiz-adv-x="481"
   d="M393.82 637.17c0,-19.18 -6.65,-35.51 -20.16,-49.01 -13.51,-13.51 -29.84,-20.34 -48.66,-20.34 -19.18,0 -35.51,6.83 -48.99,20.34 -13.51,13.51 -20.34,29.84 -20.34,49.01 0,19.15 6.83,35.48 20.34,48.84 13.48,13.33 30.16,19.98 50,19.98 18.5,0 34.5,-6.83 47.83,-20.34 13.33,-13.48 19.98,-29.66 19.98,-48.48zm-177.15 0c0,-19.18 -6.83,-35.51 -20.34,-49.01 -13.51,-13.51 -29.66,-20.34 -48.51,-20.34 -19,0 -35.15,6.83 -48.66,20.34 -13.48,13.51 -20.16,29.84 -20.16,49.01 0,19.15 6.68,35.48 20.16,48.84 13.51,13.33 30.01,19.98 49.67,19.98 18.5,0 34.5,-6.83 47.83,-20.34 13.33,-13.48 20.01,-29.66 20.01,-48.48zm223.17 -609.18c0,-4.66 -2.67,-7.84 -7.84,-9.83l-78.17 -31.17c-3,-1.99 -7.01,-3 -12.17,-3 -9.15,0 -19.15,19.68 -29.84,58.99 -37.14,-38 -79.66,-57 -127.99,-57 -45.84,0 -82.33,13.68 -109.34,41 -26.99,27.34 -40.5,64.18 -40.5,110.35 0,87.49 49.67,140.99 149.01,160.5 26.16,5.17 63.5,8.34 111.99,9.32l0 30.67c0,28.68 -4.66,48.33 -14.16,59.02 -9.5,10.81 -26.66,16.15 -51.84,16.15 -29.99,0 -67.33,-8.67 -111.99,-25.83 -4.16,-2.17 -8.01,-3.33 -11.16,-3.33 -4.18,0 -7.51,3.33 -9.83,10.16l-21.02 60c-1.66,3.5 -2.49,7.16 -2.49,10.66 0,10.84 18.67,21.17 55.84,31.17 36.99,10.18 75.65,15.17 115.67,15.17 80.49,0 132.32,-25.68 155.83,-77.16 9.5,-20.51 14.16,-48.01 14.16,-82.83l0 -204.02c0,-40.32 7.66,-76.33 22.83,-107.83 1.99,-4.33 3,-7.99 3,-11.16zm-144.85 85.68l0 110.5c-50,0 -85.98,-6.17 -107.48,-18.35 -21.67,-12.32 -32.51,-32.84 -32.51,-61.84 0,-19.66 6.17,-35.99 18.5,-49.16 12.32,-13.15 27.49,-19.83 45.33,-19.83 26.66,0 52.16,12.83 76.15,38.68z"
   id="glyph77" />
  </font>
</defs>
</svg>
