<?xml version="1.0" encoding="UTF-8" standalone="no"?>
<!-- Creator: CorelDRAW 2021 (64-Bit) -->

<svg
   xml:space="preserve"
   width="333mm"
   height="199mm"
   version="1.1"
   style="shape-rendering:geometricPrecision; text-rendering:geometricPrecision; image-rendering:optimizeQuality; fill-rule:evenodd; clip-rule:evenodd"
   viewBox="0 0 33333.09 19919.8"
   id="svg223"
   sodipodi:docname="restorative_and_aesthetic_dentistry__m.sc._.svg"
   inkscape:version="1.3-dev (77bc73e, 2022-05-18)"
   xmlns:inkscape="http://www.inkscape.org/namespaces/inkscape"
   xmlns:sodipodi="http://sodipodi.sourceforge.net/DTD/sodipodi-0.dtd"
   xmlns="http://www.w3.org/2000/svg"
   xmlns:svg="http://www.w3.org/2000/svg"><sodipodi:namedview
   id="namedview223"
   pagecolor="#ffffff"
   bordercolor="#000000"
   borderopacity="0.25"
   inkscape:showpageshadow="2"
   inkscape:pageopacity="0.0"
   inkscape:pagecheckerboard="0"
   inkscape:deskcolor="#d1d1d1"
   inkscape:document-units="mm"
   showgrid="false"
   inkscape:zoom="0.31377722"
   inkscape:cx="626.24049"
   inkscape:cy="376.06299"
   inkscape:window-width="1344"
   inkscape:window-height="456"
   inkscape:window-x="0"
   inkscape:window-y="25"
   inkscape:window-maximized="0"
   inkscape:current-layer="Ebene_x0020_1" />
 <defs
   id="defs86">
  <font
   id="FontID1"
   horiz-adv-x="556"
   font-variant="normal"
   style="fill-rule:nonzero"
   font-style="normal"
   font-weight="700">
	<font-face
   font-family="Officina Sans OS ITC TT"
   id="font-face1">
		<font-face-src>
			<font-face-name
   name="Officina Sans OS ITC TT Fett" />
		</font-face-src>
	</font-face>
   <missing-glyph
   id="missing-glyph1"><path
     d="M0 0z"
     id="path1" /></missing-glyph>
   <glyph
   unicode="-"
   horiz-adv-x="370"
   d="M330.99 216c0,-8.83 -1.16,-14.34 -3.5,-16.68 -2.17,-2.15 -8.01,-3.33 -17.5,-3.33l-249.99 0c-9.5,0 -15.33,1.18 -17.5,3.66 -2.34,2.5 -3.5,7.84 -3.5,16.35l0 78.99c0,9.17 1.16,14.67 3.5,16.84 2.17,2.17 8.01,3.17 17.5,3.17l249.99 0c11.67,0 18.33,-3 20.01,-8.83 0.66,-2.17 0.99,-6 0.99,-11.17l0 -78.99z"
   id="glyph1" />
   <glyph
   unicode="0"
   horiz-adv-x="537"
   d="M505.99 304.33c0,-108 -21.33,-188.65 -64.16,-241.66 -42.83,-53.17 -101.67,-79.68 -176.51,-79.68 -71.67,0 -128.48,28.02 -170.84,83.84 -42.33,55.84 -63.5,130.84 -63.5,225.33 0,100.68 22.18,179.34 66.33,236.34 44.34,57 105.17,85.49 182.67,85.49 61.51,0 112.51,-22.98 153.33,-68.81 48.5,-55.02 72.66,-135.36 72.66,-240.85zm-128.98 -18.99c0,77.84 -8.34,134.17 -25.18,169.16 -16.82,35.01 -43.65,52.51 -80.84,52.51 -38.5,0 -66.17,-19.18 -83.15,-57.66 -18.52,-42.33 -27.85,-94.02 -27.85,-155.17 0,-61.68 9.66,-112.16 28.84,-151.84 17.01,-34.82 43.65,-52.32 80.17,-52.32 72,0 108,65.17 108,195.33z"
   id="glyph2" />
   <glyph
   unicode="1"
   horiz-adv-x="537"
   d="M460 21c0,-9.33 -1.16,-15.33 -3.33,-17.5 -2.34,-2.34 -8.17,-3.5 -17.67,-3.5l-292.99 0c-9,0 -14.83,1.16 -17.34,3.5 -2.34,2.17 -3.66,8.17 -3.66,17.5l0 51c0,12 3.17,18.66 9.33,20.01 2.5,0.66 6.5,0.99 11.67,0.99l94.98 0 0 348 -79.98 -44.5c-5.17,-3 -8.83,-4.32 -11.17,-4.32 -4.16,0 -8.67,4.16 -13.68,12.66l-26.32 45.33c-2.5,4.49 -3.85,8.83 -3.85,12.66 0,5.5 3.85,10.84 11.34,16.18l159.99 115.99 69.69 0c11.65,0 18.33,-3 19.98,-8.83 0.66,-2.5 1.02,-6.33 1.02,-11.17l0 -481.99 71.15 0c11.67,0 18.33,-3 19.84,-8.83 0.66,-2.5 0.99,-6.66 0.99,-12.17l0 -51z"
   id="glyph3" />
   <glyph
   unicode="2"
   horiz-adv-x="537"
   d="M471 435.33c0,-47.01 -13.35,-87 -39.99,-120.17 -12.35,-15 -24.69,-27.17 -37.02,-36.66 -12.33,-9.5 -39.99,-27.17 -82.98,-53.17 -40.68,-24.83 -67.18,-44.34 -79.68,-58.65 -12.66,-14.34 -19.68,-32.5 -21.33,-54.69l234 0c12,0 18.66,-3 20.01,-8.83 0.66,-2.48 0.99,-6.66 0.99,-12.17l0 -69.99c0,-11.67 -3,-18.33 -8.83,-20.01 -2.67,-0.66 -6.66,-0.99 -12.17,-0.99l-360 0c-9.33,0 -14.17,4.68 -14.17,14.17l0 7.82c0,62.84 9.17,111.17 27.33,145.02 25.51,47.84 75.33,95.15 149.84,142.16 45,28.32 72,47.67 81,57.99 14.67,17.01 22.02,37.35 22.02,61.18 0,49.82 -28.02,74.65 -84,74.65 -41.5,0 -74.34,-28.65 -98.01,-85.98 -4.16,-10.18 -9.33,-15.17 -15.17,-15.17 -2.01,0 -5.5,0.99 -10.68,3l-63.99 24.33c-8.17,3 -12.17,7.84 -12.17,14.67 0,11.5 5.5,27.99 16.68,49.65 10.98,21.69 23.15,40.18 36.5,55.51 37.82,43.32 91.32,64.98 160.49,64.98 57.66,0 103.84,-16.32 138.83,-48.83 35.01,-32.5 52.51,-75.83 52.51,-129.83z"
   id="glyph4" />
   <glyph
   unicode="3"
   horiz-adv-x="537"
   d="M465 117.17c0,-62.5 -23.67,-113.67 -70.84,-153.33 -42.33,-35.17 -94.98,-52.84 -158.15,-52.84 -57.69,0 -111.17,11.01 -160.68,32.67 -19.49,8.83 -29.34,16.18 -29.34,22.02 0,1.98 0.69,5.48 2.01,10.32l20.01 71.84c1.65,6.17 5.32,9.33 11.15,9.33 2.34,0 5.5,-0.99 9.85,-3 51,-24.83 96.5,-37.16 136.16,-37.16 73.84,0 110.84,35.67 110.84,106.99 0,66.66 -42,100.02 -126,100.02l-29.67 0c-12.17,0 -18.83,3 -20.01,8.83 -0.66,2.48 -0.99,6.66 -0.99,12.17l0 66c0,11.65 2.83,18.33 8.67,19.98 2.67,0.66 6.83,1.02 12.33,1.02l31.68 0c33.33,0 57.66,5.65 73.32,17.15 23.17,17.17 34.68,42.85 34.68,76.68 0,25.16 -7.51,45.33 -22.51,60.5 -15,15.17 -34.84,22.65 -59.5,22.65 -32.34,0 -62.15,-16.98 -90,-50.98 -5.5,-6.52 -9.83,-9.69 -13.16,-9.69 -1.84,0 -4.84,1.18 -8.67,3.85l-55.32 49.82c-3.17,3 -4.84,6.33 -4.84,10.35 0,7.16 6.99,18.33 21,33.66 41.01,45.33 93.83,67.98 158.17,67.98 58.98,0 106.49,-16.32 142.65,-49.16 36.17,-32.67 54.17,-75.5 54.17,-128.67 0,-68.67 -31.49,-118.32 -94.65,-148.99 78.5,-25.35 117.66,-82.02 117.66,-170.01z"
   id="glyph5" />
   <glyph
   unicode="4"
   horiz-adv-x="537"
   d="M500.34 63.99c0,-11.67 -3.17,-18.33 -9.33,-19.98 -2.67,-0.69 -6.52,-1.02 -11.83,-1.02l-57.17 0 0 -129c0,-9.5 -1.18,-15.33 -3.35,-17.48 -2.31,-2.34 -8.15,-3.52 -17.65,-3.52l-83.01 0c-11.67,0 -18.33,3.17 -20.01,9.33 -0.66,2.5 -0.99,6.52 -0.99,11.67l0 129 -245.01 0c-9.5,0 -15.33,1.02 -17.67,3.17 -2.15,2.17 -3.33,7.68 -3.33,16.84l0 105 249 416.84c5.17,8.83 10.02,13.16 14.17,13.16 2.67,0 6.99,-1.32 13.16,-3.83l60.17 -26.5c9.69,-4.16 14.5,-8.34 14.5,-12.66 0,-3.17 -1.82,-8.34 -5.83,-15.17l-232.82 -395.84 155.67 0 12.99 161.17c0.66,8.83 2.17,14.32 4.65,16.65 2.5,2.17 7.84,3.33 16.35,3.33l68.01 0c12,0 18.66,-3 19.98,-9.17 0.66,-2.67 1.02,-6.66 1.02,-11.83l0 -163.16 57.17 0c9.5,0 15.33,-1.32 17.65,-3.83 2.34,-2.67 3.52,-9.33 3.52,-20.01l0 -53.17z"
   id="glyph6" />
   <glyph
   unicode="6"
   horiz-adv-x="537"
   d="M488.01 234.99c0,-85.65 -23.34,-150.83 -69.85,-195.83 -38.83,-37.49 -87.5,-56.17 -146.15,-56.17 -69,0 -121.84,25.35 -158.34,75.85 -36.5,50.65 -54.66,123.66 -54.66,219 0,123.99 26.67,222.99 79.82,297.14 53.17,74.01 124.68,111 214.18,111 25.65,0 49.49,-3.5 71.15,-10.49 21.85,-6.99 32.83,-14.5 32.83,-22.68 0,-2.65 -0.66,-5.48 -1.98,-8.83l-21 -69.83c-1.02,-5.5 -3.69,-8.17 -8.34,-8.17 -1.02,0 -3.17,0.52 -6.85,1.84 -23.32,8.83 -44.65,13.16 -63.99,13.16 -85.49,0 -141.17,-54.99 -166.99,-164.98 34.98,34.65 73.98,51.99 117.33,51.99 45.66,0 84.99,-15.33 117.83,-45.83 43.32,-40.51 65.01,-102.85 65.01,-187.18zm-121.02 -3.83c0,87.83 -29.17,131.84 -87.33,131.84 -59.17,0 -88.65,-44.67 -88.65,-133.84 0,-90.83 28.32,-136.16 84.83,-136.16 28.65,0 51,12.17 66.99,36.66 16.18,24.33 24.17,58.18 24.17,101.5z"
   id="glyph7" />
   <glyph
   unicode="9"
   horiz-adv-x="537"
   d="M478 318.99c0,-126.17 -26.67,-225.66 -79.98,-298.49 -53.34,-72.99 -126.36,-109.51 -218.67,-109.51 -26.01,0 -48.17,2.5 -66.66,7.51 -18.35,5.17 -27.52,11.17 -27.52,18.33l0 9.83 14.17 70.35c1.35,6.66 4.51,9.83 9.66,9.83 3.33,0 7.02,-0.66 11.34,-2.01 18.83,-5.83 40.16,-8.83 63.99,-8.83 84.85,0 140.51,57.33 166.84,172.02 -35.67,-39.33 -75.83,-59.01 -120,-59.01 -45.99,0 -84.99,15 -117.17,45 -43.32,40.65 -65.01,105.5 -65.01,194.34 0,74.84 19.51,134.48 58.35,178.99 38.83,44.5 91.16,66.66 156.83,66.66 69.33,0 122.34,-25.16 159,-75.66 36.5,-50.5 54.83,-123.66 54.83,-219.33zm-132 50.34c0,89.84 -29.15,134.67 -87.33,134.67 -27.17,0 -48.83,-12.17 -64.82,-36.33 -15.85,-24.33 -23.83,-57.33 -23.83,-99.33 0,-89.5 29.32,-134.34 87.83,-134.34 58.82,0 88.16,45.17 88.16,135.33z"
   id="glyph8" />
   <glyph
   unicode=":"
   horiz-adv-x="295"
   d="M243.01 409.32c0,-26.82 -9.18,-49.32 -27.67,-67.66 -18.34,-18.48 -40.85,-27.67 -67.52,-27.67 -26.5,0 -48.81,9.35 -67.15,27.84 -18.51,18.51 -27.67,41.33 -27.67,68.34 0,26.16 9.33,48.16 28.15,66.5 18.68,18.17 41.5,27.33 68.51,27.33 25.82,0 47.68,-9.33 65.99,-27.84 18.17,-18.48 27.35,-40.82 27.35,-66.84zm0 -329.98c0,-26.84 -9.18,-49.35 -27.67,-67.66 -18.34,-18.51 -40.85,-27.67 -67.52,-27.67 -26.5,0 -48.81,9.33 -67.15,27.81 -18.51,18.51 -27.67,41.36 -27.67,68.34 0,26.16 9.33,48.16 28.15,66.5 18.68,18.17 41.5,27.33 68.51,27.33 25.82,0 47.68,-9.33 65.99,-27.84 18.17,-18.48 27.35,-40.82 27.35,-66.81z"
   id="glyph9" />
   <glyph
   unicode="A"
   horiz-adv-x="556"
   d="M551.84 11.17c0,-7.51 -6.5,-11.17 -19.51,-11.17l-109.32 0c-8.5,0 -13.84,0.83 -16.18,2.5 -2.31,1.49 -4.49,6.5 -6.83,14.5l-42.99 163.99 -168.99 0 -42.85 -163.99c-2.31,-8.01 -4.49,-13.02 -6.33,-14.5 -1.98,-1.68 -7.16,-2.5 -15.66,-2.5l-99.17 0c-13.32,0 -20.01,3.66 -20.01,11.17 0,1.98 1.02,6.17 3,12.83l197.17 644.84c2.34,8.15 4.49,13.16 6.66,14.67 2.01,1.65 7.18,2.48 15.33,2.48l104.01 0c7.84,0 12.83,-0.83 14.83,-2.48 2.17,-1.51 4.49,-6.52 7.16,-14.67l196.84 -644.84c1.82,-6.66 2.83,-10.84 2.83,-12.83zm-220.68 262.82l-37.16 171.33c-6.17,28.51 -14.5,73.68 -24.83,135.66 -7.51,-47.32 -16.18,-92.48 -25.84,-135.66l-40.16 -171.33 127.99 0z"
   id="glyph10" />
   <glyph
   unicode="C"
   horiz-adv-x="462"
   d="M464.84 50.84c0,-8.17 -7.35,-17.17 -22.02,-26.83 -40.65,-27.33 -88.98,-41.01 -144.99,-41.01 -94.65,0 -163.82,39.85 -207,119.67 -33.83,62.17 -50.84,145.51 -50.84,250.35 0,118.82 26.34,209.15 79.18,270.99 44.5,52.65 101.84,78.99 171.83,78.99 54.33,0 104.67,-17.01 150.83,-51.17 14.01,-10.16 21,-18.17 21,-24 0,-3.83 -0.66,-6.5 -2.01,-7.84l-40.98 -74.15c-2.83,-5.17 -6.17,-7.68 -9.66,-7.68 -4.68,0 -14.67,6 -30.35,18 -26.65,20.5 -53.65,30.83 -80.98,30.83 -76.51,0 -114.85,-71.32 -114.85,-213.99 0,-99.66 13.02,-174 39,-223.16 18,-33.83 48,-50.84 90,-50.84 28.18,0 58.18,12 89.84,35.83 5.5,2.83 8.83,4.32 10.18,4.32 2.65,0 5.48,-3.17 8.81,-9.33l40.02 -69.66c1.98,-3.66 3,-6.66 3,-9.33z"
   id="glyph11" />
   <glyph
   unicode="D"
   horiz-adv-x="592"
   d="M553 341.84c0,-168.33 -42.5,-273.99 -127.32,-317.01 -32.5,-16.49 -86.67,-24.83 -162.5,-24.83l-157.18 0c-11.67,0 -18.33,3.17 -19.98,9.33 -0.69,2.5 -1.02,6.5 -1.02,11.67l0 643.99c0,11.67 3.17,18.35 9.33,20.01 2.5,0.66 6.52,0.99 11.67,0.99l157.18 0c47.84,0 82.49,-1.98 103.82,-5.83 124.02,-23.48 186,-136.16 186,-338.32zm-144 -5.83c0,118.65 -21,192.33 -63,220.99 -19.82,13.35 -49.65,20.01 -89.34,20.01l-34.65 0 0 -468 34.65 0c50.17,0 84.85,8.67 104.01,25.84 32.17,28.65 48.33,95.67 48.33,201.17z"
   id="glyph12" />
   <glyph
   unicode="E"
   horiz-adv-x="482"
   d="M460 674.84c0,-2.01 -0.66,-6.33 -1.98,-12.85l-20.01 -67.82c-3.17,-11.5 -10.51,-17.17 -21.99,-17.17l-194.01 0 0 -163.99 167.17 0c11.65,0 18.33,-3.19 19.98,-9.35 0.66,-2.48 1.02,-6.5 1.02,-11.65l0 -67.02c0,-12 -3,-18.66 -9.35,-19.98 -2.48,-0.69 -6.5,-1.02 -11.65,-1.02l-167.17 0 0 -195 210.17 0c11.67,0 18.33,-3 20.01,-8.83 0.66,-2.48 0.99,-6.66 0.99,-12.17l0 -66.99c0,-9.5 -1.16,-15.33 -3.5,-17.5 -2.17,-2.34 -8.01,-3.5 -17.5,-3.5l-326.18 0c-9.5,0 -15.33,1.16 -17.67,3.33 -2.15,2.34 -3.33,8.17 -3.33,17.67l0 643.99c0,9.52 1.18,15.35 3.5,17.67 2.17,2.17 8.01,3.33 17.5,3.33l334.02 0c13.32,0 19.98,-3.66 19.98,-11.15z"
   id="glyph13" />
   <glyph
   unicode="L"
   horiz-adv-x="482"
   d="M479.99 112.85c0,-1.67 -0.65,-5.67 -1.98,-11.85l-18 -83c-2.66,-11.99 -10.35,-18 -23.02,-18l-331 0c-9.5,0 -15.31,1.16 -17.66,3.34 -2.15,2.32 -3.32,8.16 -3.32,17.66l0 644c0,9.5 1.16,15.34 3.32,17.66 2.35,2.18 8.16,3.34 17.66,3.34l95.02 0c11.65,0 18.34,-3.17 19.98,-9.35 0.68,-2.49 1.02,-6.49 1.02,-11.65l0 -541.02 238 0c13.32,0 19.98,-3.66 19.98,-11.14z"
   id="glyph14" />
   <glyph
   unicode="R"
   horiz-adv-x="556"
   d="M544 21.99c0,-4.82 -5.34,-9 -16.16,-12.17l-88.84 -24.83c-7.32,-2.01 -11.34,-3 -12.33,-3 -4.49,0 -9.17,4.68 -13.65,14.17l-141.17 284.84 -52.84 0 0 -260.01c0,-11.67 -3.17,-18.33 -9.33,-20.01 -2.5,-0.66 -6.5,-0.99 -11.67,-0.99l-92.01 0c-9.5,0 -15.33,1.16 -17.67,3.66 -2.15,2.5 -3.33,9.17 -3.33,20.34l0 640.99c0,9.52 1.18,15.35 3.5,17.67 2.17,2.17 8.01,3.33 17.5,3.33l163.02 0c67.49,0 116.81,-8.65 147.99,-25.82 56.67,-31.68 84.99,-88.68 84.99,-171.33 0,-87.66 -37.32,-151.18 -111.83,-191.01l149.01 -260.67c3.17,-5.83 4.82,-10.82 4.82,-15.17zm-177.99 468.67c0,35.34 -7.84,60 -23.67,73.68 -15.83,13.84 -44.01,20.67 -84.83,20.67l-38.5 0 0 -198 27.83 0c44.01,0 74.84,7.65 92.5,23.17 17.83,15.33 26.67,42.17 26.67,80.48z"
   id="glyph15" />
   <glyph
   unicode="S"
   horiz-adv-x="482"
   d="M452 194.02c0,-61.86 -20.16,-112 -60.35,-150.36 -40.16,-38.49 -92.66,-57.67 -157.83,-57.67 -40.31,0 -85.17,7.18 -134.65,21.51 -49.51,14.33 -74.17,27.18 -74.17,38.52 0,1.98 0.66,5.64 1.98,11.15l33.17 85.83c2.33,6.02 5.17,8.85 8.85,8.85 2.17,0 5.32,-1.01 9.17,-2.83 59.65,-32.66 110.65,-49.01 153.01,-49.01 59.81,0 89.83,27.65 89.83,82.99 0,25.01 -6.99,45.35 -21.01,61.01 -13.32,14.68 -51.34,37.67 -113.83,68.82 -59.84,30.02 -100.85,58.68 -122.99,86.17 -22.17,27.5 -33.17,63.34 -33.17,107.69 0,59.15 19.81,106.33 59.31,141.17 39.5,34.83 92.85,52.16 159.84,52.16 39.34,0 81.01,-7.18 125.01,-21.67 43.84,-14.49 65.83,-28.16 65.83,-41.17 0,-1.32 -1.01,-4.16 -2.83,-8.35l-36.16 -75.65c-2.33,-4.82 -5.35,-7.34 -8.85,-7.34 -2.33,0 -15.34,6.17 -39.15,18.17 -34.17,17.32 -67.5,26.02 -100.19,26.02 -28,0 -50.14,-6.52 -66.33,-19.53 -16.31,-12.98 -24.47,-30.83 -24.47,-53.17 0,-25.17 12.98,-46.14 38.99,-62.99 9.48,-6.33 44.5,-24.66 105.01,-55.34 51.5,-25.67 88.66,-54.65 111.5,-86.83 22.99,-32.16 34.49,-71.65 34.49,-118.14z"
   id="glyph16" />
   <glyph
   unicode="T"
   horiz-adv-x="407"
   d="M437.18 674.84c0,-3 -0.69,-6.85 -2.01,-11.83l-21 -79.02c-3,-11.32 -10.35,-16.98 -21.99,-16.98l-123.17 0 0 -546c0,-9.5 -1.18,-15.33 -3.35,-17.5 -2.31,-2.34 -8.15,-3.5 -17.65,-3.5l-97.02 0c-9.5,0 -15.33,1.16 -17.67,3.5 -2.15,2.17 -3.33,8.01 -3.33,17.5l0 546 -126 0c-9.5,0 -15.33,0.99 -17.48,3.17 -2.34,2.17 -3.52,7.65 -3.52,16.82l0 78c0,9.52 1.18,15.35 3.69,17.67 2.48,2.17 8.15,3.33 17.32,3.33l413.18 0c13.32,0 20.01,-3.66 20.01,-11.15z"
   id="glyph17" />
   <glyph
   unicode="V"
   horiz-adv-x="517"
   d="M521.84 667.16c0,-3.33 -0.66,-7.32 -1.84,-12.33l-183.17 -651.67c-3.17,-11.5 -10.49,-17.17 -21.99,-17.17l-116.67 0c-8.5,0 -13.84,0.85 -15.83,2.5 -2.17,1.51 -4.35,6.5 -6.69,14.67l-176.65 649.82c-1.35,5.01 -2.01,9 -2.01,12.35 0,5.81 6,9.66 18,11.65l105 19.02c3.66,0.66 7.16,0.99 10.84,0.99 5.83,0 10.16,-5.83 13.16,-17.5l86.84 -407.48c3.33,-14.67 7.32,-35.67 12.33,-63 2.83,-18.85 7.32,-47.17 13.68,-85.02 9.33,49.51 19.82,98.84 31.16,148.02l93.83 402.83c2.5,11.5 7.18,17.15 14.17,17.15l9.66 -0.99 97.16 -10.65c12.69,-1.68 19.02,-6 19.02,-13.18z"
   id="glyph18" />
   <glyph
   unicode="a"
   horiz-adv-x="482"
   d="M439.82 27.99c0,-4.65 -2.65,-7.82 -7.82,-9.83l-78.17 -31.16c-3,-2.01 -7.02,-3 -12.17,-3 -9.17,0 -19.18,19.65 -29.83,58.98 -37.18,-37.98 -79.68,-57 -128.01,-57 -45.83,0 -82.32,13.68 -109.32,41.01 -27,27.33 -40.51,64.16 -40.51,110.34 0,87.5 49.68,141 149.01,160.49 26.17,5.17 63.5,8.34 111.99,9.33l0 30.66c0,28.68 -4.65,48.35 -14.15,59.01 -9.52,10.84 -26.67,16.18 -51.85,16.18 -30,0 -67.32,-8.67 -111.99,-25.84 -4.16,-2.17 -8.01,-3.33 -11.17,-3.33 -4.16,0 -7.49,3.33 -9.83,10.16l-21 60c-1.68,3.5 -2.5,7.18 -2.5,10.68 0,10.82 18.66,21.17 55.84,31.16 36.99,10.16 75.66,15.17 115.65,15.17 80.5,0 132.33,-25.65 155.84,-77.17 9.5,-20.48 14.17,-48 14.17,-82.82l0 -204c0,-40.32 7.65,-76.32 22.82,-107.84 2.01,-4.32 3,-8.01 3,-11.17zm-144.83 85.68l0 110.5c-49.98,0 -85.98,-6.17 -107.5,-18.33 -21.66,-12.35 -32.48,-32.83 -32.48,-61.84 0,-19.68 6.17,-36 18.5,-49.16 12.33,-13.18 27.5,-19.84 45.33,-19.84 26.67,0 52.16,12.83 76.16,38.67z"
   id="glyph19" />
   <glyph
   unicode="c"
   horiz-adv-x="407"
   d="M405.5 454c0,-3.99 -0.83,-7.65 -2.83,-11.17l-34.65 -63.99c-2.67,-4.49 -5.67,-6.83 -9.35,-6.83 -2.83,0 -6.17,1.32 -9.66,3.99 -30.99,22.68 -59.15,34.02 -84.99,34.02 -66,0 -99,-56.01 -99,-167.84 0,-105.5 33.33,-158.17 99.99,-158.17 26.67,0 54,9.33 82.02,27.83 4.82,3.5 8.48,5.34 10.65,5.34 3,0 5.83,-2.34 8.34,-7.32l24 -61.02c1.82,-4.82 2.83,-8.67 2.83,-11.67 0,-12.66 -15.66,-24.83 -47.17,-36.66 -31.32,-11.67 -63.99,-17.5 -97.82,-17.5 -68.01,0 -120.85,22.18 -158.51,66.69 -37.51,44.32 -56.34,106.65 -56.34,187.16 0,84.83 20.67,151.82 61.84,200.67 41.15,48.99 97.49,73.49 169.16,73.49 30.5,0 61.84,-6.5 93.66,-19.32 32.01,-12.85 47.84,-25.35 47.84,-37.68z"
   id="glyph20" />
   <glyph
   unicode="d"
   horiz-adv-x="519"
   d="M465.67 30.83c0,-3.5 -3,-6.5 -8.83,-8.67l-83.01 -33.17c-5.15,-1.98 -8.65,-3 -10.16,-3 -11.17,0 -20.17,17.01 -27,51.17 -43.82,-36.17 -90.66,-54.17 -140.01,-54.17 -51.83,0 -91.82,22.18 -120.17,66.69 -28.32,44.32 -42.5,106.99 -42.5,187.99 0,95.34 19.51,166.51 58.68,213.33 33.83,40.02 76.49,60 127.65,60 32.17,0 65.17,-9.33 98.67,-28.16l0 203.15c0,10.02 5.01,16.02 15.17,18l102 20.01c6.5,0 9.85,-5.67 9.85,-17.01l0 -583.82c0,-30.33 5.81,-58.84 17.65,-85.84 0.69,-1.65 1.35,-3.83 2.01,-6.5zm-146.67 85.35l0 275.84c-23.83,12 -47.84,18 -71.84,18 -31.65,0 -54,-12.35 -66.83,-37.18 -12.83,-24.66 -19.32,-67.32 -19.32,-127.82 0,-57.85 6.17,-99.69 18.33,-125.5 12.17,-25.68 31.98,-38.5 59.5,-38.5 31.32,0 57.99,11.67 80.15,35.17z"
   id="glyph21" />
   <glyph
   unicode="e"
   horiz-adv-x="480"
   d="M450 237.83c0,-8.67 -1.35,-15 -3.83,-18.99 -2.67,-3.83 -8.67,-5.83 -18,-5.83l-268.18 0c2.01,-84 38.83,-126 110.5,-126 37.16,0 75,10.32 113.34,31.16 5.17,2.67 9.5,3.85 12.99,3.85 5.01,0 8.67,-3 11.34,-9.17l24.66 -59.5c2.01,-5.01 3,-8.67 3,-11.34 0,-8.67 -13.65,-18.99 -41.01,-30.66 -43.65,-18.83 -89.65,-28.35 -138.17,-28.35 -63.5,0 -113.15,16.51 -148.99,49.35 -49.84,45.5 -74.67,115.82 -74.67,210.83 0,80.34 20.01,144.99 60,194.17 40.16,49.16 93,73.65 158.84,73.65 132.17,0 198.17,-90.99 198.17,-273.17zm-132.99 68.17c-1.02,41.5 -7.02,70.82 -18.17,87.99 -11.01,17.34 -29.34,26.01 -54.69,26.01 -29.67,0 -51.33,-12.5 -64.65,-37.68 -8.83,-16.32 -15,-41.83 -18.5,-76.32l156 0z"
   id="glyph22" />
   <glyph
   unicode="g"
   horiz-adv-x="500"
   d="M464.68 474.01c0,-2.66 -2.01,-8.67 -5.84,-18.17 -14.51,-34.67 -21.85,-72.51 -21.85,-113.16l0 -148.02c0,-54.65 1.02,-108.82 3,-162.48 1.33,-36.17 2.01,-57.17 2.01,-63.01 0,-57.32 -16.16,-101.34 -48.67,-131.98 -32.34,-30.84 -78.83,-46.18 -139.49,-46.18 -42.35,0 -86.85,6.32 -133.34,18.82 -46.66,12.5 -69.85,24.66 -69.85,36.34 0,2.32 0.68,5.5 1.84,9.84l21.51 68.82c1.98,6.83 5.64,10.18 10.83,10.18 3,0 5.84,-0.82 8.82,-2.83 54.34,-24.83 104,-37.16 148.68,-37.16 27.67,0 47.34,6.32 58.99,18.99 11.85,12.67 17.69,34.02 17.69,64.01 0,14.34 -1.67,36 -4.85,65 -35.32,-24.66 -73.98,-36.99 -116.33,-36.99 -50.48,0 -90.48,21.83 -119.82,65.65 -29.34,43.68 -44.02,102.84 -44.02,177.33 0,80.33 16.53,144.17 49.35,191.34 32.82,47.17 77.33,70.67 133.34,70.67 40.65,0 79,-15.34 115.14,-46.18 13.35,32.85 25.17,49.18 35.18,49.18 4,0 7.17,-0.68 9.84,-2.01l79 -28.32c5.84,-2.83 8.84,-6.18 8.84,-9.67zm-150.69 -332.84l0 236.01c-25.65,19.16 -49.32,28.83 -70.84,28.83 -54.82,0 -82.15,-50.68 -82.15,-151.99 0,-98.02 24.66,-147 73.81,-147 31.01,0 57.34,11.34 79.17,34.16z"
   id="glyph23" />
   <glyph
   unicode="h"
   horiz-adv-x="537"
   d="M472 17.01c0,-11.34 -5.67,-17.01 -17.17,-17.01l-93.17 0c-11.15,0 -16.65,5.67 -16.65,17.17l0 308.67c0,30.33 -4.18,51.99 -12.66,64.82 -8.5,12.83 -22.68,19.35 -42.5,19.35 -27.35,0 -55.84,-13.68 -85.84,-41.17l0 -351.66c0,-11.5 -5.67,-17.17 -17.17,-17.17l-92.67 0c-11.48,0 -17.15,5.67 -17.15,17.17l0 668.82c0,10.02 4.82,16.02 14.67,18l93.33 19.02c1.82,0.66 4.82,0.99 8.83,0.99 6.83,0 10.16,-5.67 10.16,-17.01l0 -253.82c40.65,38.5 86.5,57.83 137.67,57.83 51.5,0 88.16,-18 110.34,-54.17 13.32,-21.83 19.98,-56.17 19.98,-102.99l0 -336.83z"
   id="glyph24" />
   <glyph
   unicode="i"
   horiz-adv-x="295"
   d="M236.01 640.99c0,-22.49 -7.84,-41.48 -23.5,-57.33 -15.66,-15.83 -34.84,-23.67 -57.66,-23.67 -22.68,0 -41.67,7.84 -57.35,23.67 -15.66,15.85 -23.48,35.17 -23.48,58.35 0,21.83 7.98,40.49 24,56.34 15.99,15.83 35.15,23.65 57.66,23.65 22.32,0 41.17,-7.98 56.84,-23.83 15.66,-15.99 23.5,-34.98 23.5,-57.17zm-14.01 -623.98c0,-11.34 -5.67,-17.01 -17.17,-17.01l-93.17 0c-11.17,0 -16.65,5.67 -16.65,17.17l0 383.84 -76.02 0c-11.32,0 -16.98,5.65 -16.98,16.98l0 59.01c0,11.34 5.67,17.01 16.98,17.01l186 0c11.34,0 17.01,-5.67 17.01,-17.01l0 -460z"
   id="glyph25" />
   <glyph
   unicode="m"
   horiz-adv-x="777"
   d="M714.99 17.01c0,-11.34 -5.67,-17.01 -17.17,-17.01l-92.66 0c-11.5,0 -17.17,5.67 -17.17,17.01l0 316c0,51.34 -14.99,77.01 -45.01,77.01 -24.66,0 -53.32,-15.02 -85.98,-44.85l0 -348.16c0,-11.34 -5.67,-17.01 -17.17,-17.01l-90.68 0c-11.5,0 -17.17,5.67 -17.17,17.17l0 307.65c0,28.19 -1.67,47.02 -4.82,56.85 -6.17,18.83 -20,28.35 -41.17,28.35 -25.01,0 -53.67,-14.36 -86.02,-43.02l0 -349.83c0,-11.5 -5.67,-17.17 -17.17,-17.17l-91.18 0c-11.15,0 -16.66,5.67 -16.66,17.01l0 335.81c0,41.01 -5.98,77.01 -17.98,108 -2.02,3.84 -2.99,7.69 -2.99,11.18 0,5.51 3.65,9.51 10.8,11.65l81.2 27.34c6.49,1.35 9.83,2.02 9.83,2.02 11.65,0 22.49,-24 32.16,-72 50.68,46.65 100.35,69.98 149.32,69.98 51.5,0 87.84,-23.34 109.01,-69.98 51.69,46.65 103.18,69.98 154.68,69.98 46.65,0 78.65,-16.82 95.81,-50.33 12.19,-22.99 18.17,-61.32 18.17,-114.65l0 -329.01z"
   id="glyph26" />
   <glyph
   unicode="n"
   horiz-adv-x="537"
   d="M473.01 17.01c0,-11.34 -5.67,-17.01 -17.17,-17.01l-93.17 0c-11.17,0 -16.68,5.67 -16.68,17.17l0 308.67c0,56.15 -18.99,84.17 -57.17,84.17 -25.98,0 -54.99,-13.68 -86.84,-41.17l0 -351.66c0,-11.5 -5.67,-17.17 -17.15,-17.17l-93.17 0c-11.17,0 -16.68,5.67 -16.68,17.17l0 335.84c0,42.83 -6.83,79.16 -20.67,108.83 -2.17,4.16 -3.33,7.65 -3.33,10.16 0,4.02 2.83,6.83 8.34,8.83l88.65 33.17c3.69,1.35 7.02,2.01 10.35,2.01 12.33,0 24.17,-23.01 35.67,-69.17 46.49,42.83 96.33,64.16 149.65,64.16 86.17,0 129.36,-52.65 129.36,-158.17l0 -335.81z"
   id="glyph27" />
   <glyph
   unicode="o"
   horiz-adv-x="500"
   d="M468 248.01c0,-81.69 -19.35,-146.34 -58.18,-193.84 -38.81,-47.5 -91.65,-71.17 -158.81,-71.17 -68.5,0 -121.84,23.34 -160.35,69.85 -38.5,46.49 -57.66,111.17 -57.66,194.15 0,81 19.16,144.66 57.66,190.84 40.68,48.83 95.5,73.16 164.17,73.16 65.84,0 117.83,-23.67 156,-70.82 38.17,-47.17 57.17,-111.17 57.17,-192.17zm-135 -2.01c0,59.01 -6.5,101.01 -19.51,126.17 -12.99,25.16 -34.49,37.84 -64.49,37.84 -28.68,0 -49.35,-12.85 -62.01,-38.5 -12.66,-25.84 -18.99,-67.18 -18.99,-124.51 0,-57.83 6.5,-99.5 19.32,-124.99 12.85,-25.35 33.69,-38.01 62.67,-38.01 29.34,0 50.5,12.66 63.5,38.01 13.02,25.49 19.51,66.83 19.51,123.99z"
   id="glyph28" />
   <glyph
   unicode="r"
   horiz-adv-x="351"
   d="M365.18 488.51c0,-1.84 -0.69,-5.5 -2.34,-10.68l-30.83 -80.84c-2.34,-5.83 -4.84,-8.83 -7.84,-8.83 -0.99,0 -3.33,0.66 -7.32,2.01 -15,5.17 -28.35,7.84 -40.02,7.84 -21.5,0 -46.82,-16.02 -75.83,-47.84l0 -333c0,-11.5 -5.67,-17.17 -17.17,-17.17l-93.17 0c-11.17,0 -16.65,5.67 -16.65,17.01l0 303.66c0,47.84 -10.02,94.16 -30,139.16 -1.35,3.83 -2.01,6.99 -2.01,9.17 0,4.35 3.33,7.51 9.83,9.83l81 28.68c5.83,2.34 10.02,3.5 12.17,3.5 13.35,0 26.01,-25.98 38.17,-77.84 7.84,9.33 18.99,22.35 33.66,38.83 26.01,26.01 56.5,39 91.35,39 14.67,0 27.83,-2.34 39.5,-6.83 11.67,-4.51 17.5,-9.66 17.5,-15.66z"
   id="glyph29" />
   <glyph
   unicode="s"
   horiz-adv-x="425"
   d="M393 144.99c0,-45.5 -15.33,-84.17 -45.83,-116.15 -29.5,-30.52 -70.51,-45.85 -122.67,-45.85 -58.84,0 -115.35,14.01 -169.51,42 -14.67,7.51 -21.99,13.84 -21.99,19.02 0,2.67 0.99,6.66 3,12.17l22.84 60.99c2.65,6.5 6,9.83 9.83,9.83 2.34,0 5.34,-0.99 9.33,-3 52.84,-28.65 98.01,-42.99 135.83,-42.99 38.83,0 58.18,17.17 58.18,51.66 0,14.34 -4.84,25.51 -14.34,33.33 -9.66,7.68 -30.5,17.67 -62.67,29.67 -52.51,20.17 -87,38.34 -104.01,54.17 -26.67,25.51 -39.99,58.18 -39.99,98.17 0,47.84 16.68,87 50.01,117.33 33.33,30.5 75.99,45.66 127.99,45.66 31.51,0 64.84,-5.34 100.02,-16.16 34.98,-10.68 52.65,-20.67 52.65,-30.17 0,-2.5 -0.99,-6.17 -3,-10.68l-24.66 -57c-2.67,-5.83 -6,-8.83 -10.18,-8.83 -1.32,0 -3.99,0.66 -7.82,2.01 -38.5,17.17 -72,25.84 -100.51,25.84 -42.33,0 -63.5,-17.01 -63.5,-50.84 0,-13.68 4.18,-24.17 12.33,-31.35 8.17,-7.32 25.84,-16.32 53.01,-26.67 60,-23.5 98.34,-43.49 114.99,-60 27.17,-26.83 40.68,-60.83 40.68,-102.17z"
   id="glyph30" />
   <glyph
   unicode="t"
   horiz-adv-x="370"
   d="M366 21.99c0,-8.15 -10.35,-15.33 -31.16,-21.99 -35.17,-11.34 -68.84,-17.01 -101.17,-17.01 -59.17,0 -99.5,21.5 -120.99,64.51 -9.19,18.83 -13.68,49.82 -13.68,92.67l0 260.84 -69.33 0c-11.17,0 -16.68,5.65 -16.68,16.98l0 59.01c0,11.34 5.5,17.01 16.68,17.01l69.33 0 0 126.17c0,10.49 5.34,16.49 16.16,18.17l91.84 12.66 8.83 0c6.83,0 10.16,-5.34 10.16,-16.18l0 -140.81 113.67 0c11.34,0 17.17,-3.35 17.17,-10.18 0,-3.99 -0.33,-6.83 -1.02,-8.83l-13.16 -58.82c-2.01,-10.18 -7.82,-15.17 -17.67,-15.17l-99 0 0 -243c0,-22.84 1.18,-37.51 3.5,-44.01 4.51,-13.32 15.69,-20.01 33.52,-20.01 15.66,0 37.65,5.67 66,16.84 3.17,1.32 6.17,2.01 8.65,2.01 4.68,0 8.01,-3.35 10.35,-9.85l15.66 -69.66c1.51,-6 2.34,-9.66 2.34,-11.34z"
   id="glyph31" />
   <glyph
   unicode="v"
   horiz-adv-x="443"
   d="M449.18 480c0,-2.01 -0.85,-5.5 -2.5,-10.68l-166.02 -475.16c-3,-8.83 -9.17,-13.16 -18.66,-13.16l-81.99 0c-9.66,0 -15.99,4.32 -18.99,13.16l-163.02 475.16c-1.98,5.5 -3,9 -3,10.68 0,5.5 5.34,9 16.18,10.32l97.65 9.69c2.17,0.33 5.01,0.66 8.17,0.99 5.34,0 9.17,-4.68 11.83,-14.17l63.99 -228.99c10.02,-35.17 21,-83.17 33.17,-144 12.66,61.49 24.33,109.49 35.17,144l69.83 228.99c2.83,9.5 6.83,14.17 11.67,14.17 1.68,0 4.35,-0.33 8.34,-0.99l83.01 -9.69c9.99,-1.32 15.17,-4.82 15.17,-10.32z"
   id="glyph32" />
   <glyph
   unicode="y"
   horiz-adv-x="443"
   d="M450 480c0,-1.68 -0.5,-4.84 -1.84,-9.66l-100.16 -366.17c-5.83,-21.85 -11.5,-43.84 -17.01,-66 -16.98,-69.66 -30.33,-117.85 -40.16,-144.5 -9.33,-25.02 -21.5,-46.18 -36,-63.52 -29.34,-34.82 -69.66,-52.16 -121.16,-52.16 -28.02,0 -57.85,5.34 -89.34,16.16 -31.68,10.68 -47.34,21 -47.34,31.18 0,1.65 1.32,5.17 3.83,10.65l31.35 64.02c1.82,4.82 4.82,7.16 8.67,7.16 2.31,0 4.98,-0.99 7.82,-3.33 30.33,-14.5 56.01,-21.83 77.17,-21.83 21.17,0 37.32,5.5 48.66,16.32 11.17,10.84 21,30.83 29.5,59.67l11.67 42 -42 0c-9.33,0 -15.66,4.32 -18.99,13.16l-156.69 456.17c-1.98,5.5 -3,9 -3,10.68 0,5.5 5.34,9 16.18,10.32l108.83 10.68c5.5,0 9.5,-4.68 11.67,-14.17l66.5 -245.67c12.99,-49.49 25.84,-107.15 38.5,-173.32l15.17 84c3.66,20.81 6.66,36.33 9.33,46.49l9.66 42.83 56.17 244.68c2.34,10.16 5.83,15.17 10.82,15.17 1.35,0 4.02,-0.33 8.17,-0.99l88.02 -9.69c10.65,-1.32 15.99,-4.82 15.99,-10.32z"
   id="glyph33" />
  </font>
  <font
   id="FontID0"
   horiz-adv-x="537"
   font-variant="normal"
   style="fill-rule:nonzero"
   font-style="normal"
   font-weight="400">
	<font-face
   font-family="Officina Sans OS ITC TT"
   id="font-face33">
		<font-face-src>
			<font-face-name
   name="Officina Sans OS ITC TT" />
		</font-face-src>
	</font-face>
   <missing-glyph
   id="missing-glyph33"><path
     d="M0 0z"
     id="path33" /></missing-glyph>
   <glyph
   unicode="("
   horiz-adv-x="370"
   d="M316.85 -202.16c0,-3.85 -5.67,-9.5 -16.84,-16.84 -11.17,-7.32 -20.01,-11.01 -26.17,-11.01 -9.66,0 -32.67,27 -68.84,81 -81.99,122.84 -123,255.5 -123,398.01 0,153.66 48.33,296.67 145.02,429.17 24.5,33.17 39.99,49.82 46.82,49.82 3.66,0 7.68,-1.32 12.33,-3.83l23.83 -15.17c4.68,-3 6.85,-5.83 6.85,-8.83 0,-3.83 -2.83,-9.99 -8.83,-18 -96,-127.99 -144,-272.34 -144,-433.16 0,-159.83 48,-304.16 144,-433.16 6,-8.01 8.83,-14.17 8.83,-18z"
   id="glyph34" />
   <glyph
   unicode=")"
   horiz-adv-x="370"
   d="M288.99 249c0,-153.33 -48.33,-296.34 -145.16,-429.17 -24.33,-33.17 -39.99,-49.84 -46.84,-49.84 -3.5,0 -7.65,1.35 -12.17,3.85l-24 14.15c-4.49,3.69 -6.83,6.85 -6.83,9.85 0,3.83 3,9.99 8.83,18 96.17,129 144.17,273.33 144.17,433.16 0,159.83 -48,304.16 -144.17,433.16 -5.83,7.84 -8.83,13.84 -8.83,18 0,3 7.68,9.33 23.01,18.99 9.33,5.83 16.16,8.83 19.98,8.83 9.17,0 32.01,-27 68.84,-81 82.18,-120.5 123.17,-253.16 123.17,-397.99z"
   id="glyph35" />
   <glyph
   unicode="-"
   horiz-adv-x="352"
   d="M314.84 232.16c0,-9.5 -4.68,-14.14 -14.17,-14.14l-250.01 0c-9.16,0 -13.66,4.65 -13.66,14.14l0 46.69c0,9.5 4.51,14.14 13.66,14.14l250.01 0c9.5,0 14.17,-4.65 14.17,-14.14l0 -46.69z"
   id="glyph36" />
   <glyph
   unicode="."
   horiz-adv-x="295"
   d="M219.17 57.17c0,-19.49 -6.99,-36.17 -20.83,-50.17 -13.84,-13.98 -30.33,-21 -49.49,-21 -19.84,0 -36.69,6.85 -50.34,20.5 -13.68,13.68 -20.5,30.5 -20.5,50.67 0,19.51 6.99,36.17 21,49.68 14.01,13.49 30.99,20.15 50.84,20.15 18.5,0 34.65,-6.83 48.5,-20.67 13.84,-13.82 20.83,-30.17 20.83,-49.16z"
   id="glyph37" />
   <glyph
   unicode="0"
   horiz-adv-x="500"
   d="M457 292.17c0,-204.18 -69.16,-306.17 -207.49,-306.17 -57.68,0 -102.84,19.67 -135.5,59.02 -46.01,55.98 -68.99,134.33 -68.99,234.82 0,96.66 18.82,171.84 56.49,225.66 37.67,53.66 90.31,80.5 157.83,80.5 63.67,0 112.51,-25.34 146.49,-75.83 34.16,-50.68 51.17,-123.33 51.17,-218.01zm-82.01 -2.32c0,150.15 -40.51,225.15 -121.49,225.15 -40,0 -71.01,-20.15 -93.17,-60.32 -22.17,-40.17 -33.34,-96.35 -33.34,-168.66 0,-76.85 12.02,-136.18 36,-178.18 19.5,-33.82 48.67,-50.82 87.5,-50.82 44.84,0 76.34,19.33 94.85,58.17 19.81,42.01 29.65,100.18 29.65,174.67z"
   id="glyph38" />
   <glyph
   unicode="1"
   horiz-adv-x="500"
   d="M424.83 14.17c0,-9.5 -4.48,-14.17 -13.66,-14.17l-264.16 0c-9.5,0 -14.17,4.68 -14.17,14.17l0 37.67c0,9.5 4.68,14.14 14.17,14.14l101.99 0 0 426.19 -111.83 -67.35c-4.51,-2.66 -7.99,-4 -10.18,-4 -3,0 -5.33,2.49 -6.83,7.34l-13.15 24.01c-2.01,3.49 -3,6.49 -3,8.82 0,3.17 2.32,6.66 6.83,10.18l150.32 109.84 49.69 0c9.5,0 14.14,-4.68 14.14,-14.17l0 -500.85 86.17 0c9.01,0 13.66,-4.65 13.66,-14.14l0 -37.67z"
   id="glyph39" />
   <glyph
   unicode="2"
   horiz-adv-x="500"
   d="M431.01 14.17c0,-9.5 -4.68,-14.17 -14.17,-14.17l-335.68 0c-6.15,0 -9.67,1.5 -10.66,4.34 -0.99,1.98 -1.5,5.33 -1.5,9.84 0,65 13.35,119.65 40.17,163.5 26.84,43.99 70.84,83.34 132.01,118.15 45.84,26.33 74.49,46.69 85.83,61 14.66,18.51 22,41.19 22,67.83 0,28.35 -8.5,50.51 -25.65,66.33 -17.01,16.02 -40.51,24.01 -70.53,24.01 -28.15,0 -50.99,-7.34 -68.48,-22.17 -17.35,-14.83 -32.34,-39.83 -45.01,-74.83 -2.66,-6.49 -6.15,-9.84 -10.32,-9.84 -2.01,0 -5.16,0.68 -9.67,2.01l-41.02 11.65c-5.5,2.35 -8.33,5.67 -8.33,10.35 0,7.51 4.34,20.49 13.18,39 8.84,18.65 17.83,33.99 26.99,46.01 35.52,45.84 84.5,68.82 147.17,68.82 53.83,0 96.18,-14 127.16,-42.01 31.01,-28.01 46.52,-66.33 46.52,-114.83 0,-47.17 -14.68,-86.34 -43.99,-117.33 -12.84,-13.01 -24.52,-23.02 -35.35,-30.16 -9.16,-6.18 -39.66,-24.18 -91.5,-53.83 -68.82,-39.68 -106.5,-91.36 -112.99,-154.86l269.66 0c9.5,0 14.17,-4.65 14.17,-14.14l0 -44.67z"
   id="glyph40" />
   <glyph
   unicode="3"
   horiz-adv-x="500"
   d="M434.01 109.84c0,-57.17 -19.67,-103.52 -58.85,-138.84 -39.17,-35.35 -90.65,-53.01 -154.66,-53.01 -34.33,0 -70.19,5.02 -108,15.17 -37.67,10.01 -56.49,19.67 -56.49,28.83 0,1.5 0.99,4.68 2.98,9.18l20.01 44.99c1.67,3.86 3.83,5.84 6.83,5.84 2.49,0 10.18,-3 22.99,-8.84 33.85,-16.16 70.53,-24.15 109.84,-24.15 88.84,0 133.34,41.33 133.34,123.99 0,82.01 -48.67,123.02 -146.01,123.02l-34.33 0c-8.99,0 -13.66,4.65 -13.66,14l0 40c0,9.33 4.68,14 13.83,14l33.17 0c39.34,0 70.84,10.83 94,32.48 23.33,21.66 35.01,50.65 35.01,87.16 0,29.34 -8.84,52.84 -26.33,70.16 -17.66,17.52 -41.33,26.19 -70.84,26.19 -36.51,0 -70.16,-17.01 -100.66,-50.85 -7.85,-8.65 -14.17,-13.15 -19.16,-13.15 -2.18,0 -5.02,1.33 -8.19,4l-32.82 27.84c-3.49,2.32 -5.33,4.99 -5.33,8.33 0,10.01 16.16,26.99 48.33,50.82 34.84,25.99 75,39 120.67,39 50.65,0 92.01,-14.83 123.67,-44.5 31.83,-29.51 47.65,-68.17 47.65,-115.65 0,-70.67 -34.33,-119.68 -102.98,-147 27.84,-8.5 49.32,-18.68 64.49,-30.67 40.99,-32.68 61.51,-78.66 61.51,-138.33z"
   id="glyph41" />
   <glyph
   unicode="4"
   horiz-adv-x="500"
   d="M469.5 86.82c0,-9.16 -4.82,-13.83 -14.17,-13.83l-79.31 0 0 -140.82c0,-9.5 -4.68,-14.17 -14.17,-14.17l-46.69 0c-9.5,0 -14.14,4.68 -14.14,14.17l0 140.82 -257.84 0c-6.18,0 -9.84,1.84 -11.17,5.33 -0.68,2.01 -0.99,4.85 -0.99,8.33l0 56.18 259.31 430.32c3.17,5.16 8.84,7.85 17.01,7.85l49.83 -7.85c8.16,-1.33 12.16,-4.34 12.16,-9.16 0,-2.35 -1.33,-5.33 -3.83,-8.84l-255.34 -416.15 190.69 0 11.17 160.84c0.65,8.82 5.5,13.15 14.17,13.15l35.66 0c9.5,0 14.17,-4.68 14.17,-14.17l0 -159.82 79.31 0c9.35,0 14.17,-4.85 14.17,-14.34l0 -37.84z"
   id="glyph42" />
   <glyph
   unicode="5"
   horiz-adv-x="500"
   d="M434.01 150.83c0,-72 -21.17,-128.66 -63.35,-170.33 -42.32,-41.67 -99.67,-62.5 -171.98,-62.5 -36.17,0 -67.01,3.51 -92.52,10.35 -25.48,6.83 -38.15,15 -38.15,24.83l0 6.83 10.32 40c1.19,5.16 4.51,7.82 9.67,7.82 2.01,0 5.67,-0.65 11.17,-1.98 30.02,-11.17 64.69,-16.84 104,-16.84 99.18,0 148.85,53.01 148.85,159.16 0,40 -9.18,71.18 -27.33,93.34 -18.17,22.34 -43.68,33.48 -76.68,33.48 -41.5,0 -80.33,-18.31 -115.99,-54.82 -4,-4.17 -6.83,-6.32 -8.84,-6.32l-9.33 0.99 -34.67 12.16c-7.51,2.66 -11.17,5.67 -11.17,8.84l0 7.31 32.17 319.69c0.65,8.82 5.33,13.15 13.66,13.15l260.33 0c9.5,0 14.17,-4.68 14.17,-14.17l0 -41.67c0,-9.5 -4.68,-14.14 -14.17,-14.14l-209 0 -22 -202.85c38.83,28.52 79,42.83 120.5,42.83 50.48,0 91.64,-18 123.16,-54.17 31.49,-36.17 47.17,-83.17 47.17,-140.99z"
   id="glyph43" />
   <glyph
   unicode="6"
   horiz-adv-x="500"
   d="M443 224.16c0,-69.99 -18,-127.16 -53.83,-171.49 -36,-44.5 -82.49,-66.67 -139.66,-66.67 -67.83,0 -118.66,30.84 -152.33,92.32 -25.51,46.18 -38.18,106.67 -38.18,181.67 0,120.02 25,215.69 75,286.5 50,71.01 117.18,106.53 201.85,106.53 23.16,0 42.97,-2.18 59.33,-6.35 16.5,-4.34 24.66,-9.5 24.66,-15.68 0,-2.66 -0.34,-4.65 -0.99,-5.81l-10.69 -42.18c-1.33,-4.51 -3.83,-6.83 -7.31,-6.83l-6.83 0.82c-20.18,6.69 -40.51,10.01 -61,10.01 -54.17,0 -98.02,-23.16 -131.84,-69.51 -28.01,-37.98 -46.18,-86.14 -54.34,-144.48 38.01,43.31 80.5,65 127.5,65 51.34,0 92.32,-19.5 122.82,-58.51 30.5,-39.17 45.84,-90.82 45.84,-155.34zm-82.01 -1.16c0,97.34 -37.16,146.01 -111.49,146.01 -34.33,0 -61,-12.5 -79.99,-37.67 -19.02,-25 -28.52,-60.52 -28.52,-106.33 0,-112.02 36.51,-168.01 109.5,-168.01 73.67,0 110.49,55.33 110.49,166z"
   id="glyph44" />
   <glyph
   unicode="7"
   horiz-adv-x="500"
   d="M426.67 538.83l-230.82 -605.67c-2.35,-6.66 -5.67,-10.15 -9.84,-10.15 -0.68,0 -2.01,0 -3.86,0l-1.98 0 -54.17 8.33c-8.16,0.99 -12.33,3.49 -12.33,7.82 0,1.98 1.16,4.99 3.49,9.33l215.86 555.5 -257.84 0c-9.5,0 -14.17,4.68 -14.17,14.17l0 43.65c0,9.5 4.68,14.17 14.17,14.17l337.83 0c9.16,0 13.66,-4.68 13.66,-14.17l0 -22.99z"
   id="glyph45" />
   <glyph
   unicode="8"
   horiz-adv-x="500"
   d="M460 167.16c0,-44.33 -14.34,-83 -43,-116.16 -37.67,-43.34 -93.17,-65 -166,-65 -64.18,0 -115.34,16.33 -153.67,48.84 -38.18,32.48 -57.34,76 -57.34,130.34 0,53.49 18.99,97 57.17,130.82 18.82,17.35 48.5,33.85 88.84,49.35 -78.66,30.67 -118.01,80.33 -118.01,148.99 0,42.35 15.34,78.66 45.84,108.85 33.82,33.17 79.82,49.83 138.16,49.83 53.01,0 96.01,-13.83 129.17,-41.67 33.17,-27.84 49.83,-64.01 49.83,-108.17 0,-67.83 -37.67,-119.68 -113.16,-155.85 94.82,-38.15 142.16,-98.16 142.16,-180.17zm-104.99 327.99c0,28.35 -9.67,51.19 -29,68.17 -19.5,17.18 -45.01,25.68 -77.02,25.68 -30.5,0 -55.16,-8.5 -73.98,-25.34 -18.68,-17.01 -28.01,-39.17 -28.01,-66.5 0,-46.66 35.32,-86.34 105.99,-119.17 68,27.67 102.02,66.67 102.02,117.16zm22.99 -332.81c0,63.67 -43.34,112 -130,144.82 -83.99,-34.5 -126,-82.83 -126,-144.82 0,-33.34 11.82,-60.01 35.66,-80.16 23.84,-20.18 55.16,-30.19 94.34,-30.19 37.67,0 68.17,10.18 91.33,30.5 23.16,20.35 34.67,46.86 34.67,79.85z"
   id="glyph46" />
   <glyph
   unicode="A"
   horiz-adv-x="537"
   d="M517.18 7.82c0,-5.16 -4.85,-7.82 -14.17,-7.82l-64.01 0c-6.83,0 -11.82,3.66 -15.17,11.17l-54.68 194.82 -203.16 0 -56.15 -194.82c-1.84,-7.51 -6.83,-11.17 -14.68,-11.17l-59.98 0c-9.52,0 -14.17,2.32 -14.17,6.83 0,1.67 0.65,4.68 1.98,9.33l201.17 658.68c2.18,7.48 7.17,11.17 14.68,11.17l59.98 0c7.85,0 12.84,-3.69 15.17,-11.17l201.17 -658.68c1.33,-4.65 2.01,-7.31 2.01,-8.33zm-167.02 267.16l-60.15 220.17c-8.67,31.52 -16.36,63.52 -22.85,95.67 -4.68,-23.5 -12.33,-54.99 -22.99,-94.65l-60.18 -221.19 166.17 0z"
   id="glyph47" />
   <glyph
   unicode="B"
   horiz-adv-x="556"
   d="M500 188.99c0,-42 -10.33,-78.83 -30.85,-110.32 -20.49,-31.67 -48.65,-53.5 -84.5,-65.51 -25,-8.84 -68.31,-13.17 -129.83,-13.17l-145.16 0c-9.17,0 -13.68,4.66 -13.68,14.17l0 657.66c0,9.51 4.51,14.17 13.68,14.17l163.17 0c62.83,0 108.15,-8.99 136.16,-26.83 42.65,-27.68 63.98,-73.52 63.98,-137.17 0,-77.18 -32.65,-131.5 -98.15,-163.17 32.65,-8.99 56.49,-20.67 71.82,-34.66 35.51,-32.86 53.34,-78 53.34,-135.19zm-115.99 324.33c0,38.68 -8.5,66.18 -25.69,82.33 -17.16,16.18 -46.33,24.35 -87.33,24.35l-93 0 0 -238 72 0c39.01,0 67.52,6 85.01,18.17 32.68,22.65 49.01,60.33 49.01,113.15zm26.98 -321.83c0,51.33 -18.99,87.33 -57.16,108.33 -19.17,10.85 -46.51,16.18 -82,16.18l-93.85 0 0 -250.01 97.69 0c41,0 71.82,8.01 92.33,24.02 28.66,22.5 42.98,56.33 42.98,101.48z"
   id="glyph48" />
   <glyph
   unicode="C"
   horiz-adv-x="462"
   d="M441.15 64.01c0,-6.83 -9.33,-17.35 -27.81,-31.66 -39.68,-30.84 -84.84,-46.35 -135.35,-46.35 -73.5,0 -129.49,31.01 -168.15,93.17 -38.52,62.16 -57.85,152.5 -57.85,270.82 0,116.84 19.02,205.17 57.17,265.01 36.17,56.66 90.17,85.01 162,85.01 55.67,0 105.33,-18.68 149.02,-56.01 10.66,-9.16 16.16,-15.85 16.16,-20.01 0,-2.66 -0.68,-5.33 -2.01,-7.82l-29.31 -37.98c-1.33,-2.69 -4.03,-4.03 -7.85,-4.03 -1.98,0 -13.32,8.02 -34.16,24.01 -29.99,23.16 -60.35,34.84 -90.99,34.84 -45.67,0 -78.83,-21.83 -99.67,-65.51 -20.83,-43.65 -31.35,-113.16 -31.35,-208.66 0,-203.84 47.17,-305.83 141.33,-305.83 34.5,0 71.83,17.66 111.83,52.98 4.68,3.86 8.19,5.84 10.86,5.84 2.66,0 5.33,-2.32 8.33,-6.83l24.83 -33.17c1.98,-1.98 2.98,-4.51 2.98,-7.82z"
   id="glyph49" />
   <glyph
   unicode="D"
   horiz-adv-x="556"
   d="M502.99 355c0,-236.66 -93.31,-355 -279.98,-355l-113.33 0c-9.17,0 -13.68,4.66 -13.68,14.17l0 657.66c0,9.51 4.51,14.17 13.68,14.17l104.16 0c79.68,0 139.18,-13.32 178.32,-39.99 73.85,-50.84 110.83,-147.84 110.83,-291.01zm-88 0c0,129.34 -28.32,209.5 -84.99,240.01 -25.18,13.32 -62.16,20 -110.99,20l-41.02 0 0 -544.01 50.84 0c39.01,0 68.49,4.33 88.49,13.01 19.84,8.5 37.67,24.48 53.68,47.98 29.33,43.19 43.99,117.51 43.99,223.01z"
   id="glyph50" />
   <glyph
   unicode="F"
   horiz-adv-x="425"
   d="M432 679.18c0,-2.35 -0.34,-4.17 -0.99,-5.36l-0.99 -4 -15.19 -43.99c-2.66,-7.17 -7.65,-10.83 -15.17,-10.83l-221.67 0 0 -233.01 195.84 0c9.5,0 14.17,-4.51 14.17,-13.49l0 -38.49c0,-9.35 -4.68,-14 -14.17,-14l-195.84 0 0 -301.83c0,-9.5 -4.65,-14.17 -14.14,-14.17l-54.17 0c-9.18,0 -13.66,4.68 -13.66,14.17l0 657.66c0,9.5 4.48,14.17 13.66,14.17l308.15 0c9.35,0 14.17,-2.35 14.17,-6.83z"
   id="glyph51" />
   <glyph
   unicode="G"
   horiz-adv-x="537"
   d="M468.99 41.16c0,-7.17 -2.98,-12.16 -8.82,-15.17 -42.35,-26.67 -97.68,-40 -166,-40 -78.35,0 -138.19,30.16 -179.35,90.51 -41.16,60.32 -61.82,148.17 -61.82,263.34 0,117.16 20.83,206.5 62.5,267.99 41.67,61.51 102.16,92.18 181.64,92.18 51.34,0 99.52,-13.69 144,-41.02 13.35,-8.33 20.01,-15 20.01,-19.98 0,-2.18 -0.99,-5.02 -2.83,-8.16l-21 -43c-1.33,-2.52 -3.32,-3.86 -5.98,-3.86 -2.52,0 -13.01,6.01 -31.18,18.17 -31.66,20.49 -65.99,30.84 -103.15,30.84 -53.52,0 -92.69,-22.68 -117.67,-68 -24.86,-45.16 -37.36,-116.5 -37.36,-213.99 0,-105.16 13.01,-181.19 39,-227.85 26.02,-46.83 68.34,-70.16 127.02,-70.16 27.33,0 53.66,6.15 79,18.65l0 206.33 -77.67 0c-9.5,0 -14.17,4.68 -14.17,14.17l0 40.68c0,9.5 4.68,14.14 14.17,14.14l145.98 0c9.18,0 13.66,-4.65 13.66,-14.14l0 -291.68z"
   id="glyph52" />
   <glyph
   unicode="I"
   horiz-adv-x="333"
   d="M310.16 14.34c0,-9.5 -4.82,-14.34 -14.17,-14.34l-258.83 0c-9.5,0 -14.17,4.85 -14.17,14.34l0 37.33c0,9.5 4.68,14.31 14.17,14.31l87.85 0 0 554 -87.85 0c-9.5,0 -14.17,4.68 -14.17,13.83l0 37.84c0,9.5 4.68,14.34 14.17,14.34l258.83 0c9.35,0 14.17,-4.85 14.17,-14.34l0 -37.84c0,-9.16 -4.82,-13.83 -14.17,-13.83l-88.98 0 0 -554 88.98 0c9.35,0 14.17,-4.82 14.17,-14.31l0 -37.33z"
   id="glyph53" />
   <glyph
   unicode="K"
   horiz-adv-x="517"
   d="M503.66 36.99c0,-3.66 -2.15,-7 -6.83,-10.32l-45.84 -31.83c-4,-2.49 -7,-3.86 -9.33,-3.86 -2.83,0 -6.15,2.35 -9.67,6.86l-254.01 327.31 0 -310.99c0,-9.5 -4.65,-14.17 -14.14,-14.17l-54.17 0c-9.18,0 -13.66,4.68 -13.66,14.17l0 657.66c0,9.5 4.48,14.17 13.66,14.17l54.17 0c9.5,0 14.14,-4.68 14.14,-14.17l0 -324.68 256.85 340.01c4,5.16 7.17,7.82 9.84,7.82 2.32,0 5.33,-1.67 9.33,-4.82l36.99 -25c5.19,-3.51 7.85,-7 7.85,-10.18 0,-2.32 -1.67,-5.67 -4.85,-9.84l-235.33 -304.33 240.18 -295.17c3.32,-3.17 4.82,-6.18 4.82,-8.67z"
   id="glyph54" />
   <glyph
   unicode="M"
   horiz-adv-x="666"
   d="M592.99 9.83c0,-6.5 -4.16,-9.83 -12.66,-9.83l-58.16 0c-9.17,0 -13.84,4.32 -14.17,13.16l-15 512.67c0,-5.83 1.02,11.34 2.83,51.33l0.99 20.01c-4.49,-31.18 -11.48,-60.66 -21,-88.35l-117.17 -337.99c-2.65,-7.16 -7.49,-10.68 -14.65,-10.68l-29.34 0c-7.51,0 -12.5,3.52 -15,10.68l-112.84 337.99c-8.83,26.34 -15.17,55.84 -18.99,88.35l0 -18.99 1.82 -38.17 0 -19.02 -14.65 -507.83c0,-8.83 -4.35,-13.16 -12.85,-13.16l-54.33 0c-6.33,0 -10.16,0.83 -11.67,2.5 -1.49,1.49 -2.15,3.99 -2.15,7.32l0 4.35 37.65 658.66c0.66,8.83 5.34,13.16 14.17,13.16l59.17 0c7.49,0 12.5,-3.66 15,-11.15l117.83 -344.84c6.83,-19.84 11.67,-40.51 14.17,-62.01 1.32,11.5 5.65,32.17 13.16,62.01l118.84 344.84c2.65,7.49 7.65,11.15 15.17,11.15l63 0c8.15,0 12.5,-4.32 13.16,-13.16l37.65 -663.01z"
   id="glyph55" />
   <glyph
   unicode="O"
   horiz-adv-x="556"
   d="M503 344.18c0,-238.85 -77.02,-358.18 -230.85,-358.18 -146.81,0 -220.17,117.67 -220.17,352.83 0,240.83 78.18,361.19 234.34,361.19 144.51,0 216.68,-118.69 216.68,-355.83zm-89.01 -7.34c0,109.16 -12.67,188.67 -38.15,238.51 -19.84,38.49 -52.5,57.66 -98.02,57.66 -48.98,0 -83.31,-21 -103.15,-63.01 -22.51,-47.82 -33.68,-122.82 -33.68,-224.81 0,-103.49 13.01,-181.67 39,-234.51 18.99,-38.49 51.17,-57.66 96.83,-57.66 49.18,0 83.51,21 103.01,62.99 22.82,48.5 34.16,122.17 34.16,220.85z"
   id="glyph56" />
   <glyph
   unicode="P"
   horiz-adv-x="482"
   d="M466.01 502.01c0,-91.84 -33.19,-155.17 -99.67,-190.01 -28.52,-14.68 -67.18,-22 -116.5,-22l-71.86 0 0 -275.84c0,-9.5 -4.65,-14.17 -14.14,-14.17l-54.17 0c-9.18,0 -13.66,4.68 -13.66,14.17l0 657.66c0,9.5 4.48,14.17 13.66,14.17l153.5 0c59.67,0 102.33,-7.68 128.01,-23.02 49.83,-29.82 74.83,-83.65 74.83,-160.98zm-84.02 -1.02c0,57.51 -18.65,93.51 -55.81,107.69 -13.69,5.5 -37.19,8.33 -70.36,8.33l-77.84 0 0 -255 66.02 0c43.65,0 75,7.65 94,22.99 29.34,23.67 43.99,62.33 43.99,115.99z"
   id="glyph57" />
   <glyph
   unicode="R"
   horiz-adv-x="518"
   d="M504.66 8.5c0,-2.83 -3.84,-5.18 -11.67,-6.83l-61 -11.67 -5.49 0c-4.51,0 -8.01,2.65 -10.67,7.83l-162.17 313.17 -75.68 0 0 -296.84c0,-9.51 -4.66,-14.17 -14.15,-14.17l-54.17 0c-9.17,0 -13.68,4.66 -13.68,14.17l0 657.66c0,9.51 4.51,14.17 13.68,14.17l153.48 0c57,0 99.01,-7.01 126.01,-21 49.84,-26 74.83,-75.99 74.83,-150 0,-102.17 -43.34,-167.99 -130.16,-197.34l166.98 -297.81c2.5,-5 3.84,-8.68 3.84,-11.34zm-124.67 499.67c0,58.99 -21.49,94.68 -64.5,106.99 -11.49,3.17 -30.67,4.84 -57.83,4.84l-79.68 0 0 -246.02 76.84 0c36.18,0 63.5,7.68 82.18,22.86 28.66,23.32 42.98,60.48 42.98,111.32z"
   id="glyph58" />
   <glyph
   unicode="S"
   horiz-adv-x="482"
   d="M439 182.34c0,-58.68 -19.32,-106.02 -58.16,-142.18 -38.67,-36.17 -89.34,-54.17 -151.84,-54.17 -37.49,0 -78.33,7.02 -122.5,21 -44.32,14.01 -66.5,27 -66.5,39 0,2.01 0.69,4.68 2.01,8.34l18.99 47.67c1.35,3.33 3.5,5.01 6.85,5.01 3,0 8.65,-2.34 17.15,-6.85 51,-28.16 99.33,-42.17 145.02,-42.17 36.66,0 66.33,10.35 88.49,31.02 22.32,20.67 33.5,48 33.5,81.83 0,30.5 -8.5,56.01 -25.32,76.16 -17.01,20.17 -50.17,44.34 -99.66,72.66 -65.34,37.84 -107.34,67.18 -126,88.35 -26.67,30.33 -40.02,67.32 -40.02,110.84 0,53.15 18.33,96.5 55.02,130.32 36.5,33.83 83.84,50.84 141.83,50.84 33.5,0 69.66,-6.33 108.5,-19.16 39,-12.85 58.49,-24.5 58.49,-35.01 0,-1.84 -0.66,-4.49 -1.98,-7.65l-18 -45.35c-1.68,-3.99 -4.35,-5.83 -7.84,-5.83 -1.32,0 -15.66,6.69 -42.99,20.01 -30.33,14.67 -62.67,21.99 -97.16,21.99 -34.51,0 -61.51,-8.65 -80.84,-26.15 -19.35,-17.34 -29.01,-41.67 -29.01,-73.02 0,-35.65 13.32,-63.99 39.99,-84.83 7.18,-5.67 47.17,-30.5 120.17,-74.84 48.17,-28.49 81,-55.32 98.67,-79.98 22.18,-30.69 33.17,-66.52 33.17,-107.84z"
   id="glyph59" />
   <glyph
   unicode="W"
   horiz-adv-x="684"
   d="M663.16 672.01c0,-0.99 -0.34,-2.32 -0.99,-3.83l0 -4.03 -138.16 -651.99c-1.67,-8.16 -6.69,-12.16 -15.17,-12.16l-66.02 0c-7.99,0 -12.67,4 -13.66,12.16l-86.34 552.84 -103.97 -552.84c-1.33,-8.16 -6.18,-12.16 -14.68,-12.16l-61 0c-8.5,0 -13.49,4 -15.17,12.16l-125.01 653.84c-0.65,3.69 -0.99,6.18 -0.99,7.82 0,4.03 4,6.69 12.16,8.33l51.85 9.84c3.49,0.68 6.32,1.02 8.33,1.02 3.83,0 6.49,-3.86 7.65,-11.68l86 -494.33c4.17,-24.01 7.17,-65.68 8.84,-125.01 1.98,28.69 6.01,69.33 12.16,122l97.17 489.82c1.67,8.19 6.49,12.19 14.66,12.19l53.18 0c8.84,0 13.83,-4 15.17,-12.19l82.01 -493.65c4,-23.84 7.48,-64.52 10.83,-122 0.68,27.67 3.66,68.34 9.33,122l91.67 501.16c1.33,7.82 4.34,11.68 8.84,11.68 1.64,0 4,-0.34 7.31,-1.02l51.85 -10.66c7.99,-1.98 12.16,-5.16 12.16,-9.33z"
   id="glyph60" />
   <glyph
   unicode="Z"
   horiz-adv-x="443"
   d="M426.84 14.17c0,-9.5 -4.51,-14.17 -13.66,-14.17l-373.01 0c-9.5,0 -14.17,4.68 -14.17,14.17l0 51.65 294.01 551.19 -263.68 0c-9.5,0 -14.14,2.66 -14.14,7.82 0,0.65 0.31,1.98 0.99,4l0.82 2.83 10.35 42.15c1.67,8.19 6.49,12.19 14.66,12.19l333.01 0c9.5,0 14.17,-4.68 14.17,-14.17l0 -47.85 -295.85 -552.98 292.85 0c9.16,0 13.66,-4.51 13.66,-13.66l0 -43.17z"
   id="glyph61" />
   <glyph
   unicode="a"
   horiz-adv-x="462"
   d="M405.66 24.66c0,-1.98 -1.32,-3.5 -3.83,-4.82l-43.02 -26.83c-2.65,-2.01 -5.15,-3 -7.82,-3 -12.66,0 -25.35,21 -38.17,63 -42.83,-42 -90.66,-63 -142.99,-63 -40.35,0 -72.52,12.33 -96.17,36.83 -23.83,24.66 -35.67,57.99 -35.67,99.99 0,113.01 87.99,171 264,174l0 33.17c0,32.01 -7.18,54.83 -21.35,68.5 -14.15,13.68 -37.65,20.5 -70.65,20.5 -33.17,0 -72.99,-9.66 -119.17,-29.01 -2.67,-1.16 -4.98,-1.82 -6.83,-1.82 -3.66,0 -6,1.49 -6.83,4.82l-15.17 40.02 -1.02 7.65c0,5.01 8.83,11.34 26.83,18.99 41.34,18.17 85.84,27.35 133.35,27.35 103.82,0 155.84,-46.68 155.84,-140.17l0 -189c0,-55.35 8.81,-99 26.65,-131.34 1.35,-2.17 2.01,-4.16 2.01,-5.83zm-103.65 85.18l0 129c-124.68,-1.02 -187.02,-36.35 -187.02,-106.02 0,-23.5 6.85,-42.5 20.5,-57.33 13.68,-14.83 31.35,-22.32 52.68,-22.32 33.33,0 71.15,18.99 113.84,56.67z"
   id="glyph62" />
   <glyph
   unicode="b"
   horiz-adv-x="500"
   d="M450 272.01c0,-190.69 -60.83,-286.01 -182.66,-286.01 -46.35,0 -89.01,16.33 -128.15,49.18 -12.02,-30.19 -22.85,-45.18 -32.34,-45.18 -2.01,0 -4.51,0.99 -7.82,3l-43 26.84c-2.01,1.81 -3,3.49 -3,4.82 0.31,2.66 1.33,5.02 3,7.34 18.65,24.49 27.98,59.5 27.98,104.99l0 561.17c0,6.83 3.69,11 11.17,12.67l51.68 12.16c0.68,0.68 3,0.99 6.83,0.99 4.17,0 6.32,-3.66 6.32,-11.17l0 -267.99c47.34,32.82 91.84,49.15 133.34,49.15 104.51,0 156.67,-73.98 156.67,-221.98zm-82.01 -10.69c0,110.52 -29.82,165.68 -89.32,165.68 -32.51,0 -72.17,-16.36 -118.69,-48.84l0 -285.5c29.68,-25.82 64.35,-38.66 104,-38.66 69.33,0 104,69.16 104,207.32z"
   id="glyph63" />
   <glyph
   unicode="c"
   horiz-adv-x="408"
   d="M398.18 430.16l-1.02 -6.33 -21.99 -39c-2.5,-4.65 -5.17,-6.83 -7.84,-6.83 -2.83,0 -5.67,1.16 -8.15,3.83 -40.68,30.17 -75,45.17 -103.02,45.17 -80.84,0 -121.16,-61.98 -121.16,-185.84 0,-124.82 37.16,-187.16 111.33,-187.16 22.16,0 42.99,4.49 62.5,13.68 11.34,5.65 29.83,17.32 55.16,35.32 3,2.01 5.34,3 7.35,3 2.67,0 4.82,-1.98 6.83,-5.83l15.17 -38.15c1.68,-4.18 2.5,-7.51 2.83,-10.18 0,-4.49 -5.34,-10.65 -15.99,-18.5 -42.69,-31.49 -89.34,-47.34 -139.68,-47.34 -59.67,0 -106.16,21.5 -139.49,64.35 -33.33,42.99 -50.01,102.5 -50.01,178.65 0,82.02 18.17,146.67 54.5,194.01 36.17,47.34 85.84,71.01 148.68,71.01 44.15,0 84.99,-13.02 121.99,-39 14.67,-10.51 22.02,-18.69 22.02,-24.85z"
   id="glyph64" />
   <glyph
   unicode="d"
   horiz-adv-x="500"
   d="M448.49 23.67c0,-2.01 -1.82,-3.83 -5.32,-5.83l-45 -24.83c-2.01,-2.01 -4.51,-3 -7.84,-3 -12,0 -23.01,19.98 -33.17,59.84 -56.67,-42.52 -106.32,-63.85 -149.01,-63.85 -49.16,0 -87.5,23.01 -115.32,68.84 -27.83,45.85 -41.83,109.35 -41.83,190.35 0,76.65 15.99,137.32 48.17,181.99 32.01,44.5 75.66,66.85 131.01,66.85 34.49,0 71.15,-10.68 109.82,-32.01l0 236.15c0,6.19 3.33,10.35 10.18,12.69l51.66 12.17c1.32,0.66 3.5,0.99 6.33,0.99 4.49,0 6.83,-3.66 6.83,-11.17l0 -554.82c0,-52.18 8.34,-91.51 25.18,-118.18 5.48,-8.5 8.32,-13.82 8.32,-16.16zm-108.5 87.99l0 283.51c-36.99,21.17 -70.82,31.82 -101.5,31.82 -37.32,0 -64.16,-13.98 -80.65,-41.83 -16.51,-27.83 -24.85,-73.16 -24.85,-136.16 0,-69 7.18,-118.84 21.69,-149.34 14.32,-30.5 38.15,-45.66 71.15,-45.66 35.01,0 73.02,19.16 114.17,57.66z"
   id="glyph65" />
   <glyph
   unicode="e"
   horiz-adv-x="462"
   d="M432 240.99c0,-12 -3.66,-18 -11.17,-18l-287.84 0c5.17,-112.65 49.35,-168.99 132.33,-168.99 35.5,0 74.01,12 115.68,35.83 3.66,2.01 6.99,3 10.32,3 2.34,0 4.51,-1.68 6.85,-5.01l18 -39c1.32,-2.83 1.98,-5.15 1.98,-6.83 0,-7.32 -12,-16.68 -36.17,-27.66 -39.66,-18.83 -80.67,-28.35 -123,-28.35 -63.5,0 -114,22.84 -151.65,68.5 -37.51,45.83 -56.34,107.17 -56.34,184.35 0,78 17.83,139.99 53.5,186.17 35.83,45.99 83.84,69 144.17,69 83.67,0 139.82,-40.02 168.17,-120.19 10.16,-28.32 15.17,-72.5 15.17,-132.83zm-81.99 44.01c-2.34,98.67 -38.01,147.99 -107.34,147.99 -68.84,0 -105.33,-49.32 -109.68,-147.99l217.02 0z"
   id="glyph66" />
   <glyph
   unicode="f"
   horiz-adv-x="295"
   d="M341.67 688.82c0,-0.66 -0.66,-2.48 -2.01,-5.83l-16.49 -40.98c-1.35,-3.83 -3.85,-5.83 -7.35,-5.83 -2.67,0 -5.83,0.99 -9.83,3 -28.84,13.82 -54.5,20.83 -77.01,20.83 -24.99,0 -42.17,-9.83 -51.17,-29.34 -5.83,-11.67 -8.83,-36.17 -8.83,-73.68l0 -76.98 143.84 0c7.51,0 11.34,-2.34 11.34,-6.83 0,-2.67 -0.33,-4.68 -0.99,-6.35l-13.18 -39.99c-1.98,-5.83 -6.33,-8.83 -13.16,-8.83l-127.84 0 0 -405.83c0,-6.17 -0.99,-9.66 -3,-10.68 -1.82,-0.99 -4.49,-1.49 -7.82,-1.49l-53.34 0c-5.01,0 -8.01,0.83 -9.17,2.67 -1.18,1.82 -1.68,5.01 -1.68,9.5l0 405.83 -66.33 0c-5.83,0 -9.17,1.02 -10.16,3 -1.02,1.84 -1.51,4.68 -1.51,8.17l0 38.67c0,6.17 1.35,9.83 3.85,11.17 1.32,0.66 3.99,0.99 7.82,0.99l66.33 0 0 78c0,54.17 8.67,92.67 25.84,115.65 25.16,33.5 62.5,50.34 111.99,50.34 23.34,0 47.5,-3.99 72.5,-12 24.85,-7.84 37.35,-15.66 37.35,-23.17z"
   id="glyph67" />
   <glyph
   unicode="g"
   horiz-adv-x="500"
   d="M446.99 461.85c0,-2.18 -1.98,-6.52 -5.84,-12.67 -16.81,-26.33 -25.14,-60.01 -25.14,-101l0 -154.35c0,-47.17 1.64,-104.17 4.99,-170.98 1.33,-26.67 2.01,-45.69 2.01,-57 0,-117.84 -59.19,-176.85 -177.67,-176.85 -53.66,0 -103.66,12.33 -149.84,37.19 -12.16,6.15 -18.17,11.65 -18.17,16.5 0,0.99 0.68,3.49 2.01,7.31l18 40.17c0.99,3.86 3,5.84 5.84,5.84 2.32,0 4.99,-0.99 7.82,-3 47.17,-25.31 90.82,-37.98 131.16,-37.98 43.68,0 73.84,12.16 90.68,36.31 10.15,14 15.17,38.35 15.17,73.02 0,7 -0.34,24.15 -1.02,51.51l-0.99 51.99c-44.5,-36.51 -90.82,-54.82 -138.98,-54.82 -47.68,0 -85.52,19.81 -113.36,59.5 -27.84,39.83 -41.67,93.83 -41.67,162.17 0,83 16.53,146.98 49.35,191.99 32.82,44.84 79.48,67.32 140.17,67.32 40.65,0 80.82,-14 120.5,-41.81 12.16,30.5 21.49,45.81 28.32,45.81 3,0 5.5,-0.65 7.85,-1.98l45.98 -28.35c1.84,-0.82 2.83,-2.83 2.83,-5.81zm-105.99 -332.02l0 269.83c-36.99,18.85 -68,28.35 -93.34,28.35 -75.83,0 -113.67,-58 -113.67,-174.16 0,-60.83 7,-104.85 20.83,-132.01 14,-27.16 36.68,-40.82 68.17,-40.82 33.68,0 72.99,16.33 118.01,48.81z"
   id="glyph68" />
   <glyph
   unicode="h"
   horiz-adv-x="518"
   d="M435.99 12.16c0,-6.15 -0.99,-9.67 -3,-10.66 -1.81,-0.99 -4.65,-1.5 -8.16,-1.5l-52.67 0c-4.82,0 -7.99,0.82 -9.16,2.66 -1.33,1.84 -2.01,4.99 -2.01,9.5l0 332.16c0,31.18 -4.99,52.84 -14.83,65.17 -10.01,12.33 -28.01,18.51 -54.17,18.51 -36.82,0 -80.82,-21 -132.01,-62.84l0 -353c0,-6.15 -1.33,-9.84 -3.83,-11.17 -1.33,-0.65 -3.83,-0.99 -7.31,-0.99l-52.67 0c-4.85,0 -8.02,0.82 -9.18,2.66 -1.33,1.84 -1.98,4.99 -1.98,9.5l0 686.01c0,6.15 3.32,10.32 10.15,12.67l51.68 12.16c0.68,0.68 3,0.99 6.83,0.99 4.17,0 6.32,-3.66 6.32,-11.17l0 -284.65c48.5,43.82 100.18,65.82 154.86,65.82 53.49,0 89.49,-19.5 108.48,-58.48 8.5,-18 12.67,-48.84 12.67,-92.83l0 -330.52z"
   id="glyph69" />
   <glyph
   unicode="i"
   horiz-adv-x="258"
   d="M191.01 658.16c0,-16.82 -5.83,-31.32 -17.5,-43.32 -11.83,-11.83 -26.01,-17.83 -42.5,-17.83 -17.01,0 -31.35,5.83 -43.18,17.67 -11.83,11.67 -17.83,26.32 -17.83,43.49 0,16.68 6,30.83 18,42.5 12.17,11.5 26.67,17.34 44.01,17.34 16.16,0 30.17,-5.83 41.67,-17.67 11.5,-11.67 17.34,-25.82 17.34,-42.17zm-15 -646c0,-6.17 -0.85,-9.66 -2.67,-10.68 -1.84,-0.99 -4.51,-1.49 -8.17,-1.49l-53.34 0c-4.98,0 -7.98,0.83 -9.17,2.67 -1.16,1.82 -1.65,5.01 -1.65,9.5l0 405.83 -79.84 0c-5.83,0 -9.33,1.02 -10.49,3 -1.18,1.84 -1.68,4.68 -1.68,8.17l0 38.67c0,6.17 1.32,9.83 3.83,11.17 1.68,0.66 4.51,0.99 8.34,0.99l144.17 0c4.84,0 7.84,-0.83 9,-2.67 1.16,-1.84 1.68,-5.01 1.68,-9.5l0 -455.67z"
   id="glyph70" />
   <glyph
   unicode="k"
   horiz-adv-x="443"
   d="M429.16 36c0,-2.01 -1.67,-4.85 -5.33,-8.33l-40.99 -30.84c-3.34,-2.49 -5.84,-3.83 -7.85,-3.83 -1.33,0 -3.32,1.33 -5.84,3.83l-209.17 250.18 0 -234.85c0,-6.15 -1.33,-9.84 -3.83,-11.17 -1.33,-0.65 -3.83,-0.99 -7.31,-0.99l-52.67 0c-4.85,0 -8.02,0.82 -9.18,2.66 -1.33,1.84 -1.98,4.99 -1.98,9.5l0 686.01c0,6.15 3.32,10.32 10.15,12.67l51.68 12.16 6.83 0.99c4.17,0 6.32,-3.66 6.32,-11.17l0 -453 200.83 225.83c3.51,4.17 7,6.35 10.35,6.35 2.49,0 5.5,-1.5 8.67,-4.34l38.15 -25c3.34,-3.17 4.85,-6.18 4.85,-8.67 0,-2.66 -1.5,-5.84 -4.85,-9.33l-170.81 -186.01 178.67 -214.84c2.32,-1.98 3.32,-4.65 3.32,-7.82z"
   id="glyph71" />
   <glyph
   unicode="l"
   horiz-adv-x="258"
   d="M272.84 14.01c0,-5.17 -9.5,-10.51 -28.68,-16.02 -19.32,-5.32 -37.98,-7.98 -56.15,-7.98 -58.02,0 -92.01,23.32 -102.17,69.83 -3.17,15.33 -4.84,56.34 -4.84,123l0 516.33c0,6.83 3.66,10.65 10.84,11.67l51.5 12.17c0.5,0.66 2.83,0.99 6.83,0.99 3.83,0 5.83,-3.66 5.83,-11.17l0 -530.48c0,-51.85 0.83,-82.51 2.5,-92.34 3.17,-25.32 16.82,-38.01 40.82,-38.01 14.01,0 29.01,4.02 44.83,12 3.85,1.35 6.5,2.01 7.84,2.01 2.17,0 4.49,-2.34 6.83,-6.99l12.17 -37.18c1.18,-4.16 1.84,-6.83 1.84,-7.82z"
   id="glyph72" />
   <glyph
   unicode="m"
   horiz-adv-x="722"
   d="M640.99 12.16c0,-6.15 -0.99,-9.67 -3.17,-10.66 -2.15,-0.99 -5.16,-1.5 -8.99,-1.5l-50.65 0c-6.18,0 -9.84,1.33 -11.17,3.83 -0.68,1.67 -1.02,4.51 -1.02,8.33l0 342.85c0,48.67 -21.32,72.99 -63.98,72.99 -28.35,0 -62.33,-13.32 -102.02,-40l0 -375.84c0,-6.15 -0.99,-9.67 -3,-10.66 -1.81,-0.99 -4.48,-1.5 -7.82,-1.5l-52.33 0c-5.02,0 -7.99,0.82 -9.18,2.66 -1.16,1.84 -1.64,4.99 -1.64,9.5l0 341.83c0,49.35 -21.34,74.01 -64.01,74.01 -29.85,0 -63.18,-14.34 -100.01,-42.83l0 -373.01c0,-6.15 -0.99,-9.67 -3.17,-10.66 -2.15,-0.99 -5.16,-1.5 -8.99,-1.5l-50.68 0c-6.15,0 -9.67,1.33 -10.66,3.83 -0.99,1.67 -1.5,4.51 -1.5,8.33l0 358.84c0,28.01 -5.98,56.01 -18,83.85 -0.65,0.65 -0.99,2.32 -0.99,4.99 0,2.83 1.67,4.85 4.82,5.84l40.02 22.82c3.66,2.35 6.66,3.51 9.33,3.51 10.15,0 19.67,-19.02 28.83,-57 50.34,39.34 97.17,58.99 140,58.99 46.49,0 78.15,-19.64 94.68,-58.99 55.33,39.34 103.97,58.99 145.98,58.99 43.68,0 74.01,-14.66 91.33,-43.99 12.02,-20.49 18,-52.84 18,-97l0 -340.84z"
   id="glyph73" />
   <glyph
   unicode="n"
   horiz-adv-x="519"
   d="M437.01 12.17c0,-6.17 -1.02,-9.66 -3,-10.68 -1.84,-0.99 -4.68,-1.49 -8.17,-1.49l-52.68 0c-4.82,0 -7.98,0.83 -9.17,2.67 -1.32,1.82 -1.98,5.01 -1.98,9.5l0 333c0,55.16 -22.02,82.84 -66,82.84 -42.35,0 -86.34,-21 -132,-62.84l0 -353.01c0,-6.17 -1.02,-9.66 -3,-10.68 -1.84,-0.99 -4.68,-1.49 -8.17,-1.49l-52.68 0c-4.82,0 -7.98,0.83 -9.17,2.67 -1.32,1.82 -1.98,5.01 -1.98,9.5l0 342.66c0,36.5 -6.33,68.5 -19.02,96.17 -0.99,2.67 -1.65,4.51 -1.98,5.83 0,3 1.65,4.84 4.82,5.83l45.5 25.84c3.17,2.31 5.83,3.5 7.68,3.5 12.83,0 23.01,-21.99 30.83,-66.17 56.67,45.5 110.34,68.17 161.01,68.17 49.49,0 83.5,-16.18 102.17,-48.35 11.34,-19.16 17.01,-52.65 17.01,-100.49l0 -333z"
   id="glyph74" />
   <glyph
   unicode="o"
   horiz-adv-x="500"
   d="M450 243.15c0,-80.99 -18.17,-144.14 -54.34,-189.32 -36.17,-45.16 -86.48,-67.83 -151,-67.83 -61.31,0 -108.82,22.17 -142.84,66.33 -33.82,44.33 -50.82,106.19 -50.82,185.5 0,81.01 18.17,144 54.34,188.84 36.17,44.84 86.48,67.32 151,67.32 60.66,0 108.17,-22.17 142.33,-66.67 34.16,-44.33 51.34,-105.82 51.34,-184.17zm-82.01 1.02c0,124.5 -39.49,186.83 -118.49,186.83 -77.67,0 -116.5,-61 -116.5,-183 0,-68.82 10.35,-120.67 31.01,-155.17 17.49,-29.17 46.66,-43.82 87.48,-43.82 39.17,0 67.35,14 84.5,41.98 21.34,34.5 32,85.52 32,153.18z"
   id="glyph75" />
   <glyph
   unicode="p"
   horiz-adv-x="500"
   d="M450 249.99c0,-81.99 -14.83,-146.51 -44.5,-193.49 -29.83,-47.01 -70.32,-70.51 -122.01,-70.51 -37.49,0 -76.98,14.67 -118.49,43.84l0 -213.99c0,-7.18 -3,-11.34 -9.17,-12.69l-52.68 -14.15c-2.31,-0.66 -4.16,-1.02 -5.83,-1.02 -4.82,0 -7.32,3.52 -7.32,10.68l0 543c0,43.65 -6.66,75.99 -20.17,97.16 -6.5,10.84 -9.83,17.17 -9.83,19.18 0,2.15 0.99,3.83 3,4.82l42.99 30.17c2.01,2.01 4.51,3 7.84,3 10.84,0 23.17,-19.98 37.16,-60 50.5,38.67 98.67,58.02 144.33,58.02 58.18,0 98.5,-23.17 121.35,-69.35 22.16,-44.15 33.33,-102.5 33.33,-174.66zm-81.99 -1.98c0,57.17 -5.01,99.5 -15.19,127.16 -12.33,34.49 -36.33,51.83 -72.17,51.83 -29.65,0 -68.15,-16.32 -115.65,-48.83l0 -282.17c41.67,-27.99 78,-42 108.83,-42 34.18,0 58.35,14.83 72.66,44.5 14.34,29.67 21.52,79.49 21.52,149.51z"
   id="glyph76" />
   <glyph
   unicode="r"
   horiz-adv-x="333"
   d="M333.17 478c0,-1.65 -0.66,-3.99 -2.01,-6.83l-24 -56.17c-0.99,-1.82 -2.67,-2.83 -5.32,-2.83 -0.35,0 -5.83,1.68 -16.68,4.84 -6.83,1.32 -12.5,2.01 -17.01,2.01 -22.16,0 -55.16,-25.35 -99.17,-76.18l0 -330.66c0,-6.17 -0.99,-9.66 -3,-10.68 -1.82,-0.99 -4.49,-1.49 -7.82,-1.49l-53.34 0c-5.01,0 -8.01,0.83 -9.17,2.67 -1.18,1.82 -1.68,5.01 -1.68,9.5l0 299.84c0,34.65 -0.83,57.5 -2.31,68.34 -3,22.65 -10.18,44.48 -21.85,65.32 -2.5,4.84 -3.83,8.34 -3.83,10.35 0,3.83 1.68,6.83 4.84,8.67l42 26.34c3.33,1.98 6,3 8.32,3 5.83,0 12.85,-8.67 20.83,-26.01 7.84,-17.5 13.68,-36.33 17.34,-56.84 31.16,35.01 54.33,57.66 69.5,67.65 15.17,10.18 33.33,15.19 54.5,15.19 11.34,0 22.51,-1.84 33.33,-5.34 11.01,-3.66 16.51,-7.18 16.51,-10.68z"
   id="glyph77" />
   <glyph
   unicode="s"
   horiz-adv-x="389"
   d="M348.99 128.01c0,-42.33 -14.67,-76.51 -43.98,-102.69 -29.17,-26.15 -67.68,-39.33 -115.18,-39.33 -54.33,0 -103.65,13.02 -147.99,39 -3.83,2.34 -5.83,5.34 -5.83,9.33 0,0.85 0.33,2.17 0.99,3.85l19.02 43.82c0.99,2.67 3,4.02 5.83,4.02 1.32,0 3.99,-0.69 7.82,-2.01 45.66,-22.68 86.34,-33.99 122.17,-33.99 24.17,0 43.49,6.66 58.16,19.98 14.67,13.35 22.02,30.85 22.02,52.18 0,30.99 -21.35,56.32 -64.02,76.16 -55.82,25.68 -93.17,46.16 -111.66,61.51 -30.83,25.32 -46.32,57 -46.32,95.15 0,40.68 14.15,74.01 42.66,100.02 28.49,25.98 65.01,39 109.49,39 26.01,0 54,-4.84 83.84,-14.67 30,-9.69 45,-18.85 45,-27.33 0,-1.84 -0.66,-4.35 -1.98,-7.18l-18 -36.66c-2.5,-4.16 -5.67,-6.33 -9.17,-6.33 0,0 -2.67,0.66 -7.84,1.98 -36.33,17.5 -67.35,26.17 -93.17,26.17 -50.5,0 -75.83,-22.49 -75.83,-67.32 0,-20.17 6.66,-36.5 19.98,-48.83 9,-8.34 43.84,-27.52 104.34,-57 36.99,-18 62.84,-36.35 77.5,-55.51 14.83,-18.99 22.16,-43.49 22.16,-73.32z"
   id="glyph78" />
   <glyph
   unicode="t"
   horiz-adv-x="333"
   d="M342.99 29.67c0,-7.84 -15.17,-16.35 -45.66,-25.68 -30.5,-9.33 -58.49,-13.98 -84.33,-13.98 -62.5,0 -101.01,24.33 -115.68,72.83 -4.16,13.65 -6.33,38.01 -6.33,73.32l0 281.84 -70.82 0c-8.17,0 -12.17,3.66 -12.17,11.17l0 38.67c0,6.17 1.32,9.83 3.83,11.17 1.65,0.66 4.49,0.99 8.34,0.99l70.82 0 0 137.17c0,6.83 3.33,11.15 10.18,12.66l51.66 14.15c3.66,1.35 5.67,2.01 6.33,2.01 4.51,0 6.83,-3.99 6.83,-12.17l0 -153.83 150.17 0c6.17,0 9.17,-2.34 9.17,-6.83 0,-1.68 -0.33,-3.69 -0.99,-6.35l-11.17 -38.48c-1.98,-6.85 -6.66,-10.35 -14.15,-10.35l-133.02 0 0 -281.15c0,-31.84 3.33,-52.18 9.85,-60.85 10.32,-13.32 27.17,-19.98 50.32,-19.98 20.83,0 50.84,7.98 89.84,24.17 3.33,1.16 5.83,1.82 7.51,1.82 3.5,0 5.83,-1.98 6.83,-5.83l10.68 -41.15c1.32,-2.83 1.98,-4.68 1.98,-5.34z"
   id="glyph79" />
   <glyph
   unicode="u"
   horiz-adv-x="500"
   d="M451 23.01c-0.66,-0.85 -2.17,-2.5 -4.49,-4.84l-44.83 -29.17c-3,-1.98 -5.34,-3 -6.85,-3 -10.82,0 -22.49,20.01 -35.15,59.84 -51.83,-39.83 -101.84,-59.84 -150,-59.84 -91.18,0 -136.68,44.67 -136.68,134.17l0 344.51c0,6.83 3.33,11.34 9.85,13.16l51.99 14.17c2.5,0.66 4.65,0.99 6.33,0.99 4.51,0 6.83,-3.66 6.83,-11.17l0 -312.17c0,-43.82 5.17,-74.15 15.69,-90.83 10.32,-16.49 29.15,-24.83 56.48,-24.83 43.51,0 85.51,17.01 125.84,50.84l0 359.84c0,7.16 3.17,11.5 9.66,13.16l52.84 14.17c2.17,0.66 4.16,0.99 5.67,0.99 4.49,0 6.83,-3.66 6.83,-11.17l0 -348.99c0,-43.16 9,-77.5 27,-102.83 2.01,-2.67 3,-5.01 3,-6.99z"
   id="glyph80" />
   <glyph
   unicode="v"
   horiz-adv-x="425"
   d="M423 466.66c0,-1.32 -0.66,-3.66 -2.01,-6.83l-182.15 -457.99c-2.17,-5.83 -6.52,-8.83 -12.69,-8.83l-38.15 0c-6.52,0 -10.84,3 -13.18,8.83l-168.83 460.82c-1.32,2.67 -2.01,4.68 -2.01,6.33 0,3.83 3.5,6.5 10.35,7.84l58.98 13.16 3 0c3.17,0 5.83,-3.17 7.68,-9.33l107.01 -326.84c1.98,-4.32 4.32,-11.34 7.32,-21l11.67 -42c5.34,20.5 11.67,41.01 19.16,61.84l119.17 328.16c1.84,6.17 4.49,9.17 7.68,9.17 1.32,0 3.33,-0.33 6,-0.99l52.16 -14.17c5.83,-1.49 8.83,-4.32 8.83,-8.17z"
   id="glyph81" />
   <glyph
   unicode="y"
   horiz-adv-x="425"
   d="M421.66 460.16c0,-1.65 -0.33,-3.5 -0.82,-5.82l-113.85 -392.67c-26.31,-90.17 -48.32,-154 -65.99,-191.67 -26,-54.66 -66.33,-82 -120.99,-82 -24.17,0 -51.18,6 -81.02,18.17 -30,12.01 -44.99,22.83 -44.99,32.68 0.33,3.32 1,5.33 2.01,6.34l20 39.66c1,3.5 3.17,5.33 6.83,5.33 2.34,-0.33 4.51,-1.34 6.83,-3.01 34.84,-24.15 64.35,-36.15 88.34,-36.15 32.16,0 57.83,28.66 76.66,85.99l21 63.01 -39.99 0c-5.82,0 -9.84,2.99 -11.67,8.84l-157.32 444.49c-1.34,2.68 -2.01,4.84 -2.01,6.83 0,3.35 3.17,5.85 9.33,7.83l53.68 19.02 8.32 0.98c2.34,0 4.51,-2.99 6.83,-8.81l128.02 -378.01c5.15,-15 11.83,-39.17 20,-72.33 3.17,15.33 8.99,38.65 16.98,70.17l98.18 381.15c2.65,5.18 5.82,7.83 9.82,7.83 0.33,0 2.01,-0.33 4.84,-0.98l52.34 -18.5c5.82,-2.34 8.66,-5 8.66,-8.35z"
   id="glyph82" />
   <glyph
   unicode="z"
   horiz-adv-x="407"
   d="M389.85 60.01c0,-2.35 -0.51,-5.02 -1.84,-8.33l-19.16 -42.66c-1.84,-6.01 -6.35,-9.01 -13.18,-9.01l-312.01 0c-7.82,0 -11.65,4 -11.65,12.16l0 39.68 252.99 365.16 -221.33 0c-7.17,0 -10.66,3.66 -10.66,11.17l0 41.16c0,7.17 3.49,10.66 10.66,10.66l304.33 0c4.85,0 7.85,-0.82 9.01,-2.49 1.16,-1.5 1.67,-4.34 1.67,-8.16l0 -42.49 -249.02 -360.85 249.02 0c4.82,0 7.99,-0.31 9.33,-1.16 1.33,-0.82 1.84,-2.49 1.84,-4.82z"
   id="glyph83" />
   <glyph
   unicode="Ä"
   horiz-adv-x="537"
   d="M424.83 801.32c0,-15.17 -5.33,-28.15 -16.16,-38.98 -10.66,-10.86 -23.5,-16.19 -38.49,-16.19 -15.68,0 -28.83,5.33 -39.34,16.19 -10.66,10.83 -15.82,23.81 -15.82,38.98 0,15.68 5.33,29 16.33,39.68 10.83,10.66 24.15,15.99 39.83,15.99 14.66,0 27.16,-5.5 37.84,-16.5 10.49,-11 15.82,-24.15 15.82,-39.17zm-201.66 0.51c0,-15.34 -5.5,-28.49 -16.33,-39.34 -11,-11 -23.84,-16.33 -38.83,-16.33 -15.68,0 -29,5.33 -39.85,16.33 -10.83,10.86 -16.33,24.01 -16.33,39.34 0,15.68 5.5,28.66 16.33,39.34 10.86,10.49 24.18,15.82 39.85,15.82 15,0 27.84,-5.33 38.83,-16.16 10.83,-10.66 16.33,-23.67 16.33,-39zm294.01 -794.01c0,-5.16 -4.85,-7.82 -14.17,-7.82l-64.01 0c-6.83,0 -11.82,3.66 -15.17,11.17l-54.68 194.82 -203.16 0 -56.15 -194.82c-1.84,-7.51 -6.83,-11.17 -14.68,-11.17l-59.98 0c-9.52,0 -14.17,2.32 -14.17,6.83 0,1.67 0.65,4.68 1.98,9.33l201.17 658.68c2.18,7.48 7.17,11.17 14.68,11.17l59.98 0c7.85,0 12.84,-3.69 15.17,-11.17l201.17 -658.68c1.33,-4.65 2.01,-7.31 2.01,-8.33zm-167.02 267.16l-60.15 220.17c-8.67,31.52 -16.36,63.52 -22.85,95.67 -4.68,-23.5 -12.33,-54.99 -22.99,-94.65l-60.18 -221.19 166.17 0z"
   id="glyph84" />
   <glyph
   unicode="ä"
   horiz-adv-x="462"
   d="M374 629.83c0,-14.31 -5.33,-26.65 -15.99,-36.99 -10.52,-10.49 -23.36,-15.68 -38.35,-15.68 -14.31,0 -26.67,5.19 -36.99,15.68 -10.52,10.35 -15.68,22.99 -15.68,38.01 0,14.66 5.16,27.16 15.68,37.47 10.32,10.52 22.99,15.68 37.98,15.68 14.68,0 27.18,-5.33 37.67,-15.82 10.35,-10.69 15.68,-23.36 15.68,-38.35zm-197.35 0c0,-14.31 -5.16,-26.65 -15.65,-36.99 -10.35,-10.49 -22.68,-15.68 -37.02,-15.68 -15,0 -27.81,5.19 -38.32,15.68 -10.66,10.35 -15.99,22.99 -15.99,38.01 0,14.66 5.33,27.16 15.99,37.47 10.52,10.52 23.33,15.68 38.32,15.68 14.68,0 27.01,-5.33 37.36,-15.82 10.15,-10.69 15.31,-23.36 15.31,-38.35zm229.01 -605.16c0,-1.98 -1.33,-3.49 -3.83,-4.82l-43 -26.84c-2.66,-2.01 -5.16,-3 -7.82,-3 -12.67,0 -25.34,21 -38.18,63.01 -42.83,-42.01 -90.65,-63.01 -143.01,-63.01 -40.31,0 -72.48,12.33 -96.15,36.85 -23.84,24.66 -35.66,58 -35.66,99.98 0,113.02 87.99,171.01 263.99,174.02l0 33.17c0,32 -7.17,54.82 -21.34,68.48 -14.14,13.69 -37.64,20.52 -70.67,20.52 -33.17,0 -72.99,-9.67 -119.17,-29 -2.66,-1.19 -4.99,-1.84 -6.83,-1.84 -3.66,0 -5.98,1.5 -6.83,4.82l-15.17 40 -0.99 7.68c0,4.99 8.84,11.34 26.84,18.99 41.33,18.17 85.83,27.33 133.31,27.33 103.83,0 155.85,-46.66 155.85,-140.14l0 -189.01c0,-55.33 8.82,-98.99 26.67,-131.33 1.33,-2.15 1.98,-4.17 1.98,-5.84zm-103.66 85.18l0 129c-124.67,-1.02 -187,-36.34 -187,-106.02 0,-23.5 6.83,-42.49 20.49,-57.34 13.66,-14.83 31.35,-22.31 52.67,-22.31 33.34,0 71.18,18.99 113.84,56.66z"
   id="glyph85" />
   <glyph
   unicode="ü"
   horiz-adv-x="500"
   d="M413.83 629.83c0,-14.31 -5.33,-26.65 -15.82,-36.99 -10.69,-10.49 -23.36,-15.68 -38.35,-15.68 -14.31,0 -26.65,5.19 -37.16,15.68 -10.32,10.35 -15.68,22.99 -15.68,38.01 0,14.66 5.36,27.16 15.68,37.47 10.52,10.52 23.16,15.68 38.18,15.68 14.48,0 27.16,-5.33 37.5,-15.82 10.49,-10.69 15.65,-23.36 15.65,-38.35zm-197.32 0c0,-14.31 -5.19,-26.65 -15.51,-36.99 -10.52,-10.49 -22.85,-15.68 -37.16,-15.68 -15,0 -27.84,5.19 -38.35,15.68 -10.66,10.35 -15.82,22.99 -15.82,38.01 0,14.66 5.16,27.16 15.82,37.47 10.52,10.52 23.36,15.68 38.35,15.68 14.66,0 26.99,-5.33 37.33,-15.82 10.32,-10.69 15.34,-23.36 15.34,-38.35zm234.48 -606.84c-0.65,-0.82 -2.15,-2.49 -4.48,-4.82l-44.84 -29.17c-3,-2.01 -5.33,-3 -6.83,-3 -10.83,0 -22.51,20.01 -35.18,59.84 -51.82,-39.83 -101.82,-59.84 -149.98,-59.84 -91.19,0 -136.69,44.67 -136.69,134.16l0 344.52c0,6.83 3.34,11.31 9.84,13.15l52.02 14.17c2.49,0.65 4.65,0.99 6.32,0.99 4.51,0 6.83,-3.66 6.83,-11.17l0 -312.15c0,-43.85 5.16,-74.18 15.68,-90.85 10.32,-16.5 29.17,-24.83 56.49,-24.83 43.51,0 85.49,17.01 125.83,50.82l0 359.86c0,7.14 3.17,11.48 9.67,13.15l52.84 14.17c2.15,0.65 4.17,0.99 5.67,0.99 4.51,0 6.83,-3.66 6.83,-11.17l0 -349c0,-43.17 9.01,-77.5 27.01,-102.84 1.98,-2.66 2.98,-4.99 2.98,-7z"
   id="glyph86" />
  </font>
</defs>
</svg>
