<?xml version="1.0" encoding="UTF-8" standalone="no"?>
<!-- Creator: CorelDRAW 2021 (64-Bit) -->

<svg
   xml:space="preserve"
   width="209.995mm"
   height="95.7526mm"
   version="1.0"
   style="shape-rendering:geometricPrecision; text-rendering:geometricPrecision; image-rendering:optimizeQuality; fill-rule:evenodd; clip-rule:evenodd"
   viewBox="0 0 20999.04 9575.06"
   id="svg229"
   sodipodi:docname="theorie_des_sozialen__m.a._.svg"
   inkscape:version="1.3-dev (77bc73e, 2022-05-18)"
   xmlns:inkscape="http://www.inkscape.org/namespaces/inkscape"
   xmlns:sodipodi="http://sodipodi.sourceforge.net/DTD/sodipodi-0.dtd"
   xmlns="http://www.w3.org/2000/svg"
   xmlns:svg="http://www.w3.org/2000/svg"><sodipodi:namedview
   id="namedview229"
   pagecolor="#ffffff"
   bordercolor="#000000"
   borderopacity="0.25"
   inkscape:showpageshadow="2"
   inkscape:pageopacity="0.0"
   inkscape:pagecheckerboard="0"
   inkscape:deskcolor="#d1d1d1"
   inkscape:document-units="mm"
   showgrid="false"
   inkscape:zoom="0.65211457"
   inkscape:cx="397.93621"
   inkscape:cy="180.9498"
   inkscape:window-width="1344"
   inkscape:window-height="456"
   inkscape:window-x="0"
   inkscape:window-y="25"
   inkscape:window-maximized="0"
   inkscape:current-layer="Ebene_x0020_1" />
 <defs
   id="defs67">
  <font
   id="FontID1"
   horiz-adv-x="556"
   font-variant="normal"
   style="fill-rule:nonzero"
   font-style="normal"
   font-weight="700">
	<font-face
   font-family="Officina Sans OS ITC TT"
   id="font-face1">
		<font-face-src>
			<font-face-name
   name="Officina Sans OS ITC TT Fett" />
		</font-face-src>
	</font-face>
   <missing-glyph
   id="missing-glyph1"><path
     d="M0 0z"
     id="path1" /></missing-glyph>
   <glyph
   unicode="1"
   horiz-adv-x="537"
   d="M459.99 21c0,-9.34 -1.14,-15.35 -3.33,-17.49 -2.33,-2.33 -8.16,-3.51 -17.67,-3.51l-293.01 0c-8.98,0 -14.81,1.18 -17.31,3.51 -2.33,2.15 -3.68,8.16 -3.68,17.49l0 51.01c0,11.98 3.18,18.67 9.34,20 2.5,0.64 6.51,1 11.66,1l95.01 0 0 347.99 -79.99 -44.5c-5.19,-3 -8.84,-4.33 -11.16,-4.33 -4.19,0 -8.69,4.15 -13.66,12.66l-26.36 45.32c-2.47,4.51 -3.83,8.84 -3.83,12.7 0,5.47 3.83,10.8 11.34,16.13l160.01 116.01 69.65 0c11.7,0 18.35,-3 20,-8.84 0.68,-2.5 1,-6.33 1,-11.16l0 -481.99 71.19 0c11.66,0 18.32,-3 19.82,-8.84 0.68,-2.5 1,-6.65 1,-12.16l0 -51.01z"
   id="glyph1" />
   <glyph
   unicode="2"
   horiz-adv-x="537"
   d="M471.01 435.34c0,-47 -13.34,-87 -39.99,-120.19 -12.34,-14.99 -24.68,-27.15 -37.02,-36.67 -12.34,-9.48 -39.99,-27.15 -82.99,-53.16 -40.67,-24.83 -67.18,-44.32 -79.66,-58.67 -12.66,-14.34 -19.67,-32.48 -21.32,-54.66l233.98 0c11.98,0 18.67,-3 20,-8.84 0.68,-2.5 1,-6.65 1,-12.16l0 -70.01c0,-11.66 -3,-18.32 -8.84,-20 -2.65,-0.68 -6.65,-1 -12.16,-1l-360.01 0c-9.34,0 -14.17,4.65 -14.17,14.17l0 7.83c0,62.85 9.16,111.18 27.33,144.98 25.51,47.86 75.34,95.19 149.85,142.19 45,28.33 72.01,47.65 80.99,57.99 14.67,16.99 22,37.35 22,61.17 0,49.83 -27.97,74.66 -83.99,74.66 -41.5,0 -74.33,-28.65 -98.01,-86 -4.15,-10.16 -9.3,-15.17 -15.17,-15.17 -1.97,0 -5.47,1 -10.66,3l-64 24.32c-8.16,3 -12.16,7.83 -12.16,14.67 0,11.52 5.51,28.01 16.67,49.69 10.98,21.64 23.18,40.17 36.49,55.48 37.85,43.36 91.36,65 160.51,65 57.66,0 103.85,-16.31 138.83,-48.83 35.02,-32.48 52.51,-75.84 52.51,-129.82z"
   id="glyph2" />
   <glyph
   unicode="3"
   horiz-adv-x="537"
   d="M465 117.15c0,-62.49 -23.68,-113.65 -70.83,-153.32 -42.32,-35.16 -95.01,-52.83 -158.18,-52.83 -57.66,0 -111.14,11.02 -160.65,32.66 -19.5,8.84 -29.33,16.17 -29.33,22 0,2 0.68,5.51 2,10.34l20 71.83c1.68,6.19 5.33,9.34 11.16,9.34 2.33,0 5.51,-1 9.84,-3 51.01,-24.83 96.51,-37.17 136.18,-37.17 73.83,0 110.82,35.66 110.82,106.99 0,66.68 -42,100.02 -125.99,100.02l-29.69 0c-12.16,0 -18.82,3 -20,8.84 -0.68,2.5 -1,6.65 -1,12.16l0 66c0,11.66 2.83,18.35 8.66,20 2.68,0.68 6.83,1 12.34,1l31.66 0c33.34,0 57.7,5.65 73.33,17.17 23.18,17.17 34.7,42.82 34.7,76.66 0,25.18 -7.51,45.32 -22.5,60.49 -15.02,15.17 -34.84,22.68 -59.52,22.68 -32.34,0 -62.17,-16.99 -90,-51.01 -5.47,-6.47 -9.84,-9.66 -13.16,-9.66 -1.82,0 -4.83,1.18 -8.66,3.83l-55.34 49.83c-3.15,3 -4.83,6.33 -4.83,10.34 0,7.19 7.01,18.35 21,33.66 40.99,45.36 93.83,68 158.18,68 58.99,0 106.49,-16.31 142.66,-49.15 36.17,-32.66 54.16,-75.51 54.16,-128.67 0,-68.68 -31.48,-118.33 -94.65,-148.99 78.48,-25.33 117.65,-82.02 117.65,-170.02z"
   id="glyph3" />
   <glyph
   unicode="4"
   horiz-adv-x="537"
   d="M500.34 64c0,-11.66 -3.18,-18.32 -9.34,-20 -2.68,-0.68 -6.51,-1 -11.84,-1l-57.16 0 0 -128.99c0,-9.52 -1.18,-15.35 -3.33,-17.49 -2.33,-2.36 -8.16,-3.51 -17.67,-3.51l-82.99 0c-11.66,0 -18.35,3.15 -20,9.34 -0.68,2.5 -1,6.47 -1,11.66l0 128.99 -245 0c-9.52,0 -15.35,1 -17.67,3.18 -2.18,2.15 -3.33,7.66 -3.33,16.81l0 104.99 248.97 416.85c5.19,8.84 10.02,13.16 14.17,13.16 2.68,0 7.01,-1.32 13.2,-3.83l60.13 -26.51c9.69,-4.15 14.52,-8.33 14.52,-12.66 0,-3.15 -1.82,-8.33 -5.83,-15.17l-232.84 -395.81 155.68 0 12.99 161.15c0.68,8.84 2.18,14.34 4.65,16.67 2.5,2.15 7.83,3.33 16.35,3.33l68 0c11.98,0 18.67,-3 20,-9.16 0.68,-2.68 1,-6.69 1,-11.84l0 -163.16 57.16 0c9.52,0 15.35,-1.36 17.67,-3.86 2.33,-2.65 3.51,-9.3 3.51,-20l0 -53.16z"
   id="glyph4" />
   <glyph
   unicode="S"
   horiz-adv-x="481"
   d="M452.01 193.99c0,-61.81 -20.18,-112 -60.35,-150.31 -40.17,-38.53 -92.65,-57.66 -157.83,-57.66 -40.35,0 -85.17,7.15 -134.68,21.5 -49.51,14.31 -74.15,27.15 -74.15,38.49 0,2 0.68,5.65 2,11.16l33.16 85.85c2.33,5.97 5.15,8.84 8.84,8.84 2.15,0 5.33,-1 9.16,-2.86 59.67,-32.66 110.68,-49.01 153,-49.01 59.85,0 89.86,27.69 89.86,83.03 0,25 -7.01,45.32 -21.03,60.99 -13.31,14.67 -51.33,37.67 -113.83,68.82 -59.81,30.01 -100.84,58.67 -122.98,86.17 -22.18,27.51 -33.16,63.35 -33.16,107.67 0,59.17 19.82,106.31 59.31,141.16 39.53,34.84 92.83,52.16 159.83,52.16 39.35,0 81.02,-7.15 125.02,-21.64 43.82,-14.52 65.82,-28.19 65.82,-41.17 0,-1.32 -1,-4.15 -2.83,-8.33l-36.17 -75.66c-2.33,-4.83 -5.33,-7.33 -8.84,-7.33 -2.33,0 -15.35,6.15 -39.17,18.17 -34.16,17.31 -67.5,25.97 -100.16,25.97 -28.01,0 -50.15,-6.47 -66.32,-19.5 -16.35,-12.99 -24.5,-30.84 -24.5,-53.16 0,-25.15 12.99,-46.18 38.99,-62.99 9.52,-6.33 44.5,-24.68 104.99,-55.34 51.51,-25.65 88.68,-54.66 111.5,-86.82 23,-32.19 34.52,-71.69 34.52,-118.19z"
   id="glyph5" />
   <glyph
   unicode="T"
   horiz-adv-x="407"
   d="M437.17 674.83c0,-3 -0.68,-6.83 -2,-11.84l-21 -78.98c-3,-11.34 -10.34,-17.03 -22,-17.03l-123.16 0 0 -545.98c0,-9.52 -1.18,-15.35 -3.33,-17.49 -2.36,-2.33 -8.19,-3.51 -17.67,-3.51l-97.01 0c-9.48,0 -15.31,1.18 -17.67,3.51 -2.15,2.15 -3.33,7.98 -3.33,17.49l0 545.98 -125.99 0c-9.52,0 -15.35,1 -17.49,3.18 -2.36,2.18 -3.51,7.66 -3.51,16.85l0 77.98c0,9.52 1.14,15.35 3.65,17.67 2.5,2.18 8.19,3.33 17.35,3.33l413.16 0c13.34,0 20,-3.65 20,-11.16z"
   id="glyph6" />
   <glyph
   unicode="a"
   horiz-adv-x="481"
   d="M439.85 28.01c0,-4.69 -2.68,-7.83 -7.83,-9.84l-78.2 -31.16c-2.97,-2 -6.98,-3 -12.16,-3 -9.16,0 -19.17,19.67 -29.83,58.99 -37.17,-37.99 -79.66,-56.98 -127.99,-56.98 -45.82,0 -82.35,13.66 -109.32,40.99 -27.01,27.33 -40.53,64.17 -40.53,110.32 0,87.5 49.69,141.01 149.03,160.51 26.15,5.15 63.49,8.33 112,9.34l0 30.66c0,28.69 -4.69,48.33 -14.17,58.99 -9.52,10.84 -26.69,16.17 -51.83,16.17 -30.01,0 -67.36,-8.66 -112,-25.83 -4.19,-2.15 -8.01,-3.33 -11.16,-3.33 -4.19,0 -7.51,3.33 -9.84,10.16l-21 60.03c-1.68,3.47 -2.5,7.15 -2.5,10.66 0,10.84 18.67,21.14 55.84,31.16 36.99,10.16 75.66,15.17 115.65,15.17 80.49,0 132.32,-25.68 155.82,-77.16 9.52,-20.5 14.17,-48.01 14.17,-82.85l0 -204.01c0,-40.31 7.69,-76.34 22.86,-107.82 2,-4.33 3,-8.01 3,-11.16zm-144.84 85.67l0 110.5c-50.01,0 -86,-6.19 -107.49,-18.35 -21.68,-12.34 -32.52,-32.84 -32.52,-61.81 0,-19.67 6.15,-36.02 18.49,-49.19 12.34,-13.16 27.51,-19.82 45.32,-19.82 26.69,0 52.19,12.81 76.19,38.67z"
   id="glyph7" />
   <glyph
   unicode="d"
   horiz-adv-x="519"
   d="M465.68 30.84c0,-3.51 -3,-6.51 -8.84,-8.66l-82.99 -33.2c-5.19,-1.97 -8.69,-2.97 -10.19,-2.97 -11.16,0 -20.14,16.99 -26.97,51.15 -43.86,-36.17 -90.68,-54.16 -140.01,-54.16 -51.83,0 -91.83,22.14 -120.16,66.64 -28.37,44.36 -42.53,107.03 -42.53,188.02 0,95.33 19.53,166.48 58.67,213.34 33.84,39.99 76.52,59.99 127.67,59.99 32.19,0 65.18,-9.34 98.69,-28.15l0 203.15c0,10.02 4.97,15.99 15.17,17.99l101.99 20c6.51,0 9.84,-5.65 9.84,-16.99l0 -583.83c0,-30.33 5.83,-58.84 17.67,-85.82 0.64,-1.68 1.32,-3.86 2,-6.51zm-146.66 85.32l0 275.84c-23.86,12.02 -47.86,18.03 -71.83,18.03 -31.69,0 -54.02,-12.34 -66.86,-37.17 -12.84,-24.68 -19.32,-67.36 -19.32,-127.85 0,-57.84 6.15,-99.66 18.32,-125.49 12.16,-25.68 32.02,-38.53 59.52,-38.53 31.34,0 57.99,11.66 80.16,35.16z"
   id="glyph8" />
   <glyph
   unicode="e"
   horiz-adv-x="480"
   d="M450.01 237.85c0,-8.69 -1.36,-15.02 -3.83,-19.03 -2.68,-3.83 -8.69,-5.83 -18.03,-5.83l-268.15 0c2,-83.99 38.81,-125.99 110.5,-125.99 37.17,0 74.98,10.34 113.32,31.16 5.15,2.68 9.52,3.86 12.99,3.86 5.01,0 8.69,-3 11.34,-9.19l24.68 -59.49c2,-5.01 3,-8.66 3,-11.34 0,-8.66 -13.66,-18.99 -40.99,-30.66 -43.68,-18.85 -89.68,-28.33 -138.19,-28.33 -63.49,0 -113.15,16.49 -148.99,49.33 -49.83,45.5 -74.66,115.83 -74.66,210.84 0,80.31 20,144.98 59.99,194.17 40.17,49.15 93.01,73.65 158.83,73.65 132.18,0 198.18,-91 198.18,-273.15zm-133 68.15c-1,41.5 -7.01,70.83 -18.17,88 -11.02,17.35 -29.33,26.01 -54.66,26.01 -29.69,0 -51.33,-12.48 -64.68,-37.67 -8.84,-16.31 -14.99,-41.82 -18.49,-76.34l156 0z"
   id="glyph9" />
   <glyph
   unicode="h"
   horiz-adv-x="537"
   d="M472.01 16.99c0,-11.34 -5.69,-16.99 -17.17,-16.99l-93.19 0c-11.16,0 -16.67,5.65 -16.67,17.17l0 308.67c0,30.33 -4.15,51.98 -12.66,64.82 -8.48,12.84 -22.64,19.35 -42.5,19.35 -27.33,0 -55.84,-13.7 -85.82,-41.17l0 -351.67c0,-11.52 -5.69,-17.17 -17.17,-17.17l-92.68 0c-11.48,0 -17.13,5.65 -17.13,17.17l0 668.82c0,10.02 4.83,15.99 14.67,17.99l93.33 18.99c1.82,0.68 4.83,1 8.84,1 6.83,0 10.16,-5.65 10.16,-16.99l0 -253.84c40.67,38.53 86.5,57.84 137.65,57.84 51.51,0 88.18,-17.99 110.36,-54.16 13.31,-21.86 20,-56.16 20,-103.02l0 -336.83z"
   id="glyph10" />
   <glyph
   unicode="i"
   horiz-adv-x="295"
   d="M235.99 640.99c0,-22.5 -7.83,-41.5 -23.5,-57.34 -15.67,-15.81 -34.81,-23.65 -57.66,-23.65 -22.64,0 -41.64,7.83 -57.31,23.65 -15.67,15.85 -23.5,35.16 -23.5,58.34 0,21.82 7.98,40.49 24,56.34 15.99,15.85 35.16,23.68 57.66,23.68 22.32,0 41.14,-8.01 56.81,-23.86 15.67,-15.99 23.5,-34.98 23.5,-57.16zm-13.99 -624c0,-11.34 -5.65,-16.99 -17.17,-16.99l-93.15 0c-11.2,0 -16.67,5.65 -16.67,17.17l0 383.83 -76.02 0c-11.34,0 -16.99,5.65 -16.99,16.99l0 59.02c0,11.3 5.65,16.99 16.99,16.99l186.01 0c11.34,0 16.99,-5.69 16.99,-16.99l0 -460.03z"
   id="glyph11" />
   <glyph
   unicode="l"
   horiz-adv-x="277"
   d="M289.18 11.34c0,-6.83 -11.02,-13.34 -32.84,-19.35 -21.68,-5.97 -44.5,-8.98 -68.32,-8.98 -59.52,0 -97.51,24.15 -113.68,72.33 -6.15,17.17 -9.34,57.66 -9.34,121.48l0 508.17c0,10.66 5.01,16.99 15.17,18.99l89.82 18.03c6.83,1.32 11.02,1.97 12.16,1.97 6.51,0 9.84,-5.65 9.84,-17.13l0 -520.84c0,-39.17 0.68,-61.17 2,-66 3.51,-13.34 12.02,-20.03 25.33,-20.03 9.19,0 20.03,2 32.7,6.01 2,0.68 4.33,1 6.83,1 4.65,0 7.33,-2 8.33,-6.01l21 -85.82c0.64,-1.32 1,-2.5 1,-3.83z"
   id="glyph12" />
   <glyph
   unicode="m"
   horiz-adv-x="777"
   d="M715.01 16.98c0,-11.3 -5.68,-16.98 -17.17,-16.98l-92.67 0c-11.49,0 -17.17,5.68 -17.17,16.98l0 316.04c0,51.32 -14.98,76.98 -44.98,76.98 -24.71,0 -53.37,-14.98 -86.04,-44.83l0 -348.18c0,-11.3 -5.63,-16.98 -17.12,-16.98l-90.67 0c-11.49,0 -17.17,5.68 -17.17,17.17l0 307.64c0,28.19 -1.67,47.03 -4.87,56.85 -6.15,18.84 -19.98,28.33 -41.16,28.33 -24.99,0 -53.66,-14.31 -86,-42.97l0 -349.85c0,-11.49 -5.68,-17.17 -17.17,-17.17l-91.15 0c-11.16,0 -16.69,5.68 -16.69,16.98l0 335.88c0,40.97 -5.96,76.98 -17.98,107.98 -2,3.82 -3,7.68 -3,11.16 0,5.49 3.67,9.49 10.83,11.69l81.18 27.33c6.49,1.34 9.83,2 9.83,2 11.69,0 22.51,-24.04 32.19,-72.02 50.65,46.65 100.31,70.02 149.34,70.02 51.46,0 87.81,-23.37 108.99,-70.02 51.66,46.65 103.17,70.02 154.68,70.02 46.65,0 78.65,-16.84 95.82,-50.37 12.16,-22.99 18.17,-61.34 18.17,-114.66l0 -329.01z"
   id="glyph13" />
   <glyph
   unicode="n"
   horiz-adv-x="537"
   d="M473.01 16.99c0,-11.34 -5.69,-16.99 -17.17,-16.99l-93.19 0c-11.16,0 -16.67,5.65 -16.67,17.17l0 308.67c0,56.16 -18.99,84.17 -57.16,84.17 -25.97,0 -54.98,-13.7 -86.82,-41.17l0 -351.67c0,-11.52 -5.69,-17.17 -17.17,-17.17l-93.15 0c-11.2,0 -16.67,5.65 -16.67,17.17l0 335.83c0,42.85 -6.83,79.16 -20.68,108.85 -2.18,4.15 -3.33,7.66 -3.33,10.16 0,4.01 2.83,6.83 8.33,8.84l88.64 33.16c3.68,1.32 7.01,2 10.34,2 12.34,0 24.18,-23 35.66,-69.18 46.5,42.85 96.33,64.17 149.67,64.17 86.17,0 129.35,-52.66 129.35,-158.18l0 -335.83z"
   id="glyph14" />
   <glyph
   unicode="o"
   horiz-adv-x="499"
   d="M468 248.01c0,-81.67 -19.35,-146.34 -58.16,-193.85 -38.85,-47.5 -91.68,-71.15 -158.83,-71.15 -68.5,0 -121.84,23.32 -160.33,69.83 -38.53,46.5 -57.66,111.18 -57.66,194.17 0,80.99 19.14,144.66 57.66,190.84 40.64,48.83 95.47,73.15 164.16,73.15 65.82,0 117.83,-23.68 156,-70.83 38.17,-47.18 57.16,-111.18 57.16,-192.17zm-135 -2c0,58.99 -6.51,100.98 -19.5,126.17 -13.02,25.15 -34.52,37.85 -64.5,37.85 -28.69,0 -49.33,-12.84 -61.99,-38.53 -12.7,-25.83 -19.03,-67.14 -19.03,-124.49 0,-57.84 6.51,-99.52 19.35,-124.99 12.84,-25.36 33.66,-38.03 62.67,-38.03 29.33,0 50.47,12.66 63.49,38.03 12.99,25.47 19.5,66.82 19.5,123.98z"
   id="glyph15" />
   <glyph
   unicode="r"
   horiz-adv-x="351"
   d="M365.16 488.5c0,-1.82 -0.64,-5.51 -2.33,-10.66l-30.84 -80.84c-2.33,-5.83 -4.83,-8.84 -7.83,-8.84 -1,0 -3.33,0.68 -7.33,2 -14.99,5.19 -28.33,7.83 -39.99,7.83 -21.5,0 -46.83,-15.99 -75.84,-47.83l0 -333c0,-11.52 -5.65,-17.17 -17.17,-17.17l-93.15 0c-11.2,0 -16.67,5.65 -16.67,16.99l0 303.67c0,47.83 -10.02,94.19 -30.01,139.19 -1.32,3.83 -2,6.98 -2,9.16 0,4.33 3.33,7.51 9.84,9.84l80.99 28.65c5.83,2.33 10.02,3.51 12.16,3.51 13.34,0 26.01,-26.01 38.17,-77.84 7.83,9.34 19.03,22.36 33.7,38.85 25.97,26.01 56.48,38.99 91.33,38.99 14.67,0 27.83,-2.33 39.49,-6.83 11.66,-4.51 17.49,-9.66 17.49,-15.67z"
   id="glyph16" />
   <glyph
   unicode="s"
   horiz-adv-x="425"
   d="M392.99 144.98c0,-45.47 -15.31,-84.14 -45.82,-116.15 -29.51,-30.51 -70.51,-45.82 -122.66,-45.82 -58.84,0 -115.33,13.99 -169.49,42 -14.67,7.51 -22,13.84 -22,18.99 0,2.68 0.97,6.65 2.97,12.16l22.86 60.99c2.65,6.51 5.97,9.84 9.84,9.84 2.33,0 5.33,-1 9.3,-3 52.83,-28.65 98.01,-43 135.86,-43 38.81,0 58.16,17.17 58.16,51.69 0,14.31 -4.83,25.51 -14.34,33.34 -9.66,7.66 -30.51,17.64 -62.67,29.65 -52.48,20.18 -87,38.31 -103.99,54.16 -26.69,25.51 -39.99,58.16 -39.99,98.16 0,47.86 16.67,87 49.97,117.33 33.34,30.51 76.02,45.68 128.03,45.68 31.48,0 64.82,-5.33 99.98,-16.17 35.02,-10.66 52.66,-20.68 52.66,-30.16 0,-2.5 -0.97,-6.19 -2.97,-10.66l-24.68 -57.02c-2.65,-5.83 -6.01,-8.84 -10.16,-8.84 -1.32,0 -4.01,0.68 -7.83,2 -38.49,17.17 -72.01,25.83 -100.52,25.83 -42.32,0 -63.49,-16.99 -63.49,-50.83 0,-13.66 4.19,-24.15 12.34,-31.34 8.16,-7.33 25.83,-16.31 53.01,-26.65 59.99,-23.5 98.34,-43.5 114.97,-59.99 27.19,-26.86 40.67,-60.85 40.67,-102.2z"
   id="glyph17" />
   <glyph
   unicode="t"
   horiz-adv-x="370"
   d="M366.02 21.99c0,-8.16 -10.35,-15.31 -31.19,-21.99 -35.15,-11.35 -68.83,-16.98 -101.16,-16.98 -59.14,0 -99.49,21.46 -121.01,64.49 -9.16,18.84 -13.64,49.84 -13.64,92.67l0 260.8 -69.35 0c-11.16,0 -16.65,5.68 -16.65,17.03l0 59c0,11.3 5.49,16.98 16.65,16.98l69.35 0 0 126.16c0,10.54 5.29,16.5 16.17,18.17l91.82 12.69 8.82 0c6.82,0 10.16,-5.34 10.16,-16.17l0 -140.85 113.66 0c11.35,0 17.17,-3.34 17.17,-10.16 0,-4.01 -0.33,-6.82 -1,-8.82l-13.16 -58.86c-2,-10.16 -7.82,-15.17 -17.65,-15.17l-99.02 0 0 -242.96c0,-22.85 1.19,-37.54 3.53,-44.02 4.48,-13.31 15.64,-19.98 33.48,-19.98 15.69,0 37.68,5.68 66.01,16.84 3.15,1.34 6.15,2 8.68,2 4.63,0 7.97,-3.34 10.3,-9.87l15.69 -69.64c1.48,-6.01 2.34,-9.68 2.34,-11.35z"
   id="glyph18" />
   <glyph
   unicode="z"
   horiz-adv-x="425"
   d="M414.17 95.15c0,-2.5 -1,-6.33 -3,-11.16l-30.16 -70.83c-4.01,-8.84 -10.34,-13.16 -19.17,-13.16l-319.66 0c-11.52,0 -17.17,5.65 -17.17,16.99l0 68.68 232.84 307.32 -194.67 0c-11.52,0 -17.17,5.83 -17.17,17.35l0 66.5c0,11.48 5.65,17.17 17.17,17.17l314.83 0c7.83,0 12.66,-1.36 14.49,-4.19 1.68,-2.65 2.68,-6.98 2.68,-12.81l0 -73.33 -226.18 -298.69 229.01 0c10.84,0 16.17,-3.33 16.17,-9.84z"
   id="glyph19" />
  </font>
  <font
   id="FontID0"
   horiz-adv-x="537"
   font-variant="normal"
   style="fill-rule:nonzero"
   font-style="normal"
   font-weight="400">
	<font-face
   font-family="Officina Sans OS ITC TT"
   id="font-face19">
		<font-face-src>
			<font-face-name
   name="Officina Sans OS ITC TT" />
		</font-face-src>
	</font-face>
   <missing-glyph
   id="missing-glyph19"><path
     d="M0 0z"
     id="path19" /></missing-glyph>
   <glyph
   unicode="("
   horiz-adv-x="370"
   d="M316.83 -202.18c0,-3.83 -5.65,-9.48 -16.85,-16.81 -11.16,-7.33 -20,-11.02 -26.15,-11.02 -9.66,0 -32.66,27.01 -68.82,81.02 -82.02,122.84 -123.02,255.48 -123.02,398 0,153.68 48.33,296.66 145.02,429.15 24.5,33.16 39.99,49.83 46.83,49.83 3.68,0 7.66,-1.32 12.34,-3.83l23.82 -15.17c4.69,-3 6.83,-5.83 6.83,-8.84 0,-3.83 -2.83,-9.98 -8.84,-17.99 -96.01,-127.99 -143.98,-272.33 -143.98,-433.16 0,-159.83 47.97,-304.17 143.98,-433.16 6.01,-8.01 8.84,-14.17 8.84,-18.03z"
   id="glyph20" />
   <glyph
   unicode=")"
   horiz-adv-x="370"
   d="M289 249.01c0,-153.35 -48.33,-296.33 -145.16,-429.19 -24.32,-33.16 -39.99,-49.83 -46.83,-49.83 -3.51,0 -7.69,1.36 -12.16,3.86l-24 14.17c-4.51,3.65 -6.83,6.83 -6.83,9.8 0,3.86 2.97,10.02 8.84,18.03 96.15,128.99 144.16,273.33 144.16,433.16 0,159.83 -48.01,304.17 -144.16,433.16 -5.87,7.83 -8.84,13.84 -8.84,17.99 0,3 7.66,9.34 23,18.99 9.3,5.83 16.13,8.84 20,8.84 9.16,0 31.98,-27.01 68.82,-80.99 82.17,-120.52 123.16,-253.16 123.16,-398z"
   id="glyph21" />
   <glyph
   unicode="-"
   horiz-adv-x="351"
   d="M314.83 232.16c0,-9.48 -4.65,-14.17 -14.17,-14.17l-250.01 0c-9.16,0 -13.66,4.69 -13.66,14.17l0 46.68c0,9.48 4.51,14.17 13.66,14.17l250.01 0c9.52,0 14.17,-4.69 14.17,-14.17l0 -46.68z"
   id="glyph22" />
   <glyph
   unicode="."
   horiz-adv-x="295"
   d="M219.17 57.16c0,-19.5 -7.01,-36.17 -20.85,-50.15 -13.81,-14.02 -30.33,-21 -49.47,-21 -19.85,0 -36.67,6.83 -50.33,20.5 -13.66,13.66 -20.53,30.48 -20.53,50.65 0,19.5 7.01,36.17 21.03,49.69 13.99,13.49 30.98,20.14 50.83,20.14 18.49,0 34.66,-6.83 48.47,-20.64 13.84,-13.84 20.85,-30.19 20.85,-49.19z"
   id="glyph23" />
   <glyph
   unicode="0"
   horiz-adv-x="499"
   d="M456.98 292.18c0,-204.19 -69.15,-306.17 -207.48,-306.17 -57.66,0 -102.84,19.64 -135.5,58.99 -46,55.98 -69,134.32 -69,234.84 0,96.66 18.82,171.81 56.48,225.65 37.67,53.69 90.36,80.52 157.86,80.52 63.64,0 112.5,-25.36 146.49,-75.84 34.16,-50.69 51.15,-123.34 51.15,-217.99zm-81.99 -2.36c0,150.17 -40.49,225.18 -121.48,225.18 -40.03,0 -71.01,-20.18 -93.19,-60.35 -22.18,-40.17 -33.34,-96.33 -33.34,-168.66 0,-76.84 12.02,-136.15 36.02,-178.18 19.5,-33.8 48.65,-50.83 87.5,-50.83 44.82,0 76.34,19.35 94.83,58.16 19.82,42.03 29.65,100.2 29.65,174.67z"
   id="glyph24" />
   <glyph
   unicode="1"
   horiz-adv-x="499"
   d="M424.83 14.17c0,-9.52 -4.51,-14.17 -13.66,-14.17l-264.17 0c-9.48,0 -14.17,4.65 -14.17,14.17l0 37.67c0,9.52 4.69,14.17 14.17,14.17l102.02 0 0 426.18 -111.86 -67.36c-4.47,-2.65 -7.98,-4.01 -10.16,-4.01 -3,0 -5.33,2.5 -6.83,7.33l-13.16 24c-2,3.51 -3,6.51 -3,8.84 0,3.18 2.36,6.69 6.83,10.16l150.35 109.86 49.65 0c9.52,0 14.17,-4.69 14.17,-14.17l0 -500.84 86.17 0c9.01,0 13.66,-4.65 13.66,-14.17l0 -37.67z"
   id="glyph25" />
   <glyph
   unicode="2"
   horiz-adv-x="499"
   d="M431.01 14.17c0,-9.52 -4.69,-14.17 -14.17,-14.17l-335.68 0c-6.15,0 -9.66,1.5 -10.66,4.33 -1,2 -1.5,5.33 -1.5,9.84 0,65 13.34,119.66 40.17,163.51 26.83,44 70.83,83.31 132,118.15 45.82,26.33 74.48,46.68 85.82,60.99 14.67,18.49 22,41.17 22,67.86 0,28.33 -8.48,50.47 -25.65,66.32 -16.99,15.99 -40.49,24 -70.51,24 -28.15,0 -51.01,-7.33 -68.5,-22.18 -17.35,-14.85 -32.34,-39.81 -45,-74.83 -2.65,-6.51 -6.15,-9.84 -10.34,-9.84 -2,0 -5.15,0.68 -9.66,2l-40.99 11.66c-5.51,2.36 -8.33,5.69 -8.33,10.34 0,7.51 4.33,20.5 13.16,38.99 8.84,18.67 17.81,34.02 27.01,46 35.49,45.86 84.49,68.86 147.17,68.86 53.84,0 96.15,-14.02 127.17,-42 30.98,-28.01 46.5,-66.36 46.5,-114.86 0,-47.15 -14.67,-86.32 -44,-117.33 -12.84,-12.99 -24.5,-23 -35.34,-30.16 -9.16,-6.15 -39.67,-24.18 -91.5,-53.84 -68.82,-39.67 -106.49,-91.33 -113,-154.82l269.68 0c9.48,0 14.17,-4.69 14.17,-14.17l0 -44.68z"
   id="glyph26" />
   <glyph
   unicode="3"
   horiz-adv-x="499"
   d="M433.98 109.82c0,-57.16 -19.64,-103.49 -58.81,-138.83 -39.17,-35.31 -90.68,-52.98 -154.68,-52.98 -34.34,0 -70.15,4.97 -107.99,15.17 -37.67,9.98 -56.52,19.64 -56.52,28.83 0,1.5 1,4.65 3,9.16l20 45c1.68,3.83 3.86,5.83 6.83,5.83 2.5,0 10.19,-3 23,-8.84 33.84,-16.17 70.51,-24.18 109.86,-24.18 88.82,0 133.32,41.35 133.32,124.02 0,81.99 -48.65,122.98 -145.98,122.98l-34.34 0c-9.01,0 -13.66,4.69 -13.66,14.02l0 39.99c0,9.34 4.65,13.99 13.84,13.99l33.16 0c39.31,0 70.83,10.84 94.01,32.52 23.32,21.68 34.98,50.65 34.98,87.18 0,29.33 -8.84,52.83 -26.33,70.15 -17.67,17.49 -41.35,26.18 -70.83,26.18 -36.52,0 -70.18,-17.03 -100.66,-50.83 -7.83,-8.69 -14.17,-13.2 -19.17,-13.2 -2.18,0 -5.01,1.36 -8.19,4.01l-32.8 27.83c-3.51,2.36 -5.37,5.01 -5.37,8.33 0,10.02 16.17,27.01 48.36,50.83 34.81,26.01 74.98,39.03 120.66,39.03 50.65,0 92.01,-14.85 123.66,-44.5 31.84,-29.51 47.68,-68.18 47.68,-115.69 0,-70.65 -34.34,-119.66 -103.02,-146.99 27.83,-8.51 49.33,-18.67 64.5,-30.69 40.99,-32.66 61.49,-78.66 61.49,-138.33z"
   id="glyph27" />
   <glyph
   unicode="6"
   horiz-adv-x="499"
   d="M443 224.18c0,-70.01 -17.99,-127.17 -53.84,-171.53 -35.99,-44.5 -82.49,-66.64 -139.65,-66.64 -67.86,0 -118.69,30.84 -152.35,92.33 -25.51,46.15 -38.17,106.67 -38.17,181.65 0,120.01 25,215.67 75.01,286.5 50.01,71.01 117.15,106.53 201.82,106.53 23.18,0 43,-2.18 59.35,-6.33 16.49,-4.36 24.65,-9.52 24.65,-15.67 0,-2.68 -0.32,-4.69 -1,-5.83l-10.66 -42.17c-1.32,-4.51 -3.83,-6.83 -7.33,-6.83l-6.83 0.82c-20.14,6.65 -40.49,10.02 -60.99,10.02 -54.16,0 -98.01,-23.18 -131.82,-69.5 -28.01,-38.03 -46.18,-86.17 -54.34,-144.52 37.99,43.36 80.49,65 127.49,65 51.33,0 92.33,-19.5 122.84,-58.49 30.48,-39.17 45.82,-90.82 45.82,-155.32zm-81.99 -1.18c0,97.34 -37.17,145.98 -111.5,145.98 -34.34,0 -60.99,-12.48 -80.02,-37.67 -18.99,-24.97 -28.47,-60.49 -28.47,-106.31 0,-112 36.49,-168.02 109.5,-168.02 73.65,0 110.5,55.34 110.5,166.02z"
   id="glyph28" />
   <glyph
   unicode="8"
   horiz-adv-x="499"
   d="M459.99 167.16c0,-44.32 -14.31,-82.99 -43,-116.15 -37.67,-43.36 -93.15,-65 -165.98,-65 -64.17,0 -115.33,16.31 -153.68,48.83 -38.17,32.48 -57.34,75.98 -57.34,130.32 0,53.51 18.99,97.01 57.16,130.85 18.85,17.31 48.51,33.8 88.86,49.33 -78.66,30.66 -118.01,80.34 -118.01,148.99 0,42.35 15.35,78.66 45.82,108.85 33.84,33.16 79.84,49.83 138.19,49.83 52.98,0 95.98,-13.84 129.17,-41.67 33.16,-27.83 49.83,-64 49.83,-108.17 0,-67.82 -37.67,-119.66 -113.18,-155.82 94.83,-38.17 142.16,-98.19 142.16,-180.18zm-104.99 327.99c0,28.33 -9.66,51.19 -29.01,68.18 -19.5,17.17 -45,25.65 -76.98,25.65 -30.51,0 -55.16,-8.48 -74.01,-25.33 -18.67,-16.99 -28.01,-39.17 -28.01,-66.5 0,-46.65 35.34,-86.32 106.03,-119.16 68,27.65 101.99,66.68 101.99,117.15zm23 -332.82c0,63.67 -43.32,112 -129.99,144.84 -83.99,-34.52 -125.99,-82.85 -125.99,-144.84 0,-33.34 11.8,-59.99 35.66,-80.16 23.82,-20.18 55.16,-30.16 94.33,-30.16 37.67,0 68.15,10.16 91.33,30.48 23.18,20.35 34.66,46.86 34.66,79.84z"
   id="glyph29" />
   <glyph
   unicode=":"
   horiz-adv-x="295"
   d="M219.17 402.83c0,-19.5 -6.83,-35.99 -20.5,-49.51 -13.66,-13.49 -30.33,-20.32 -49.83,-20.32 -19.85,0 -36.67,6.83 -50.33,20.5 -13.66,13.66 -20.53,30.33 -20.53,50.33 0,19.5 7.01,36.02 21.03,49.69 13.99,13.66 30.98,20.5 50.83,20.5 18.49,0 34.66,-7.01 48.47,-21 13.84,-14.02 20.85,-30.69 20.85,-50.19zm0 -345.66c0,-19.5 -7.01,-36.17 -20.85,-50.15 -13.81,-14.02 -30.33,-21 -49.47,-21 -19.85,0 -36.67,6.83 -50.33,20.5 -13.66,13.66 -20.53,30.48 -20.53,50.65 0,19.5 7.01,36.17 21.03,49.69 13.99,13.49 30.98,20.14 50.83,20.14 18.49,0 34.66,-6.83 48.47,-20.64 13.84,-13.84 20.85,-30.19 20.85,-49.19z"
   id="glyph30" />
   <glyph
   unicode="A"
   horiz-adv-x="537"
   d="M517.15 7.83c0,-5.15 -4.83,-7.83 -14.17,-7.83l-64 0c-6.83,0 -11.84,3.68 -15.17,11.16l-54.66 194.85 -203.15 0 -56.2 -194.85c-1.82,-7.48 -6.83,-11.16 -14.67,-11.16l-59.99 0c-9.48,0 -14.17,2.33 -14.17,6.83 0,1.68 0.68,4.65 2,9.34l201.18 658.67c2.15,7.51 7.15,11.16 14.67,11.16l59.99 0c7.83,0 12.84,-3.65 15.17,-11.16l201.14 -658.67c1.36,-4.69 2,-7.33 2,-8.33zm-166.98 267.18l-60.17 220.14c-8.66,31.51 -16.35,63.53 -22.82,95.69 -4.69,-23.5 -12.34,-55.02 -23,-94.69l-60.17 -221.14 166.16 0z"
   id="glyph31" />
   <glyph
   unicode="C"
   horiz-adv-x="462"
   d="M441.17 64c0,-6.83 -9.34,-17.31 -27.83,-31.66 -39.67,-30.84 -84.85,-46.32 -135.36,-46.32 -73.48,0 -129.49,30.98 -168.16,93.15 -38.49,62.17 -57.81,152.5 -57.81,270.83 0,116.83 18.99,205.19 57.16,265 36.17,56.66 90.14,84.99 161.97,84.99 55.7,0 105.35,-18.64 149.03,-55.98 10.66,-9.16 16.17,-15.85 16.17,-20 0,-2.68 -0.68,-5.33 -2,-7.83l-29.33 -37.99c-1.32,-2.68 -4.01,-4.01 -7.83,-4.01 -2,0 -13.34,7.98 -34.16,24 -30.01,23.14 -60.35,34.84 -91,34.84 -45.68,0 -78.84,-21.86 -99.66,-65.53 -20.85,-43.64 -31.34,-113.15 -31.34,-208.66 0,-203.83 47.15,-305.81 141.33,-305.81 34.48,0 71.83,17.64 111.82,52.98 4.65,3.83 8.16,5.83 10.84,5.83 2.65,0 5.33,-2.33 8.33,-6.83l24.83 -33.16c2,-2 3,-4.51 3,-7.83z"
   id="glyph32" />
   <glyph
   unicode="D"
   horiz-adv-x="556"
   d="M502.99 355c0,-236.67 -93.33,-355 -279.99,-355l-113.32 0c-9.19,0 -13.66,4.65 -13.66,14.17l0 657.66c0,9.52 4.47,14.17 13.66,14.17l104.17 0c79.66,0 139.15,-13.34 178.32,-39.99 73.83,-50.83 110.82,-147.84 110.82,-291zm-88 0c0,129.35 -28.33,209.52 -84.99,239.99 -25.15,13.34 -62.17,20 -111,20l-40.99 0 0 -543.98 50.83 0c38.99,0 68.5,4.33 88.5,12.99 19.82,8.51 37.67,24.5 53.66,48.01 29.33,43.18 44,117.51 44,223z"
   id="glyph33" />
   <glyph
   unicode="E"
   horiz-adv-x="462"
   d="M432.02 679.16c0,-2.33 -0.68,-5.33 -2,-9.34l-15.17 -44c-2.68,-7.15 -7.69,-10.84 -15.17,-10.84l-221.68 0 0 -226.01 195.85 0c9.48,0 14.17,-4.65 14.17,-13.99l0 -38.49c0,-9.01 -4.69,-13.52 -14.17,-13.52l-195.85 0 0 -251.98 238.85 0c9.48,0 14.17,-4.51 14.17,-13.66l0 -43.18c0,-9.52 -4.69,-14.17 -14.17,-14.17l-307.17 0c-9.19,0 -13.66,4.65 -13.66,14.17l0 657.66c0,9.52 4.47,14.17 13.66,14.17l308.17 0c9.3,0 14.17,-2.33 14.17,-6.83z"
   id="glyph34" />
   <glyph
   unicode="G"
   horiz-adv-x="537"
   d="M469 41.17c0,-7.19 -3,-12.16 -8.84,-15.17 -42.32,-26.69 -97.66,-39.99 -166.02,-39.99 -78.3,0 -138.15,30.16 -179.32,90.5 -41.17,60.31 -61.81,148.17 -61.81,263.32 0,117.15 20.82,206.51 62.49,268 41.67,61.49 102.16,92.15 181.65,92.15 51.33,0 99.52,-13.66 144.02,-40.99 13.34,-8.33 20,-14.99 20,-20 0,-2.15 -1,-5.01 -2.83,-8.16l-21 -43c-1.36,-2.5 -3.36,-3.83 -6.01,-3.83 -2.5,0 -12.99,5.97 -31.16,18.17 -31.69,20.5 -66,30.84 -103.17,30.84 -53.51,0 -92.68,-22.68 -117.69,-68 -24.83,-45.18 -37.31,-116.51 -37.31,-214.02 0,-105.17 12.99,-181.15 38.99,-227.83 26.01,-46.83 68.32,-70.15 126.99,-70.15 27.33,0 53.66,6.15 79.02,18.64l0 206.33 -77.7 0c-9.48,0 -14.17,4.69 -14.17,14.2l0 40.64c0,9.52 4.69,14.17 14.17,14.17l146.02 0c9.16,0 13.66,-4.65 13.66,-14.17l0 -291.65z"
   id="glyph35" />
   <glyph
   unicode="I"
   horiz-adv-x="332"
   d="M310.18 14.34c0,-9.52 -4.83,-14.34 -14.17,-14.34l-258.84 0c-9.52,0 -14.17,4.83 -14.17,14.34l0 37.31c0,9.52 4.65,14.34 14.17,14.34l87.82 0 0 554 -87.82 0c-9.52,0 -14.17,4.69 -14.17,13.84l0 37.81c0,9.52 4.65,14.34 14.17,14.34l258.84 0c9.34,0 14.17,-4.83 14.17,-14.34l0 -37.81c0,-9.16 -4.83,-13.84 -14.17,-13.84l-89 0 0 -554 89 0c9.34,0 14.17,-4.83 14.17,-14.34l0 -37.31z"
   id="glyph36" />
   <glyph
   unicode="K"
   horiz-adv-x="518"
   d="M503.67 36.99c0,-3.65 -2.18,-6.98 -6.83,-10.34l-45.82 -31.8c-4.01,-2.5 -7.01,-3.86 -9.34,-3.86 -2.83,0 -6.19,2.36 -9.66,6.83l-254.02 327.35 0 -311c0,-9.52 -4.65,-14.17 -14.17,-14.17l-54.16 0c-9.19,0 -13.66,4.65 -13.66,14.17l0 657.66c0,9.52 4.47,14.17 13.66,14.17l54.16 0c9.52,0 14.17,-4.65 14.17,-14.17l0 -324.66 256.84 340.01c4.01,5.15 7.15,7.83 9.84,7.83 2.33,0 5.33,-1.68 9.34,-4.83l36.99 -25c5.15,-3.51 7.83,-7.01 7.83,-10.16 0,-2.36 -1.68,-5.69 -4.83,-9.84l-235.34 -304.35 240.17 -295.15c3.33,-3.18 4.83,-6.19 4.83,-8.69z"
   id="glyph37" />
   <glyph
   unicode="M"
   horiz-adv-x="667"
   d="M592.99 9.84c0,-6.51 -4.15,-9.84 -12.66,-9.84l-58.16 0c-9.16,0 -13.84,4.33 -14.17,13.16l-14.99 512.68c0,-5.83 1,11.3 2.83,51.33l1 20c-4.51,-31.16 -11.52,-60.67 -21,-88.36l-117.15 -337.97c-2.68,-7.19 -7.51,-10.7 -14.67,-10.7l-29.33 0c-7.51,0 -12.52,3.51 -15.02,10.7l-112.82 337.97c-8.84,26.36 -15.17,55.84 -18.99,88.36l0 -18.99 1.82 -38.17 0 -18.99 -14.67 -507.85c0,-8.84 -4.33,-13.16 -12.84,-13.16l-54.34 0c-6.33,0 -10.16,0.82 -11.66,2.5 -1.5,1.5 -2.15,4.01 -2.15,7.33l0 4.33 37.67 658.67c0.64,8.84 5.33,13.16 14.17,13.16l59.17 0c7.48,0 12.48,-3.65 14.99,-11.16l117.83 -344.84c6.83,-19.82 11.66,-40.49 14.17,-61.99 1.32,11.48 5.65,32.16 13.16,61.99l118.83 344.84c2.68,7.51 7.66,11.16 15.17,11.16l62.99 0c8.19,0 12.52,-4.33 13.16,-13.16l37.67 -662.99z"
   id="glyph38" />
   <glyph
   unicode="N"
   horiz-adv-x="574"
   d="M491 14.17c0,-9.52 -4.69,-14.17 -14.17,-14.17l-54.16 0c-6.83,0 -11.66,3.33 -14.67,9.84l-228.83 495.01c-10.02,21.5 -20.18,52.98 -30.19,94.33 6.69,-39.53 10.02,-72.19 10.02,-98.19l0 -486.82c0,-9.52 -4.69,-14.17 -14.17,-14.17l-44.68 0c-9.48,0 -14.17,4.65 -14.17,14.17l0 657.66c0,9.52 4.69,14.17 14.17,14.17l62.99 0c6.83,0 11.84,-3.33 15.17,-10.16l218.67 -465.82c11.16,-23.5 20.35,-51.51 27.83,-84.03 -4.51,34.52 -6.83,63.49 -6.83,86.85l0 458.99c0,9.52 4.69,14.17 14.17,14.17l44.68 0c9.48,0 14.17,-4.65 14.17,-14.17l0 -657.66z"
   id="glyph39" />
   <glyph
   unicode="O"
   horiz-adv-x="556"
   d="M502.99 344.16c0,-238.81 -76.98,-358.15 -230.84,-358.15 -146.81,0 -220.14,117.65 -220.14,352.82 0,240.85 78.16,361.15 234.31,361.15 144.52,0 216.67,-118.65 216.67,-355.82zm-89 -7.33c0,109.18 -12.66,188.66 -38.17,238.49 -19.82,38.53 -52.48,57.7 -97.98,57.7 -49.01,0 -83.35,-21.03 -103.17,-63.03 -22.5,-47.83 -33.66,-122.8 -33.66,-224.83 0,-103.49 12.99,-181.65 38.99,-234.48 18.99,-38.53 51.15,-57.66 96.83,-57.66 49.15,0 83.49,21 102.99,62.99 22.86,48.51 34.16,122.16 34.16,220.82z"
   id="glyph40" />
   <glyph
   unicode="P"
   horiz-adv-x="481"
   d="M466 501.99c0,-91.83 -33.16,-155.14 -99.66,-189.98 -28.51,-14.67 -67.18,-22 -116.51,-22l-71.83 0 0 -275.84c0,-9.52 -4.65,-14.17 -14.17,-14.17l-54.16 0c-9.19,0 -13.66,4.65 -13.66,14.17l0 657.66c0,9.52 4.47,14.17 13.66,14.17l153.5 0c59.67,0 102.34,-7.66 127.99,-23 49.83,-29.83 74.83,-83.67 74.83,-161.01zm-83.99 -1c0,57.52 -18.67,93.51 -55.84,107.67 -13.66,5.51 -37.17,8.33 -70.33,8.33l-77.84 0 0 -254.98 66 0c43.68,0 75.01,7.66 94.01,23 29.33,23.65 44,62.31 44,115.97z"
   id="glyph41" />
   <glyph
   unicode="S"
   horiz-adv-x="481"
   d="M438.99 182.33c0,-58.67 -19.32,-105.99 -58.16,-142.16 -38.67,-36.17 -89.32,-54.16 -151.82,-54.16 -37.52,0 -78.34,6.98 -122.52,21 -44.32,13.99 -66.5,26.97 -66.5,38.99 0,2 0.68,4.65 2,8.33l18.99 47.65c1.36,3.36 3.51,5.01 6.83,5.01 3,0 8.69,-2.33 17.17,-6.83 51.01,-28.15 99.34,-42.17 145.02,-42.17 36.67,0 66.32,10.34 88.5,31.01 22.32,20.68 33.48,48.01 33.48,81.85 0,30.48 -8.48,55.98 -25.33,76.16 -16.99,20.18 -50.15,44.32 -99.66,72.65 -65.36,37.85 -107.35,67.18 -126.02,88.36 -26.65,30.33 -39.99,67.32 -39.99,110.82 0,53.16 18.35,96.51 55.02,130.32 36.49,33.84 83.81,50.83 141.84,50.83 33.48,0 69.65,-6.33 108.5,-19.14 38.99,-12.84 58.49,-24.5 58.49,-35.02 0,-1.82 -0.64,-4.51 -2,-7.66l-17.99 -45.32c-1.65,-4.01 -4.33,-5.83 -7.83,-5.83 -1.32,0 -15.67,6.65 -43,20 -30.33,14.67 -62.67,22 -97.16,22 -34.52,0 -61.49,-8.69 -80.84,-26.18 -19.32,-17.31 -29.01,-41.67 -29.01,-73.01 0,-35.66 13.34,-64 40.03,-84.81 7.15,-5.65 47.15,-30.51 120.16,-74.83 48.15,-28.51 80.99,-55.34 98.66,-79.99 22.18,-30.69 33.16,-66.5 33.16,-107.85z"
   id="glyph42" />
   <glyph
   unicode="T"
   horiz-adv-x="407"
   d="M422 679.16c0,-3 -0.32,-5.01 -1,-6.33l-1 -3 -15.17 -43c-2.33,-7.15 -7.15,-10.84 -14.67,-10.84l-144.16 0 0 -601.82c0,-9.52 -4.69,-14.17 -14.17,-14.17l-53.66 0c-9.52,0 -14.17,4.65 -14.17,14.17l0 601.82 -145.84 0c-9.52,0 -14.17,4.51 -14.17,13.66l0 42.17c0,9.52 4.65,14.17 14.17,14.17l390.16 0c9.01,0 13.66,-2.33 13.66,-6.83z"
   id="glyph43" />
   <glyph
   unicode="W"
   horiz-adv-x="684"
   d="M663.17 672.01c0,-1 -0.32,-2.33 -1,-3.83l0 -4.01 -138.19 -652.01c-1.65,-8.16 -6.65,-12.16 -15.17,-12.16l-66 0c-7.98,0 -12.66,4.01 -13.66,12.16l-86.32 552.85 -103.99 -552.85c-1.36,-8.16 -6.19,-12.16 -14.67,-12.16l-61.03 0c-8.48,0 -13.49,4.01 -15.17,12.16l-124.99 653.84c-0.68,3.68 -1,6.15 -1,7.83 0,4.01 4.01,6.65 12.16,8.33l51.83 9.84c3.51,0.64 6.33,1 8.33,1 3.83,0 6.51,-3.83 7.66,-11.66l86.03 -494.33c4.15,-24 7.15,-65.68 8.8,-125.02 2,28.69 6.01,69.33 12.2,122.02l97.16 489.82c1.65,8.16 6.51,12.16 14.67,12.16l53.16 0c8.84,0 13.84,-4.01 15.17,-12.16l81.99 -493.65c4.01,-23.86 7.51,-64.53 10.84,-122.02 0.68,27.65 3.68,68.32 9.34,122.02l91.68 501.16c1.32,7.83 4.33,11.66 8.84,11.66 1.65,0 4.01,-0.36 7.33,-1l51.83 -10.66c7.98,-2 12.16,-5.19 12.16,-9.34z"
   id="glyph44" />
   <glyph
   unicode="a"
   horiz-adv-x="462"
   d="M405.65 24.68c0,-2 -1.32,-3.51 -3.83,-4.86l-43 -26.83c-2.65,-2 -5.15,-3 -7.83,-3 -12.66,0 -25.33,21.03 -38.17,63.03 -42.82,-42 -90.65,-63.03 -142.98,-63.03 -40.35,0 -72.51,12.34 -96.19,36.84 -23.82,24.68 -35.66,58.02 -35.66,100.02 0,113 88,170.99 264,173.99l0 33.16c0,32.02 -7.15,54.84 -21.32,68.5 -14.17,13.66 -37.67,20.5 -70.65,20.5 -33.2,0 -73.01,-9.66 -119.19,-29.01 -2.65,-1.14 -5.01,-1.82 -6.83,-1.82 -3.65,0 -6.01,1.5 -6.83,4.83l-15.17 39.99 -1 7.69c0,4.97 8.84,11.3 26.83,18.99 41.35,18.17 85.85,27.33 133.36,27.33 103.81,0 155.82,-46.68 155.82,-140.15l0 -189.02c0,-55.34 8.84,-98.98 26.69,-131.32 1.32,-2.18 1.97,-4.19 1.97,-5.83zm-103.67 85.14l0 129.03c-124.66,-1 -186.98,-36.34 -186.98,-106.03 0,-23.5 6.83,-42.5 20.5,-57.31 13.66,-14.85 31.34,-22.36 52.66,-22.36 33.34,0 71.19,18.99 113.83,56.66z"
   id="glyph45" />
   <glyph
   unicode="b"
   horiz-adv-x="499"
   d="M450.01 272.01c0,-190.66 -60.85,-286 -182.69,-286 -46.32,0 -89,16.31 -128.17,49.15 -11.98,-30.16 -22.82,-45.18 -32.3,-45.18 -2,0 -4.51,1 -7.83,3l-43.03 26.83c-1.97,1.86 -2.97,3.51 -2.97,4.86 0.32,2.65 1.32,4.97 2.97,7.33 18.67,24.47 28.01,59.49 28.01,104.99l0 561.15c0,6.83 3.68,11.02 11.16,12.66l51.69 12.16c0.64,0.68 3,1 6.83,1 4.15,0 6.33,-3.65 6.33,-11.16l0 -268c47.33,32.84 91.83,49.19 133.32,49.19 104.49,0 156.68,-74.01 156.68,-222zm-82.02 -10.66c0,110.5 -29.83,165.66 -89.32,165.66 -32.48,0 -72.15,-16.35 -118.65,-48.83l0 -285.53c29.65,-25.83 64.32,-38.63 103.99,-38.63 69.33,0 103.99,69.15 103.99,207.33z"
   id="glyph46" />
   <glyph
   unicode="c"
   horiz-adv-x="408"
   d="M398.18 430.16l-1 -6.33 -22 -38.99c-2.5,-4.65 -5.19,-6.83 -7.83,-6.83 -2.83,0 -5.69,1.18 -8.16,3.83 -40.67,30.16 -75.01,45.18 -103.02,45.18 -80.84,0 -121.16,-61.99 -121.16,-185.83 0,-124.84 37.17,-187.16 111.32,-187.16 22.18,0 43,4.47 62.49,13.66 11.34,5.65 29.83,17.31 55.2,35.31 2.97,2 5.33,3 7.33,3 2.65,0 4.83,-2 6.83,-5.83l15.17 -38.17c1.65,-4.15 2.5,-7.48 2.83,-10.16 0,-4.51 -5.33,-10.66 -15.99,-18.49 -42.68,-31.51 -89.36,-47.33 -139.69,-47.33 -59.67,0 -106.17,21.5 -139.51,64.32 -33.3,43 -49.97,102.49 -49.97,178.68 0,81.99 18.17,146.66 54.48,193.99 36.17,47.33 85.85,71.01 148.67,71.01 44.18,0 84.99,-13.02 122.02,-38.99 14.67,-10.52 22,-18.67 22,-24.86z"
   id="glyph47" />
   <glyph
   unicode="d"
   horiz-adv-x="499"
   d="M448.51 23.68c0,-2 -1.82,-3.86 -5.33,-5.83l-45 -24.86c-2,-2 -4.51,-3 -7.83,-3 -12.02,0 -23,20.03 -33.16,59.85 -56.7,-42.5 -106.35,-63.82 -149.03,-63.82 -49.15,0 -87.5,23 -115.33,68.82 -27.83,45.82 -41.82,109.32 -41.82,190.34 0,76.66 15.99,137.33 48.15,181.97 32.02,44.5 75.66,66.86 131,66.86 34.52,0 71.19,-10.66 109.86,-32.02l0 236.17c0,6.19 3.33,10.34 10.16,12.66l51.65 12.16c1.36,0.68 3.51,1 6.33,1 4.51,0 6.83,-3.65 6.83,-11.16l0 -554.82c0,-52.16 8.33,-91.5 25.18,-118.15 5.51,-8.51 8.33,-13.84 8.33,-16.17zm-108.5 88l0 283.49c-37.02,21.18 -70.83,31.84 -101.52,31.84 -37.31,0 -64.17,-14.02 -80.67,-41.85 -16.49,-27.83 -24.83,-73.15 -24.83,-136.15 0,-69 7.15,-118.83 21.68,-149.35 14.31,-30.48 38.17,-45.64 71.15,-45.64 35.02,0 73.01,19.14 114.18,57.66z"
   id="glyph48" />
   <glyph
   unicode="e"
   horiz-adv-x="462"
   d="M432.02 240.99c0,-11.98 -3.68,-17.99 -11.2,-17.99l-287.82 0c5.15,-112.68 49.33,-168.99 132.32,-168.99 35.52,0 74.01,11.98 115.69,35.81 3.65,2 7.01,3 10.34,3 2.33,0 4.51,-1.65 6.83,-5.01l17.99 -38.99c1.32,-2.83 2,-5.15 2,-6.83 0,-7.33 -12.02,-16.67 -36.17,-27.65 -39.67,-18.85 -80.67,-28.33 -123.02,-28.33 -63.49,0 -114,22.82 -151.64,68.5 -37.52,45.82 -56.34,107.14 -56.34,184.33 0,77.98 17.81,139.97 53.48,186.16 35.84,46 83.85,69 144.16,69 83.67,0 139.87,-39.99 168.2,-120.16 10.16,-28.37 15.17,-72.51 15.17,-132.86zm-82.02 44c-2.33,98.66 -37.99,148.02 -107.32,148.02 -68.82,0 -105.35,-49.37 -109.68,-148.02l216.99 0z"
   id="glyph49" />
   <glyph
   unicode="f"
   horiz-adv-x="295"
   d="M341.66 688.82c0,-0.64 -0.64,-2.5 -2,-5.83l-16.49 -40.99c-1.32,-3.83 -3.83,-5.83 -7.33,-5.83 -2.65,0 -5.83,1 -9.84,3 -28.83,13.84 -54.48,20.82 -76.98,20.82 -25,0 -42.17,-9.84 -51.19,-29.33 -5.83,-11.66 -8.84,-36.17 -8.84,-73.65l0 -77.02 143.84 0c7.51,0 11.34,-2.33 11.34,-6.83 0,-2.65 -0.32,-4.65 -1,-6.33l-13.16 -39.99c-2,-5.83 -6.33,-8.84 -13.16,-8.84l-127.85 0 0 -405.83c0,-6.15 -1,-9.66 -2.97,-10.66 -1.86,-1 -4.51,-1.5 -7.83,-1.5l-53.34 0c-5.01,0 -8.01,0.82 -9.19,2.68 -1.14,1.82 -1.65,4.97 -1.65,9.48l0 405.83 -66.36 0c-5.83,0 -9.16,1 -10.16,3 -1,1.82 -1.5,4.69 -1.5,8.16l0 38.67c0,6.19 1.36,9.84 3.83,11.16 1.36,0.68 4.01,1 7.83,1l66.36 0 0 78.02c0,54.16 8.66,92.65 25.83,115.65 25.15,33.52 62.49,50.33 112,50.33 23.32,0 47.5,-3.97 72.51,-11.98 24.83,-7.83 37.31,-15.67 37.31,-23.18z"
   id="glyph50" />
   <glyph
   unicode="g"
   horiz-adv-x="499"
   d="M447 461.85c0,-2.18 -2,-6.51 -5.83,-12.7 -16.85,-26.33 -25.18,-59.99 -25.18,-100.98l0 -154.32c0,-47.18 1.68,-104.17 5.01,-171.02 1.32,-26.65 2,-45.64 2,-56.98 0,-117.83 -59.17,-176.86 -177.68,-176.86 -53.66,0 -103.67,12.34 -149.81,37.17 -12.16,6.19 -18.17,11.7 -18.17,16.53 0,1 0.64,3.51 2,7.33l17.99 40.17c1,3.83 3,5.83 5.83,5.83 2.33,0 5.01,-1 7.83,-3 47.18,-25.33 90.82,-37.99 131.18,-37.99 43.64,0 73.83,12.16 90.65,36.31 10.19,14.02 15.17,38.35 15.17,73.01 0,7.01 -0.32,24.18 -1,51.51l-1 51.98c-44.5,-36.49 -90.82,-54.84 -138.97,-54.84 -47.68,0 -85.49,19.85 -113.36,59.52 -27.83,39.81 -41.64,93.83 -41.64,162.15 0,82.99 16.49,146.99 49.33,191.99 32.84,44.86 79.48,67.36 140.15,67.36 40.67,0 80.84,-14.02 120.52,-41.85 12.16,30.51 21.5,45.86 28.33,45.86 3,0 5.51,-0.68 7.83,-2l46 -28.33c1.82,-0.86 2.83,-2.86 2.83,-5.83zm-105.99 -332.03l0 269.86c-37.02,18.82 -68,28.33 -93.33,28.33 -75.84,0 -113.68,-58.02 -113.68,-174.17 0,-60.85 7.01,-104.85 20.82,-132 14.02,-27.19 36.67,-40.85 68.18,-40.85 33.66,0 73.01,16.35 118.01,48.83z"
   id="glyph51" />
   <glyph
   unicode="h"
   horiz-adv-x="519"
   d="M435.99 12.16c0,-6.15 -1,-9.66 -2.97,-10.66 -1.86,-1 -4.69,-1.5 -8.19,-1.5l-52.66 0c-4.83,0 -8.01,0.82 -9.16,2.68 -1.36,1.82 -2,4.97 -2,9.48l0 332.18c0,31.16 -5.01,52.83 -14.85,65.18 -9.98,12.31 -28.01,18.49 -54.16,18.49 -36.84,0 -80.84,-21 -132,-62.85l0 -353c0,-6.15 -1.32,-9.84 -3.83,-11.16 -1.36,-0.68 -3.86,-1 -7.33,-1l-52.69 0c-4.83,0 -7.98,0.82 -9.16,2.68 -1.32,1.82 -2,4.97 -2,9.48l0 686c0,6.19 3.33,10.34 10.16,12.66l51.69 12.16c0.64,0.68 3,1 6.83,1 4.15,0 6.33,-3.65 6.33,-11.16l0 -284.67c48.51,43.86 100.16,65.86 154.82,65.86 53.51,0 89.5,-19.5 108.5,-58.52 8.51,-17.99 12.66,-48.83 12.66,-92.83l0 -330.5z"
   id="glyph52" />
   <glyph
   unicode="i"
   horiz-adv-x="258"
   d="M190.99 658.16c0,-16.85 -5.83,-31.34 -17.49,-43.32 -11.84,-11.84 -26.01,-17.85 -42.5,-17.85 -16.99,0 -31.34,5.83 -43.18,17.67 -11.8,11.66 -17.81,26.33 -17.81,43.5 0,16.67 6.01,30.84 17.99,42.5 12.16,11.52 26.69,17.35 44,17.35 16.17,0 30.16,-5.83 41.67,-17.67 11.48,-11.66 17.31,-25.83 17.31,-42.17zm-14.99 -646c0,-6.15 -0.82,-9.66 -2.65,-10.66 -1.86,-1 -4.51,-1.5 -8.19,-1.5l-53.34 0c-4.97,0 -7.98,0.82 -9.16,2.68 -1.18,1.82 -1.68,4.97 -1.68,9.48l0 405.83 -79.81 0c-5.83,0 -9.34,1 -10.52,3 -1.14,1.82 -1.65,4.69 -1.65,8.16l0 38.67c0,6.19 1.32,9.84 3.83,11.16 1.65,0.68 4.51,1 8.33,1l144.16 0c4.83,0 7.83,-0.82 8.98,-2.65 1.18,-1.82 1.68,-5.01 1.68,-9.52l0 -455.66z"
   id="glyph53" />
   <glyph
   unicode="k"
   horiz-adv-x="443"
   d="M429.15 35.99c0,-2 -1.65,-4.83 -5.33,-8.33l-40.99 -30.84c-3.33,-2.47 -5.83,-3.83 -7.83,-3.83 -1.32,0 -3.33,1.36 -5.83,3.83l-209.16 250.19 0 -234.84c0,-6.15 -1.32,-9.84 -3.83,-11.16 -1.36,-0.68 -3.86,-1 -7.33,-1l-52.69 0c-4.83,0 -7.98,0.82 -9.16,2.68 -1.32,1.82 -2,4.97 -2,9.48l0 686c0,6.19 3.33,10.34 10.16,12.66l51.69 12.16 6.83 1c4.15,0 6.33,-3.65 6.33,-11.16l0 -452.98 200.82 225.83c3.51,4.15 7.01,6.33 10.34,6.33 2.5,0 5.51,-1.5 8.66,-4.33l38.17 -25c3.33,-3.18 4.83,-6.19 4.83,-8.66 0,-2.68 -1.5,-5.87 -4.83,-9.34l-170.81 -186.01 178.64 -214.85c2.33,-2 3.33,-4.65 3.33,-7.83z"
   id="glyph54" />
   <glyph
   unicode="l"
   horiz-adv-x="258"
   d="M272.83 13.99c0,-5.15 -9.52,-10.48 -28.65,-15.99 -19.35,-5.33 -38.03,-8.01 -56.16,-8.01 -58.02,0 -92.01,23.36 -102.2,69.86 -3.15,15.31 -4.83,56.3 -4.83,122.98l0 516.33c0,6.83 3.68,10.66 10.84,11.66l51.51 12.16c0.5,0.68 2.83,1 6.83,1 3.83,0 5.83,-3.65 5.83,-11.16l0 -530.5c0,-51.83 0.82,-82.49 2.5,-92.33 3.15,-25.33 16.81,-37.99 40.82,-37.99 14.02,0 29.01,3.97 44.86,11.98 3.83,1.32 6.47,2 7.83,2 2.15,0 4.47,-2.33 6.83,-7.01l12.16 -37.17c1.14,-4.15 1.82,-6.83 1.82,-7.83z"
   id="glyph55" />
   <glyph
   unicode="m"
   horiz-adv-x="722"
   d="M640.99 12.16c0,-6.15 -1,-9.66 -3.15,-10.66 -2.18,-1 -5.19,-1.5 -9.01,-1.5l-50.65 0c-6.19,0 -9.84,1.32 -11.2,3.83 -0.64,1.68 -0.97,4.51 -0.97,8.33l0 342.84c0,48.69 -21.36,73.01 -64.03,73.01 -28.33,0 -62.31,-13.34 -101.99,-39.99l0 -375.85c0,-6.15 -1,-9.66 -3,-10.66 -1.82,-1 -4.51,-1.5 -7.83,-1.5l-52.33 0c-5.01,0 -7.98,0.82 -9.16,2.68 -1.18,1.82 -1.68,4.97 -1.68,9.48l0 341.84c0,49.33 -21.32,74.01 -64,74.01 -29.83,0 -63.17,-14.34 -99.98,-42.85l0 -372.99c0,-6.15 -1,-9.66 -3.18,-10.66 -2.15,-1 -5.15,-1.5 -8.98,-1.5l-50.69 0c-6.15,0 -9.66,1.32 -10.66,3.83 -1,1.68 -1.5,4.51 -1.5,8.33l0 358.83c0,28.01 -6.01,56.02 -17.99,83.85 -0.68,0.68 -1,2.33 -1,5.01 0,2.83 1.68,4.83 4.83,5.83l39.99 22.82c3.68,2.33 6.69,3.51 9.34,3.51 10.16,0 19.67,-18.99 28.83,-57.02 50.33,39.35 97.16,59.02 140.01,59.02 46.5,0 78.16,-19.67 94.65,-59.02 55.34,39.35 104.02,59.02 146.02,59.02 43.64,0 73.98,-14.67 91.33,-44 11.98,-20.5 17.99,-52.83 17.99,-97.01l0 -340.83z"
   id="glyph56" />
   <glyph
   unicode="n"
   horiz-adv-x="519"
   d="M436.99 12.16c0,-6.15 -1,-9.66 -3,-10.66 -1.82,-1 -4.65,-1.5 -8.16,-1.5l-52.66 0c-4.83,0 -8.01,0.82 -9.16,2.68 -1.36,1.82 -2,4.97 -2,9.48l0 333c0,55.16 -22,82.85 -66,82.85 -42.35,0 -86.35,-21 -132,-62.85l0 -353c0,-6.15 -1,-9.66 -3,-10.66 -1.82,-1 -4.69,-1.5 -8.19,-1.5l-52.66 0c-4.83,0 -7.98,0.82 -9.16,2.68 -1.32,1.82 -2,4.97 -2,9.48l0 342.66c0,36.52 -6.33,68.5 -18.99,96.19 -1,2.65 -1.68,4.51 -2,5.83 0,3 1.68,4.83 4.83,5.83l45.5 25.83c3.18,2.33 5.83,3.51 7.66,3.51 12.84,0 23,-22 30.84,-66.18 56.66,45.5 110.36,68.18 161.01,68.18 49.51,0 83.49,-16.17 102.16,-48.33 11.34,-19.17 16.99,-52.69 16.99,-100.52l0 -333z"
   id="glyph57" />
   <glyph
   unicode="o"
   horiz-adv-x="499"
   d="M450.01 243.18c0,-81.02 -18.17,-144.16 -54.34,-189.34 -36.17,-45.18 -86.5,-67.82 -150.99,-67.82 -61.35,0 -108.85,22.14 -142.84,66.32 -33.84,44.32 -50.83,106.17 -50.83,185.51 0,80.99 18.17,143.98 54.34,188.8 36.17,44.86 86.5,67.36 150.99,67.36 60.67,0 108.17,-22.18 142.34,-66.68 34.16,-44.32 51.33,-105.81 51.33,-184.15zm-82.02 1c0,124.49 -39.49,186.84 -118.48,186.84 -77.66,0 -116.51,-61.03 -116.51,-183.01 0,-68.82 10.34,-120.66 31.01,-155.18 17.49,-29.15 46.65,-43.82 87.5,-43.82 39.17,0 67.32,13.99 84.49,42 21.32,34.48 31.98,85.49 31.98,153.17z"
   id="glyph58" />
   <glyph
   unicode="p"
   horiz-adv-x="499"
   d="M450.01 250.01c0,-82.02 -14.85,-146.52 -44.5,-193.53 -29.83,-46.97 -70.33,-70.47 -122.02,-70.47 -37.49,0 -76.98,14.67 -118.48,43.82l0 -213.99c0,-7.19 -3,-11.34 -9.19,-12.66l-52.66 -14.2c-2.33,-0.64 -4.15,-0.97 -5.83,-0.97 -4.83,0 -7.33,3.47 -7.33,10.66l0 542.98c0,43.68 -6.65,76.02 -20.18,97.19 -6.51,10.8 -9.84,17.13 -9.84,19.14 0,2.18 1,3.86 3,4.86l43 30.16c2,2 4.51,3 7.83,3 10.84,0 23.18,-20 37.17,-60.03 50.51,38.67 98.66,58.02 144.34,58.02 58.16,0 98.52,-23.18 121.34,-69.33 22.18,-44.18 33.34,-102.52 33.34,-174.67zm-82.02 -2c0,57.16 -4.97,99.48 -15.17,127.17 -12.31,34.48 -36.31,51.83 -72.15,51.83 -29.65,0 -68.18,-16.35 -115.65,-48.83l0 -282.17c41.64,-28.01 77.98,-42 108.82,-42 34.16,0 58.34,14.81 72.65,44.5 14.34,29.65 21.5,79.48 21.5,149.49z"
   id="glyph59" />
   <glyph
   unicode="r"
   horiz-adv-x="332"
   d="M333.18 477.98c0,-1.65 -0.68,-3.97 -2,-6.83l-24 -56.16c-1,-1.82 -2.68,-2.83 -5.33,-2.83 -0.36,0 -5.83,1.68 -16.67,4.83 -6.83,1.36 -12.52,2 -16.99,2 -22.18,0 -55.2,-25.33 -99.2,-76.16l0 -330.67c0,-6.15 -1,-9.66 -2.97,-10.66 -1.86,-1 -4.51,-1.5 -7.83,-1.5l-53.34 0c-5.01,0 -8.01,0.82 -9.19,2.68 -1.14,1.82 -1.65,4.97 -1.65,9.48l0 299.84c0,34.66 -0.86,57.49 -2.33,68.32 -3,22.68 -10.19,44.5 -21.86,65.36 -2.5,4.83 -3.83,8.33 -3.83,10.3 0,3.86 1.68,6.87 4.83,8.69l42 26.33c3.33,2 6.01,3 8.33,3 5.83,0 12.84,-8.69 20.85,-26.01 7.83,-17.49 13.66,-36.34 17.31,-56.84 31.16,35.02 54.34,57.66 69.5,67.68 15.17,10.16 33.34,15.17 54.52,15.17 11.3,0 22.5,-1.82 33.3,-5.33 11.02,-3.68 16.53,-7.19 16.53,-10.7z"
   id="glyph60" />
   <glyph
   unicode="s"
   horiz-adv-x="389"
   d="M348.99 127.99c0,-42.32 -14.67,-76.48 -44,-102.66 -29.15,-26.15 -67.64,-39.31 -115.15,-39.31 -54.34,0 -103.67,12.99 -148.02,38.99 -3.83,2.33 -5.83,5.33 -5.83,9.34 0,0.82 0.36,2.15 1,3.83l18.99 43.82c1,2.68 3,4.01 5.87,4.01 1.32,0 3.97,-0.68 7.83,-2 45.64,-22.64 86.32,-33.98 122.16,-33.98 24.15,0 43.5,6.65 58.16,20 14.67,13.34 22,30.84 22,52.16 0,31.01 -21.36,56.34 -64,76.16 -55.84,25.68 -93.19,46.18 -111.68,61.53 -30.84,25.33 -46.32,56.98 -46.32,95.15 0,40.67 14.17,74.01 42.64,100.02 28.51,25.97 65.03,38.99 109.53,38.99 25.97,0 53.98,-4.83 83.81,-14.67 30.01,-9.66 45,-18.85 45,-27.33 0,-1.86 -0.68,-4.33 -2,-7.19l-17.99 -36.67c-2.5,-4.15 -5.65,-6.33 -9.16,-6.33 0,0 -2.68,0.68 -7.83,2 -36.34,17.49 -67.36,26.18 -93.19,26.18 -50.47,0 -75.84,-22.5 -75.84,-67.36 0,-20.14 6.69,-36.49 20,-48.83 9.01,-8.33 43.86,-27.51 104.35,-56.98 36.99,-17.99 62.85,-36.34 77.52,-55.52 14.81,-18.99 22.14,-43.5 22.14,-73.33z"
   id="glyph61" />
   <glyph
   unicode="t"
   horiz-adv-x="332"
   d="M343.02 29.65c0,-7.83 -15.17,-16.31 -45.68,-25.65 -30.51,-9.34 -58.49,-14.02 -84.35,-14.02 -62.49,0 -100.98,24.36 -115.65,72.87 -4.19,13.66 -6.33,37.99 -6.33,73.33l0 281.81 -70.83 0c-8.19,0 -12.16,3.68 -12.16,11.16l0 38.67c0,6.19 1.32,9.84 3.83,11.16 1.65,0.68 4.51,1 8.33,1l70.83 0 0 137.18c0,6.83 3.33,11.16 10.16,12.66l51.65 14.17c3.68,1.32 5.69,2 6.37,2 4.47,0 6.83,-4.01 6.83,-12.16l0 -153.85 150.13 0c6.19,0 9.19,-2.33 9.19,-6.83 0,-1.65 -0.36,-3.65 -1,-6.33l-11.16 -38.49c-2,-6.83 -6.69,-10.34 -14.17,-10.34l-133 0 0 -281.17c0,-31.84 3.33,-52.16 9.8,-60.81 10.34,-13.34 27.19,-20.03 50.33,-20.03 20.85,0 50.87,8.01 89.86,24.18 3.33,1.18 5.83,1.82 7.48,1.82 3.51,0 5.87,-2 6.83,-5.83l10.7 -41.17c1.32,-2.83 2,-4.65 2,-5.33z"
   id="glyph62" />
   <glyph
   unicode="u"
   horiz-adv-x="499"
   d="M451.01 23c-0.68,-0.82 -2.18,-2.5 -4.51,-4.83l-44.82 -29.19c-3,-1.97 -5.37,-2.97 -6.83,-2.97 -10.84,0 -22.5,20 -35.2,59.81 -51.83,-39.81 -101.81,-59.81 -149.99,-59.81 -91.15,0 -136.65,44.64 -136.65,134.14l0 344.52c0,6.83 3.33,11.34 9.84,13.16l51.98 14.17c2.5,0.64 4.69,1 6.33,1 4.51,0 6.83,-3.68 6.83,-11.16l0 -312.18c0,-43.82 5.19,-74.15 15.67,-90.82 10.34,-16.49 29.19,-24.83 56.52,-24.83 43.5,0 85.49,16.99 125.81,50.83l0 359.83c0,7.15 3.18,11.48 9.69,13.16l52.83 14.17c2.15,0.64 4.15,1 5.65,1 4.51,0 6.83,-3.68 6.83,-11.16l0 -349.03c0,-43.14 9.01,-77.48 27.01,-102.81 2,-2.68 3,-5.01 3,-7.01z"
   id="glyph63" />
   <glyph
   unicode="v"
   horiz-adv-x="425"
   d="M423 466.68c0,-1.36 -0.68,-3.68 -2,-6.83l-182.15 -458.02c-2.18,-5.83 -6.51,-8.84 -12.7,-8.84l-38.13 0c-6.51,0 -10.84,3 -13.2,8.84l-168.81 460.85c-1.36,2.65 -2,4.65 -2,6.33 0,3.83 3.51,6.51 10.34,7.83l58.99 13.16 3 0c3.15,0 5.83,-3.18 7.66,-9.34l106.99 -326.85c2,-4.33 4.36,-11.3 7.33,-21l11.7 -42c5.33,20.5 11.66,40.99 19.14,61.85l119.19 328.17c1.82,6.15 4.47,9.16 7.66,9.16 1.32,0 3.33,-0.32 6.01,-1l52.16 -14.17c5.83,-1.5 8.84,-4.33 8.84,-8.16z"
   id="glyph64" />
   <glyph
   unicode="w"
   horiz-adv-x="610"
   d="M600.18 469.5c0,-1.32 -0.36,-2.83 -1,-4.51l-1 -2.83 -132.36 -459.35c-1.82,-6.51 -5.83,-9.84 -11.66,-9.84l-38.99 0c-6.15,0 -10.34,3.33 -12.34,9.84l-78.48 303.34c-3.33,11.66 -6.01,26.01 -8.33,43l-2 14.67 -2.83 21c-3.36,-30.01 -8.33,-55.84 -15.17,-77.66l-93.83 -305.35c-1.86,-5.83 -6.33,-8.84 -13.2,-8.84l-36.99 0c-6.15,0 -10.16,3.33 -11.84,9.84l-115.15 458.84c-0.68,2.65 -1,4.51 -1,5.83 0,4.65 3.15,7.33 9.34,8.33l50.65 12.66c2.68,1 4.69,1.5 6.01,1.5 3.83,0 6.65,-3.33 8.16,-10.16l70.83 -347.02c0.68,-2.65 3,-15.49 6.83,-38.67 1,6.01 5.37,24.18 13.16,54.84l95.37 324.16c1.47,5.83 5.47,8.84 11.66,8.84l39.99 0c6.51,0 10.66,-3 12.16,-8.84l89 -376 2.83 13.66 4.83 25.51 84.99 343.84c1.68,5.83 4.51,8.84 8.33,8.84 1.68,0 3.51,-0.32 5.87,-1l45.97 -10.66c6.83,-1.68 10.19,-4.33 10.19,-7.83z"
   id="glyph65" />
   <glyph
   unicode="z"
   horiz-adv-x="407"
   d="M389.84 59.99c0,-2.33 -0.5,-4.97 -1.82,-8.33l-19.17 -42.64c-1.86,-6.01 -6.33,-9.01 -13.16,-9.01l-312 0c-7.83,0 -11.66,4.01 -11.66,12.16l0 39.67 252.98 365.16 -221.32 0c-7.19,0 -10.66,3.68 -10.66,11.16l0 41.17c0,7.19 3.47,10.66 10.66,10.66l304.31 0c4.86,0 7.83,-0.82 9.01,-2.47 1.18,-1.5 1.68,-4.36 1.68,-8.19l0 -42.5 -249.01 -360.83 249.01 0c4.83,0 7.98,-0.32 9.34,-1.18 1.32,-0.82 1.82,-2.47 1.82,-4.83z"
   id="glyph66" />
   <glyph
   unicode="ä"
   horiz-adv-x="462"
   d="M373.99 629.83c0,-14.34 -5.33,-26.65 -15.99,-36.99 -10.52,-10.52 -23.32,-15.67 -38.35,-15.67 -14.31,0 -26.65,5.15 -36.99,15.67 -10.52,10.34 -15.67,23 -15.67,37.99 0,14.67 5.15,27.15 15.67,37.49 10.34,10.52 23,15.67 37.99,15.67 14.67,0 27.19,-5.33 37.67,-15.81 10.34,-10.7 15.67,-23.36 15.67,-38.35zm-197.32 0c0,-14.34 -5.19,-26.65 -15.67,-36.99 -10.34,-10.52 -22.68,-15.67 -37.02,-15.67 -14.99,0 -27.83,5.15 -38.31,15.67 -10.66,10.34 -15.99,23 -15.99,37.99 0,14.67 5.33,27.15 15.99,37.49 10.48,10.52 23.32,15.67 38.31,15.67 14.67,0 27.01,-5.33 37.35,-15.81 10.16,-10.7 15.35,-23.36 15.35,-38.35zm228.98 -605.15c0,-2 -1.32,-3.51 -3.83,-4.86l-43 -26.83c-2.65,-2 -5.15,-3 -7.83,-3 -12.66,0 -25.33,21.03 -38.17,63.03 -42.82,-42 -90.65,-63.03 -142.98,-63.03 -40.35,0 -72.51,12.34 -96.19,36.84 -23.82,24.68 -35.66,58.02 -35.66,100.02 0,113 88,170.99 264,173.99l0 33.16c0,32.02 -7.15,54.84 -21.32,68.5 -14.17,13.66 -37.67,20.5 -70.65,20.5 -33.2,0 -73.01,-9.66 -119.19,-29.01 -2.65,-1.14 -5.01,-1.82 -6.83,-1.82 -3.65,0 -6.01,1.5 -6.83,4.83l-15.17 39.99 -1 7.69c0,4.97 8.84,11.3 26.83,18.99 41.35,18.17 85.85,27.33 133.36,27.33 103.81,0 155.82,-46.68 155.82,-140.15l0 -189.02c0,-55.34 8.84,-98.98 26.69,-131.32 1.32,-2.18 1.97,-4.19 1.97,-5.83zm-103.67 85.14l0 129.03c-124.66,-1 -186.98,-36.34 -186.98,-106.03 0,-23.5 6.83,-42.5 20.5,-57.31 13.66,-14.85 31.34,-22.36 52.66,-22.36 33.34,0 71.19,18.99 113.83,56.66z"
   id="glyph67" />
  </font>
</defs>
</svg>
